#TITLE:Diablo;
#SUBTITLE:;
#ARTIST:Bond;
#TITLETRANSLIT:;
#SUBTITLETRANSLIT:;
#ARTISTTRANSLIT:;
#GENRE:;
#CREDIT:;
#BANNER:Diablo-bn.png;
#BACKGROUND:Diablo-bg.png;
#LYRICSPATH:;
#CDTITLE:;
#MUSIC:Diablo.ogg;
#OFFSET:-0.840;
#SAMPLESTART:54.870;
#SAMPLELENGTH:12.000;
#SELECTABLE:YES;
#BPMS:0.000=150.000,288.000=70.000,344.000=150.000,480.000=70.000,487.500=60.000,489.000=50.000,489.500=42.000,490.000=20.000;
#STOPS:;
#BGCHANGES:;
#KEYSOUNDS:;

//---------------dance-single - C.Sanabria----------------
#NOTES:
     dance-single:
     C.Sanabria:
     Challenge:
     10:
     0.926,1.000,0.141,1.000,0.503:
0000
0000
0000
0000
,
0000
0000
0000
0000
,
0000
0000
0000
0000
,
0000
0000
0000
0000
,
0000
0000
0000
0000
,
0000
0000
0000
0000
,
0000
0000
0000
0000
,
0000
0000
0000
0000
,
0000
0000
0000
0000
,
0000
0000
0000
0000
0000
0000
0000
0000
0000
0000
0000
0000
0000
0000
1000
0001
,
2000
0000
0000
0000
3000
0000
0000
0000
0020
M000
0000
0000
0030
0000
0000
0000
0200
00M0
0000
0000
0300
0000
0000
0000
0002
0M00
0000
0000
0003
0000
0000
0000
,
0200
000M
0000
0000
0300
0000
0000
0000
0020
0M00
0000
0000
0030
0000
0000
0000
2000
00M0
0000
0000
3000
0000
0000
0000
0002
M000
0000
0000
0003
0000
0000
0000
,
2000
000M
0000
0000
3000
0000
0000
0000
0200
M000
0000
0000
0300
0000
0000
0000
0020
0M00
0000
0000
0030
0000
0000
0000
0002
00M0
0000
0000
0003
0000
0000
0000
,
0200
000M
0000
0000
0300
0000
0000
0000
0020
0M00
0000
0000
0030
0000
0000
0000
0200
00M0
0000
0000
0300
0000
0000
0000
0020
0M00
0000
0000
0030
0000
0000
0000
,
1000
0100
0010
0001
0200
0000
0320
0000
,
0030
1000
0100
0010
0002
0000
2003
0000
,
3002
0000
0000
0000
0103
0000
0000
0000
0002
0M00
0000
0000
1003
0000
0000
0000
0002
0000
0000
0000
0013
0000
0000
0000
0002
00M0
0000
0000
1003
0000
0000
0000
,
0001
0100
0010
1000
0001
0100
0010
1000
0001
0010
0100
1000
0001
0010
0100
1000
,
0002
0203
0310
0002
0023
0130
0002
0023
,
0230
0302
0103
2000
3020
0130
0002
2003
,
3200
0320
2030
3020
0230
1300
0002
0013
,
0200
0320
2030
3020
0230
2300
3002
0103
,
0002
0203
0310
0002
0023
0130
0002
0023
,
0230
0302
0103
2000
3020
0130
0002
2003
,
3200
0301
0200
0310
0002
0013
2000
3010
,
0002
1003
0020
0130
2000
3100
0020
1030
,
0002
0023
0130
0002
0203
0310
0002
2003
,
3020
0230
2300
3200
0320
0230
0302
2003
,
3002
0023
0230
0302
0203
0320
0032
0203
,
0320
0032
0023
2030
3002
0023
0230
1300
,
22MM
3300
M22M
0330
MM22
0033
2MM2
3003
,
M2M2
0303
M22M
0330
2M2M
3030
2MM2
3003
,
M22M
0000
0330
0000
1000
0100
0010
0001
2MM2
0000
3003
0000
0000
0000
0000
0000
,
0101
0000
M2M2
0000
0303
0000
1010
0000
2M2M
0000
3030
0000
0000
0000
1000
0100
,
0020
0000
0031
1000
0002
0000
1003
0010
0200
0000
0301
1000
0002
0000
0013
0100
,
2000
0000
3010
0100
0002
0000
1003
0100
0020
0000
0031
0100
0020
0000
1030
0001
,
0020
0000
0031
1000
0020
0000
0130
0001
2000
0000
3100
1000
0002
0000
1003
0100
,
0020
0030
0002
0003
0020
0030
0002
0003
2000
3000
0200
0300
2000
3000
0001
0100
,
0020
0000
1030
0001
2000
0000
3001
0010
0200
0000
1300
0001
2000
0000
3010
0100
,
0002
0000
0013
0100
2000
0000
3001
0100
0020
0000
0000
0000
1030
0000
0001
0000
,
1000
0100
0010
0001
1000
0100
0010
0100
1000
0100
0010
0001
1000
0100
0010
0100
,
1000
0010
0100
0001
1000
0010
0100
0001
1000
0010
0100
0001
1000
0010
0100
0001
,
2000
0000
0000
0000
0000
0000
3002
2003
,
3002
0000
0000
0000
0203
0000
0000
0000
0320
0000
0000
0000
0002
0003
0000
0000
,
0200
0300
0000
0000
2000
3000
0000
0000
0230
0000
0302
0000
2003
0000
3200
0000
,
0320
0230
1300
0020
0230
1300
0200
0310
,
2000
3200
0320
0230
2300
3002
2003
3020
,
0032
0023
0230
0302
0023
0130
0020
0031
,
0200
0320
0032
0023
0230
0320
2030
3002
,
2003
3200
0310
2000
3020
0130
2000
3010
,
0200
2300
3200
0320
2030
3002
2003
3200
,
0320
0030
0002
0003
0020
0030
0200
0300
0020
0030
2000
3000
0020
0030
0200
0300
,
0020
0030
0001
0100
0001
0000
0100
0010
0100
0000
0010
1000
0010
0000
1000
0000
,
0002
0023
0230
2300
3020
2030
3200
0320
0032
0023
0230
2300
3020
2030
3200
0320
,
0032
0023
0230
2300
3002
2003
3200
0320
0032
0023
0230
2300
3002
2003
3200
0320
,
0032
0203
0320
2030
3002
0023
0230
2300
,
3020
0230
0302
0023
2030
3020
0032
2003
,
3001
0100
0010
1000
0100
1000
0010
0100
0001
0010
0001
0010
0100
1000
0100
1000
,
0001
0100
0010
1000
0100
1000
0010
0100
0001
0010
0001
0010
0100
1000
0100
1000
,
2200
0000
3300
0000
0001
0010
0100
1000
2MM2
0000
3003
0000
0000
0000
0000
0000
,
0101
0000
M2M2
0000
0303
0000
1010
0000
2M2M
0000
3030
0000
0000
0000
1000
0100
,
0020
0000
0031
1000
0002
0000
1003
0010
0200
0000
0301
1000
0002
0000
0013
0100
,
2000
0000
3010
0100
0002
0000
1003
0100
0020
0000
0031
0100
0020
0000
1030
0001
,
0020
0000
0031
1000
0020
0000
0130
0001
2000
0000
3100
1000
0002
0000
1003
0100
,
0020
0030
0002
0003
0020
0030
0002
0003
2000
3000
0200
0300
2000
3000
0001
0100
,
0020
0000
1030
0001
2000
0000
3001
0010
0200
0000
1300
0001
2000
0000
3010
0100
,
0002
0000
0013
0100
2000
0000
3001
0100
0020
0000
0000
0000
1030
0000
0001
0000
,
0020
0030
2000
3000
0020
0030
0002
0003
0200
0300
2000
3000
0200
0300
0002
0003
,
2000
0000
3002
0023
0230
0000
0000
0000
,
2300
0000
3002
0023
0230
0000
2300
0000
,
3002
0000
2003
3020
0230
0000
0300
0000
,
0101
1010
1001
0000
,
0000
2000
3200
0320
0032
M003
00M0
0M00
,
000M
2000
3020
0230
0302
00M3
0M00
M000
,
000M
2000
3200
0320
0230
030M
00M0
0M00
,
00M0
0000
0002
0000
0203
0000
0320
0000
2030
0000
300M
0000
0M00
0000
M000
0001
,
0001
0000
0000
0000
0100
0000
0000
1000
1000
0000
0000
0000
M10M
0000
0000
0001
,
0010
0000
0000
0000
M10M
0000
0000
1000
0010
0000
0000
0000
M10M
0000
0000
0001
,
1000
0000
0000
0000
M10M
0000
0000
1000
0001
0000
0000
0000
M10M
0000
0000
1010
,
1010
0000
0000
0000
0100
0000
0000
0011
0011
0000
0000
0000
0000
1000
0100
0010
,
0002
0000
0003
0000
0000
0001
0100
0010
2000
0000
3001
0000
1000
0001
0010
0100
,
2000
0000
3000
0000
0000
1000
0010
0100
0002
0000
1003
0000
0001
0010
0100
1000
,
0002
0000
0003
0000
0000
0010
0100
1000
0002
0000
1003
0000
0000
0010
0100
0001
,
2000
0000
3000
0000
0000
0100
0010
0001
2000
0000
0000
3001
0000
2000
3020
0230
,
0302
0003
0000
0000
0000
2000
3200
0320
0230
0300
0000
0000
0000
0002
0203
0320
,
0230
0000
0000
0300
0000
0000
M000
0000
0000
0000
0000
0000
00M0
0000
0000
0000
0000
0000
0M00
0000
0000
0000
0000
0000
000M
0000
0000
0000
0000
0000
M000
0000
0000
0000
0000
0000
1000
0000
0010
0000
0100
0000
0001
0000
0010
0000
0100
0000
,
2000
3200
0310
2000
3020
0130
2000
3020
,
0230
2300
3100
0002
0023
0130
2000
3002
,
0203
0320
0032
0023
0230
0301
2000
3010
,
0200
0320
0032
0023
0230
0302
2003
3100
,
2000
3200
0310
2000
3020
0130
2000
3020
,
0230
2300
3100
0002
0023
0130
2000
3002
,
0203
1300
0200
0310
2000
3010
0002
0013
,
2000
3001
0020
0130
0002
0103
0020
0031
,
1000
0100
0010
0001
0100
0001
0010
0100
1000
0100
0010
0001
1000
0001
0010
0100
,
1000
0100
0010
0001
0100
0001
0010
0100
1000
0100
0010
0001
1000
0001
0010
0100
,
2000
3200
0320
2030
3020
0230
2300
3002
,
2003
3002
0203
0320
0032
0023
0230
0302
,
0013
0100
1000
0001
0100
0001
0010
0100
1000
0010
1000
0010
0100
0001
0100
0001
,
0010
0100
1000
0001
0100
0001
0010
0100
1000
0010
1000
0010
0100
0001
0100
0001
,
M2M2
0000
0303
0000
0001
0100
0010
1000
2MM2
0000
0000
0000
3003
0000
0000
0000
,
1100
1100
0000
0101
2002
0000
3003
0000
,
0010
1000
0010
1000
0001
0100
0001
0100
,
0010
0000
1000
0100
0010
0000
0001
0000
1000
0000
0001
0100
0010
0000
1000
0000
,
0001
0000
0010
0100
1000
0000
0001
0000
1000
0000
0010
0100
0001
0000
1000
0000
,
0002
0003
0020
0030
0200
0300
0020
0030
2000
3000
0020
0030
0200
0300
0020
0030
,
0001
0100
0001
0100
0010
1000
0010
1000
,
0001
0000
1000
0100
0010
0000
0001
0100
0020
0000
0000
0000
0030
0000
0000
0000
,
2000
3000
0200
0300
0020
0030
0200
0300
0002
0003
0200
0300
0020
0030
0200
0300
,
2000
3000
0020
0030
0002
0003
0020
0030
2000
3000
0200
0300
0020
0030
0001
0100
,
0020
0000
1030
0001
2000
0000
3001
0010
0200
0000
1300
0001
2000
0000
3010
0100
,
0002
0000
0013
0100
2000
0000
3001
0100
0020
0000
1030
0100
0020
0000
0031
1000
,
0020
0000
1030
0001
0020
0000
0130
1000
0002
0000
0103
0001
2000
0000
3001
0100
,
0020
0030
2000
3000
0020
0030
2000
3000
0002
0003
0200
0300
0002
0003
1000
0100
,
0020
0000
0031
1000
0002
0000
1003
0010
0200
0000
0301
1000
0002
0000
0013
0100
,
2000
0000
3010
0100
0002
0000
1003
0100
0020
0000
0000
0000
0030
0000
0002
0003
,
0200
0300
0020
0030
0200
0300
2000
3000
0200
0300
0020
0030
0200
0300
0002
0003
,
2000
3000
0200
0300
0002
0003
0200
0300
2000
3000
0020
0030
0002
0003
0020
0030
,
1000
0100
0010
0100
1000
0010
0100
0001
1000
0100
0010
0100
1000
0010
0100
0001
,
1000
0100
0010
0001
0010
0100
1000
0001
0010
0100
1000
0100
0010
0001
1000
0100
,
2000
0000
3002
0000
0203
0000
00M0
0000
M000
0000
0320
2030
3002
0000
2M03
0000
,
32M0
0000
0320
0032
2003
0000
000M
0000
0M00
0000
3020
0230
0302
0000
2003
0000
,
3200
0302
0203
2300
3002
0000
0000
0000
,
0003
0000
0000
0000
;

//---------------dance-single - C.Sanabria----------------
#NOTES:
     dance-single:
     C.Sanabria:
     Beginner:
     3:
     0.136,0.210,0.064,0.000,0.000:
0000
0000
0000
0000
,
0000
0000
0000
0000
,
0000
0000
0000
0000
,
0000
0000
0000
0000
,
0000
0000
0000
0000
,
0000
0000
0000
0000
,
0000
0000
0000
0000
,
0000
0000
0000
0000
,
0000
0000
0000
0000
,
0000
0000
0000
0000
,
1000
0000
0000
0000
,
0001
0000
0000
0000
,
1000
0000
0000
0000
,
0001
0000
0000
0000
,
0010
0010
0010
0000
,
0010
0000
0010
0000
,
0100
0000
0100
0000
,
0100
0000
0100
0000
,
1000
0000
1000
0000
,
1000
0000
1000
0000
,
0001
0000
0001
0000
,
0001
0000
0001
0000
,
1000
0000
1000
0000
,
1000
0000
1000
0000
,
0001
0000
0001
0000
,
0001
0000
0001
0000
,
0010
0010
0010
0000
,
0010
0010
0010
0000
,
0100
0000
1000
0000
,
0001
0000
0100
0000
,
0010
0000
0110
0000
,
0100
0000
0110
0000
,
1001
0000
0010
0000
,
0100
0000
1001
0000
,
1000
0000
1000
0000
,
0001
0000
0001
0000
,
0010
0000
0010
0000
,
0100
0100
0100
0100
,
0100
0000
0100
0000
,
1000
0000
0001
0000
,
0100
0100
0100
0100
,
0100
0100
0100
0100
,
0100
0000
0000
0000
,
0010
0000
0000
0000
,
1000
0000
0000
0000
,
0001
0000
0001
0000
,
0001
0000
0001
0000
,
1000
0000
1000
0000
,
1000
0000
1000
0000
,
0001
0000
0001
0000
,
0001
0000
0001
0000
,
1000
0000
1000
0000
,
1000
0000
1000
0000
,
0010
0000
0010
0000
,
0100
0000
0100
0000
,
0001
0000
0001
0000
,
1000
0000
1000
0000
,
0100
0000
0000
0000
,
0100
0000
0000
0000
,
1001
0000
0010
0000
,
0100
0000
1001
0000
,
1000
0000
1000
0000
,
0001
0000
0001
0000
,
1000
0000
1000
0000
,
0001
0000
0001
0000
,
0010
0000
0010
0000
,
0100
0000
0100
0000
,
1000
0000
0000
0000
,
0001
0000
0000
0000
,
0010
0000
0000
0000
,
0100
0000
0000
0000
,
0100
0000
0000
0000
,
1000
0000
1000
0000
,
1000
0000
1000
0000
,
0001
0000
0001
0000
,
0001
0000
0001
0000
,
0010
0000
0010
0000
,
0100
0000
0100
0000
,
0010
0000
0010
0000
,
0100
0000
0100
0000
,
1000
0000
1001
0000
,
0001
0000
1001
0000
,
1000
0000
1001
0000
,
0001
0000
1001
0000
,
1000
0000
1001
0000
,
0010
0000
1001
0000
,
1000
0000
1000
0000
,
1000
0000
1000
0000
,
0001
0000
0001
0000
,
0001
0000
0001
0000
,
1000
0000
1000
0000
,
1000
0000
1000
0000
,
0001
0000
0001
0000
,
0001
0000
0001
0000
,
0100
0100
0100
0000
,
0100
0100
0100
0000
,
0010
0010
0010
0000
,
0010
0010
0010
0000
,
1000
0000
0000
0000
,
0001
0000
0000
0000
,
1001
0000
0100
0000
,
0010
0000
1001
0000
,
1000
0000
0000
0000
,
0100
0000
0000
0000
,
0001
0000
0000
0000
,
0010
0000
0000
0000
,
1000
0000
0000
0000
,
0010
0000
0000
0000
,
0001
0000
0000
0000
,
0100
0000
0000
0000
,
1000
0000
0000
0000
,
1000
0000
0000
0000
,
0001
0000
0000
0000
,
0001
0000
0000
0000
,
1000
0000
0000
0000
,
0100
0000
0000
0000
,
0010
0000
0000
0000
,
0001
0000
0000
0000
,
1000
0000
1000
0000
,
1000
0000
1000
0000
,
1000
0000
0010
0000
,
0100
0000
0001
0000
,
1000
0000
0110
0000
;
