#TITLE:Cryosleep;
#SUBTITLE:;
#ARTIST:Dr. Demios feat. Preyfour;
#TITLETRANSLIT:;
#SUBTITLETRANSLIT:;
#ARTISTTRANSLIT:;
#GENRE:Dubstep;
#CREDIT:;
#BANNER:cryosleep-bn.png;
#BACKGROUND:cryosleep-bg.png;
#LYRICSPATH:;
#CDTITLE:;
#MUSIC:Deimos-and-P4---Cryosleep.mp3;
#OFFSET:-0.060;
#SAMPLESTART:70.450;
#SAMPLELENGTH:12.000;
#SELECTABLE:YES;
#DISPLAYBPM:75.000:150.000;
#BPMS:0.000=150.000,176.000=300.000,177.500=60.000,178.000=300.000,179.500=60.000,180.000=300.000,181.250=43.000,181.500=300.000,183.500=60.000,184.000=300.000,186.000=300.000,187.750=60.000,188.000=300.000,189.250=43.000,189.500=300.000,191.500=60.000,192.000=300.000,193.500=60.000,194.000=300.000,195.500=60.000,196.000=300.000,197.250=43.000,197.500=300.000,199.500=60.000,200.000=300.000,202.000=300.000,203.750=60.000,204.000=300.000,205.250=43.000,205.500=300.000,206.000=300.000,207.500=60.000,208.000=300.000,209.500=60.000,210.000=300.000,211.500=60.000,212.000=300.000,213.250=43.000,213.500=300.000,214.000=300.000,215.500=60.000,216.000=300.000,218.000=300.000,219.750=60.000,220.000=300.000,221.250=43.000,221.500=300.000,222.000=300.000,222.750=60.000,223.000=300.000,223.750=60.000,224.000=300.000,225.500=60.000,226.000=300.000,227.500=60.000,228.000=300.000,229.250=43.000,229.500=300.000,230.000=300.000,231.500=60.000,232.000=300.000,234.000=300.000,235.750=60.000,236.000=300.000,237.250=43.000,237.500=300.000,238.000=300.000,239.500=60.000,240.000=300.000,241.000=150.000;
#STOPS:181.500=0.050
,181.750=0.050
,184.000=0.033
,184.167=0.033
,184.333=0.033
,184.500=0.033
,184.667=0.033
,184.833=0.033
,185.000=0.033
,185.167=0.033
,185.333=0.033
,185.500=0.033
,185.667=0.033
,185.833=0.033
,186.000=0.100
,186.500=0.100
,189.500=0.050
,189.750=0.050
,197.500=0.050
,197.750=0.050
,200.000=0.033
,200.167=0.033
,200.333=0.033
,200.500=0.033
,200.667=0.033
,200.833=0.033
,201.000=0.033
,201.167=0.033
,201.333=0.033
,201.500=0.033
,201.667=0.033
,201.833=0.033
,202.000=0.100
,202.500=0.100
,205.500=0.050
,205.750=0.050
,213.500=0.050
,213.750=0.050
,216.000=0.135
,216.667=0.135
,217.333=0.135
,218.000=0.100
,218.500=0.100
,221.500=0.050
,221.750=0.050
,229.500=0.050
,229.750=0.050
,232.000=0.033
,232.167=0.033
,232.333=0.033
,232.500=0.033
,232.667=0.033
,232.833=0.033
,233.000=0.033
,233.167=0.033
,233.333=0.033
,233.500=0.033
,233.667=0.033
,233.833=0.033
,234.000=0.100
,234.500=0.100
,237.500=0.050
,237.750=0.050
,240.000=0.150
,240.250=0.150
,240.500=0.150
,240.750=0.150
;
#BGCHANGES:;
#KEYSOUNDS:;

//---------------dance-single - C. Sanabria----------------
#NOTES:
     dance-single:
     C. Sanabria:
     Challenge:
     13:
     0.756,1.000,0.163,1.000,0.553:
0000
0000
0000
0000
,
0000
0000
0000
0000
,
0000
0000
0000
0000
,
0000
0000
0000
0000
,
0000
0000
0000
0000
,
0000
0000
0000
0000
,
0000
0000
0000
0000
,
0000
0000
0000
0000
,
1000
0100
0010
0001
0010
0100
1000
0001
,
0100
0010
1000
0001
0100
0010
1000
0001
,
1000
0100
0010
0001
0010
0100
1000
0001
,
0100
0010
1000
0001
0100
0001
1000
0010
,
1000
0100
0010
0001
0010
0100
1000
0001
,
0100
0010
1000
0001
0100
0010
1000
0001
,
1000
0100
0010
0001
0010
0100
1000
0001
,
0100
0010
1000
0001
0100
0001
1000
0010
,
2010
3000
0020
0030
0200
0300
0002
0003
0201
0300
0020
0030
2000
3000
1002
0003
,
2000
3000
0200
0300
0020
0030
0002
0003
0201
0300
0020
0030
2000
3000
0002
0003
,
2001
3000
0020
0030
0200
0300
0002
0003
0201
0300
0020
0030
2000
3000
1002
0003
,
2000
3000
0200
0300
0021
0030
0002
0003
0201
0300
0002
0003
2000
3000
0200
0300
,
0120
0030
0002
0003
2000
3000
0020
0030
0210
0300
0002
0003
0200
0300
0120
0030
,
2000
3000
0002
0003
0020
0030
0200
0300
0120
0030
0200
0300
2000
3000
0002
0003
,
2001
3000
0002
0003
0200
0300
0020
0030
2010
3000
0002
0003
2000
3000
1020
0030
,
0200
0300
0002
0003
2001
3000
0200
0300
0120
0030
0002
0003
0020
0030
0200
0300
,
1000
0100
0010
0001
1000
0100
0010
0001
1000
0100
0010
0001
1000
0000
1100
0000
,
2000
3000
0020
0030
0200
0300
0002
0003
2001
3000
0200
0300
0020
0030
0002
0003
,
2001
0000
0010
0000
3010
0000
0200
0000
0001
0000
0301
0000
2000
3000
1002
0003
,
2000
3000
0200
0300
0120
0030
0002
0003
2001
3000
0020
0030
0200
0300
0002
0003
,
0200
0000
0002
0300
0200
0003
0002
0300
2000
0003
0020
3000
2000
0030
0020
3000
,
0200
0030
0002
0300
2000
0003
0200
3000
0020
0300
0002
0030
0020
0003
0200
0030
,
2000
0300
0020
3000
0200
0030
0002
0300
0020
0003
0200
0030
2000
0300
0002
3000
,
2000
0003
0200
3000
0020
0300
0002
0030
0200
0003
0020
0300
2000
0030
0002
3003
,
0000
M00M
0000
0000
0000
0000
0000
0000
,
0000
0000
0000
0000
,
0000
0000
0000
0000
,
0000
0000
0000
0000
,
0000
0000
0000
0000
,
0000
0000
0000
0000
,
0000
0000
0000
0000
,
0000
0000
0000
0000
,
0000
0000
0000
0000
,
0000
0000
0000
0000
,
0000
0000
0000
0000
,
M000
00M0
0M00
000M
,
2000
0000
3020
0000
,
2030
0000
0000
0000
0000
0000
3001
1000
0002
0000
0000
0000
0000
0000
0000
0000
,
0013
0100
1000
0001
1000
0100
0010
0001
1000
0001
0010
0100
2000
0000
0000
3020
0000
0000
0230
0000
0000
0000
0000
0000
,
0302
0000
0000
0000
0000
0000
1003
0001
2000
0000
0000
0000
0000
0000
0000
0000
,
3002
0000
0023
0000
,
0032
0000
0000
0000
0000
0000
0013
0100
2000
0000
0000
0000
0000
0000
0000
0000
,
3001
0100
0010
1000
0001
1000
0010
0100
0001
1000
0001
1000
0002
0000
0000
0023
0000
0000
0230
0000
0000
0000
0000
0000
,
2300
0000
0000
0000
0000
0000
3010
0100
0002
0000
0000
0000
0000
0000
0000
0000
,
2003
0000
3200
0000
,
2300
0000
0000
0000
0000
0000
3001
0100
0020
0000
0000
0000
0000
0000
0030
0000
,
1010
0000
0000
0000
0110
0000
0000
0000
0101
0000
0000
0000
2000
0000
0000
3200
0000
0000
0320
0000
0000
0000
0000
0000
,
0032
0000
0000
0000
0000
0000
1003
0001
2000
0000
0000
0000
3020
0000
0000
0000
,
0230
0000
0302
0000
,
2003
0000
0000
0000
0000
0000
3001
1000
0002
0000
0000
0000
0000
0000
0000
0000
,
1003
0100
0010
0001
1000
0001
1000
0001
0010
0100
1000
0001
0020
0000
0000
0230
0000
0000
2300
0000
0000
0000
0000
0000
,
3002
0000
0000
0000
0000
0000
1003
0001
0020
0000
0000
0000
0000
0000
0000
0000
,
0430
0000
0000
0300
1000
0100
0010
0001
1000
0001
0010
0100
1000
0100
0010
0001
,
1000
0001
0010
0100
1000
0001
1000
0001
0100
0010
0100
0010
1000
0001
1000
0001
,
0010
0100
0010
0100
1000
0001
1000
0100
0010
0100
1000
0001
1000
0010
0100
0010
,
1000
0001
1000
0100
0010
0100
1000
0001
1000
0100
0010
0001
1000
0001
0100
0010
,
1000
0001
1000
0010
0100
0001
1000
0100
0010
0001
1000
0001
0010
0100
1000
0001
,
1000
0000
0000
0100
0000
0000
0010
0000
0000
0001
0000
0000
1000
0000
0000
0010
0000
0000
0100
0000
0000
0001
0000
0000
1000
0000
0000
0100
0000
0000
0010
0000
0000
0001
0000
0000
1000
0000
0000
0000
0010
0000
0000
0000
0100
0000
0000
0000
,
0001
0000
1000
0000
0100
0000
0010
0000
0001
0000
1000
0000
0001
0000
0010
0000
0100
0000
1000
0100
1000
0001
0100
0001
,
1000
0000
0010
0000
1000
0000
0001
0000
0010
0000
0001
0000
2000
0000
0000
0000
0000
0000
0000
0000
0000
0000
0000
0000
3000
0000
0000
0000
0000
0000
0000
0000
0000
0000
0000
0000
0001
0000
0000
0100
0000
0000
0010
0000
0000
1000
0000
0000
,
0001
1000
0010
0100
0001
0100
0010
1000
0001
1000
0010
0100
0001
1000
0001
1000
,
0100
0010
0100
0010
0001
1000
0001
1000
0010
0100
0010
0100
0001
1000
0001
0100
,
0010
0100
0001
1000
0001
0010
0100
0010
0001
1000
0001
0100
0010
0100
0001
1000
,
0001
0100
0010
1000
0001
1000
0100
0010
0001
1000
0001
0010
0100
1000
0001
0100
,
0010
1000
0001
1000
0010
0100
0001
1000
0001
0100
0010
1000
0001
0010
0100
1000
,
0001
0100
0010
1000
0001
1000
0010
0100
0001
1000
0100
0010
0001
0010
0100
1000
,
0001
0000
0000
0010
0000
0000
0100
0000
0000
1000
0000
0000
0001
0000
0000
0100
0000
0000
0010
0000
0000
1000
0000
0000
0001
0000
0000
0100
0000
0000
0010
0000
0000
1000
0000
0000
0001
0000
0100
0000
0010
0000
1000
0000
0001
0000
0100
0000
,
0010
1000
0001
0100
0010
1000
0001
0010
0100
1000
0001
0010
0100
1000
0001
0010
0100
1000
0002
0000
0000
0000
0000
0000
,
0000
0023
0000
0032
,
0000
1003
0000
2000
,
0000
0000
3200
0000
0000
1300
0020
0000
,
0230
0000
0000
0000
0302
0000
0000
0000
0003
0000
0000
0000
0001
0100
0010
1000
,
0001
0100
0010
1000
0001
0000
0010
0000
0100
0000
1000
0000
0001
0100
0010
1000
,
0001
0100
0010
1000
0001
0000
0010
0000
0100
0000
1000
0000
0001
0010
0100
1000
,
0001
1000
0100
0010
0001
0000
0100
0000
0010
0000
1000
0000
0001
0100
0010
1000
,
0001
1000
0010
0100
0001
0000
0010
0000
0100
0000
1000
0000
0002
0000
0000
0000
,
0000
0023
0000
0230
,
0000
1300
0000
2000
,
0000
0000
3020
0000
0000
1030
0200
0000
,
0320
0000
0000
0000
0032
0000
0000
0000
0003
0000
0000
0000
1000
0100
0010
0100
,
1000
0100
0010
0100
1000
0000
1000
0000
0010
0000
0100
0000
0001
0100
0010
0100
,
0001
0100
0010
0100
0001
0000
0001
0000
0010
0000
0100
0000
1000
0001
1000
0001
,
1000
0001
1000
0001
1000
0000
0010
0000
0100
0000
0001
0000
1000
0100
0010
0001
,
1000
0010
0100
0001
1000
0000
0100
0000
0010
0000
0001
0000
2002
0000
0000
0000
,
3003
0002
0000
0203
,
0000
0000
0320
0000
0000
2030
3200
0000
,
0000
0000
0000
0000
0000
0320
0230
2300
,
3002
0000
0000
0000
2003
3020
0230
0000
,
0000
0000
0000
0000
0000
0302
0023
0230
,
2300
0000
0000
0000
0000
3020
0230
0000
,
0000
0000
0000
0000
0000
0320
0230
0000
,
0000
0320
0230
0302
2003
3000
2002
0000
,
3003
2000
0000
3200
,
0000
0000
0320
0000
0000
0032
0203
0000
,
0000
0000
0000
0000
0000
0320
0230
0302
,
2003
0000
0000
0000
3002
0023
0230
0000
,
0000
0000
0000
0000
0000
2300
3020
0230
,
0302
0000
0000
0000
0000
0023
0230
0000
,
0000
0000
0000
0000
0000
0320
0230
0000
,
0000
0320
0230
2300
3002
0003
2002
0000
,
3000
0200
0003
0020
,
0000
0000
0330
2000
,
0000
0000
3200
0000
0000
0310
0002
0000
,
2003
0200
0000
0000
,
0000
0000
0000
0000
,
0000
0000
0000
0000
,
0000
0000
0000
0000
,
3300
0000
0000
0000
;

//---------------dance-single - C.Sanabria----------------
#NOTES:
     dance-single:
     C.Sanabria:
     Beginner:
     3:
     0.156,0.180,0.141,0.000,0.000:
0000
0000
0000
0000
,
0000
0000
0000
0000
,
0000
0000
0000
0000
,
0000
0000
0000
0000
,
0000
0000
0000
0000
,
0000
0000
0000
0000
,
0000
0000
0000
0000
,
0000
0000
0000
0000
,
1000
0000
0000
0000
,
1000
0000
0000
0000
,
1000
0000
0000
0000
,
0000
0000
0000
0000
,
0001
0000
0000
0000
,
0001
0000
0000
0000
,
0001
0000
0000
0000
,
0000
0000
0000
0000
,
1000
0000
0110
0000
,
0001
0000
0110
0000
,
1000
0000
0110
0000
,
0001
0000
0110
0000
,
1000
0000
1001
0000
,
0001
0000
1001
0000
,
1000
0000
1001
0000
,
0001
0000
1001
0000
,
0010
0000
0110
0000
,
0100
0000
0110
0000
,
0010
0000
0110
0000
,
0100
0000
0110
0000
,
1000
0000
1001
0000
,
0010
0000
0110
0000
,
0001
0000
1001
0000
,
0100
0000
0110
0000
,
1001
0000
0000
0000
,
0000
0000
0000
0000
,
0000
0000
0000
0000
,
0000
0000
0000
0000
,
0000
0000
0000
0000
,
0000
0000
0000
0000
,
0000
0000
0000
0000
,
0000
0000
0000
0000
,
0000
0000
0000
0000
,
0000
0000
0000
0000
,
0000
0000
0000
0000
,
0000
0000
0000
0000
,
1000
0000
1000
0000
,
1000
0000
1000
0000
,
0001
0000
0001
0000
,
0001
0000
0001
0000
,
0010
0000
0010
0000
,
0010
0000
0010
0000
,
0100
0000
0100
0000
,
0100
0000
0100
0000
,
1000
0000
0001
0000
,
0010
0000
0100
0000
,
1000
0000
1000
0000
,
0001
0000
0001
0000
,
0010
0000
0100
0000
,
1000
0000
0010
0000
,
0100
0000
0001
0000
,
1000
0000
0100
0000
,
0110
1000
0000
0001
,
0000
1000
0000
0001
,
0000
1000
0000
0001
,
0000
1000
0000
0010
,
0000
0100
0000
0001
,
0000
0010
0000
0100
,
0000
0100
0000
1000
,
0000
0010
0000
0100
,
0000
0001
0000
1000
,
0000
0100
0000
1000
,
0000
0001
0000
0100
,
0000
0001
0000
1000
,
0000
0010
0000
1000
,
0000
0001
0000
0010
,
0000
0100
0000
1000
,
0000
0001
0000
0110
,
0000
0000
0000
0110
,
0000
0000
0000
1001
,
0000
0000
0000
1001
,
0000
0000
0000
1000
,
1000
1000
0000
1000
,
1000
1000
0000
0001
,
0001
0001
0000
0001
,
0001
0001
0000
0010
,
0000
0100
0000
0110
,
0000
0000
0000
1000
,
0000
0001
0000
1001
,
0000
0000
0000
1000
,
1000
1000
0000
0010
,
0010
0010
0000
0001
,
0001
0001
0000
0100
,
0100
0100
0000
1000
,
0000
1000
0000
0100
,
0000
0100
0000
1000
,
0000
1000
0000
0100
,
0000
0100
0000
0001
,
0000
0001
0000
0100
,
0000
0100
0000
0001
,
0000
0001
0000
0100
,
0000
0100
0000
0010
,
0000
1000
0000
0010
,
0000
1000
0000
0010
,
0000
0001
0000
0010
,
0000
0001
0000
0100
,
0000
0010
0000
1000
,
0000
0001
0000
0010
,
0000
0100
0000
1000
,
0000
0001
0000
1001
,
0000
1000
0000
0100
,
0000
0000
0000
1001
,
0000
0001
0000
0100
;
