#TITLE:California Dreaming;
#SUBTITLE:;
#ARTIST:DJ Sammy;
#TITLETRANSLIT:;
#SUBTITLETRANSLIT:;
#ARTISTTRANSLIT:;
#GENRE:;
#CREDIT:;
#BANNER:california dreaming-bn.png;
#BACKGROUND:california dreaming-bg.png;
#LYRICSPATH:;
#CDTITLE:;
#MUSIC:california dreaming (remix).ogg;
#OFFSET:-0.440;
#SAMPLESTART:34.290;
#SAMPLELENGTH:12.000;
#SELECTABLE:YES;
#BPMS:0.000=138.000;
#STOPS:;
#BGCHANGES:;
#KEYSOUNDS:;

//---------------dance-single - C.Sanabria----------------
#NOTES:
     dance-single:
     C.Sanabria:
     Challenge:
     10:
     0.699,0.918,0.078,0.641,0.550:
0000
M000
0000
00M0
0000
0M00
0000
000M
,
0000
M000
0000
0M00
0000
00M0
0000
000M
,
0000
M000
0000
000M
0000
00M0
0000
0M00
,
0000
00M0
0000
M000
0000
00M0
0000
000M
,
0000
M000
0000
00M0
0000
0M00
0000
000M
,
0000
M000
0000
0M00
0000
00M0
0000
000M
,
0000
M000
0000
000M
0000
00M0
0000
0M00
,
0000
00M0
0000
M000
0000
00M0
0000
000M
,
1000
0100
0010
0001
0100
0010
1000
0100
,
00MM
0100
0001
0010
0100
1000
0010
0100
,
M00M
0100
1000
0200
000M
0310
0001
0020
,
M000
0031
0100
0002
00M0
1003
0010
0100
,
0001
0010
0100
1000
0010
0100
0001
0010
,
MM00
0010
1000
0100
0010
0001
0100
0010
,
M00M
0010
0001
2000
0M00
3010
1000
0002
,
00M0
0103
0010
2000
0M00
3100
0010
0002
,
0000
1003
0100
0010
0001
0100
0010
1000
,
0M00
1000
0010
0001
0010
0100
0010
1000
,
0M00
1000
0010
0100
0001
0010
0100
1000
,
000M
0M00
00M0
M000
0002
0023
0230
2300
,
3001
0000
0100
0001
0100
0000
0010
0000
1000
0000
0001
0000
0010
0000
0100
0000
,
0M00
0000
0100
0010
0100
0000
1000
0000
0002
0000
0000
0000
0103
0000
0020
0000
,
0000
0000
1030
0001
1000
0000
0100
0000
0020
0000
0000
0000
0031
0000
2000
0000
,
0000
0000
0000
3010
0100
0001
000M
0001
,
0201
0000
0320
0000
1030
0002
0000
0023
,
0000
0000
0130
1000
0100
0010
0000
0022
,
0000
0033
0010
0001
0010
0100
0000
2200
,
0000
0000
3300
0000
1000
0010
0100
0001
,
2001
0000
3200
0000
0310
0002
0000
2003
,
0000
0000
3001
0100
0010
1000
0100
0020
,
0000
0000
0130
1000
0010
0100
0001
0020
,
0000
0000
0000
0030
0100
1000
0001
0100
,
0201
0000
0302
0000
1003
0200
0000
0320
,
0000
0032
0000
1003
0100
0001
0100
2000
,
0M02
00M0
0M00
00M0
,
0M00
00M0
0M00
30M3
,
1000
0000
0001
0100
0001
0000
1000
0000
0001
0010
0001
0000
1000
0000
0001
0100
,
0010
0000
1000
0000
0100
0010
0001
0000
1000
0100
1000
0100
0010
0000
0001
0000
,
1000
0000
0010
0100
0010
0000
1000
0000
0001
0010
0001
0000
0100
0000
0010
1000
,
0010
0000
0100
0000
0001
1000
0001
0000
0010
0100
0010
0100
1000
0000
0001
0000
,
0010
0001
0010
0001
0010
0001
1000
0100
1000
0100
1000
0100
0010
0001
1000
0001
,
1000
0100
0010
0001
0100
0001
0100
0001
0100
0010
1000
0010
1000
0010
0100
0001
,
1000
0001
1000
0100
0010
0001
0100
0001
0100
0010
1000
0001
1000
0001
1000
0001
,
1000
0100
0010
0001
1000
0001
1000
0010
0100
0001
1000
0001
0010
0100
1000
0000
,
0001
0000
1000
0100
0000
0010
0001
0000
1000
0010
0000
0100
0001
0000
1000
0100
,
0000
0010
0001
0000
1000
0010
0000
0100
0002
0000
0023
0000
0230
0000
2300
0000
,
3001
0000
1000
0010
0000
0100
0001
0000
1000
0100
0000
0010
0001
0000
1000
0010
,
0000
0100
0001
0000
1000
0100
0000
0010
0002
0000
0203
0000
0320
0000
2030
0000
,
3002
0003
0001
0200
0300
0100
2000
3000
,
1000
0020
0030
0010
0002
0003
0001
0200
,
0300
0100
0002
0003
0001
0020
0030
0010
,
2000
3000
1000
0200
0300
0100
0020
0030
,
0002
0003
000M
0200
0300
0M00
0020
0030
,
00M0
2000
3000
M000
0000
0000
0000
0000
,
1000
0000
0000
0010
0000
0000
0100
0000
0000
0001
0000
0000
0100
0000
0000
0010
,
0000
0000
1000
0000
0000
0001
0000
0000
4000
0004
0000
0000
0000
0000
3003
0000
,
0001
0010
0000
0001
0000
1000
0010
0100
0001
0010
0000
0001
0000
1000
0100
0010
,
0001
2000
0000
3010
0100
0001
0010
0100
,
2100
0000
3020
0000
0130
0001
1000
0100
,
0M00
0100
1000
0001
0100
0020
0000
2030
,
0000
3010
0100
0001
0010
0100
1000
0002
,
0000
1003
0010
1000
0100
0010
0001
1000
,
1002
0000
0023
0000
0130
2000
0000
3020
,
0000
0230
0000
0301
0010
0100
1000
0001
,
0100
0010
2000
3020
0230
0000
0301
0020
,
0000
0000
0000
0000
0130
1000
0001
0100
,
0201
0000
0320
0000
1030
0200
0000
0320
,
0000
0032
0000
1003
0100
0010
0001
2000
,
0002
0000
0000
0000
,
0000
0000
0000
3003
,
2100
0000
3200
0000
0320
0000
0031
0200
,
0000
0310
M0M0
0010
0100
0001
1000
0100
,
0M00
0000
0002
0203
0320
0000
1030
0200
,
0000
0310
00M0
0010
0100
1000
0001
0100
,
0M00
0000
0200
0320
2030
0000
3001
0020
,
0000
0130
0M00
0100
0010
0001
1000
0010
,
0100
0000
0001
1000
0000
0001
1000
0000
0001
1000
0000
0001
1000
0000
0001
1000
,
0000
0001
2000
0000
0002
0000
0000
0000
0000
0000
0000
0000
3003
0000
0000
0000
,
1000
0100
1000
0001
0100
0001
1000
0100
1000
0001
0100
0001
1000
0010
1000
0001
,
0010
0001
1000
0010
1000
0001
0010
0001
1000
0100
0010
0100
0010
0001
1000
0001
,
1000
0010
1000
0001
0100
0001
1000
0100
1000
0001
0010
0001
1000
0010
1000
0001
,
0100
0001
1000
0100
1000
0001
0010
0001
1000
0100
0010
0001
0100
0001
0100
0010
,
1000
0100
1000
0100
1000
0100
0010
0001
0010
0001
0010
0001
0100
0001
0100
0001
,
0100
0001
1000
0010
1000
0010
1000
0010
0100
0001
0100
0010
1000
0010
1000
0100
,
1000
0001
0010
0001
1000
0100
1000
0010
1000
0010
0100
0001
0100
0001
0010
0001
,
1000
0100
0010
0001
1000
0001
1000
0100
0010
0001
1000
0100
0010
0001
1000
0100
,
1000
0010
1000
0001
0010
0001
1000
0010
1000
0001
0010
0001
1000
0100
1000
0001
,
0100
0001
1000
0100
1000
0001
0100
0001
1000
0010
0100
0010
0100
0001
1000
0001
,
1000
0100
1000
0001
0010
0001
1000
0010
1000
0001
0100
0001
1000
0100
1000
0001
,
0010
0001
1000
0010
1000
0001
0100
0001
1000
0010
0100
0001
0010
0001
0010
0100
,
1000
0010
1000
0010
1000
0010
0100
0001
0100
0001
0100
0001
0010
0001
0010
0001
,
0010
0001
1000
0100
1000
0100
1000
0100
0010
0001
0010
0100
1000
0100
1000
0010
,
1000
0001
0100
0001
1000
0010
1000
0100
1000
0100
0010
0001
0010
0001
0100
0001
,
1000
0010
0100
0001
1000
0001
1000
0010
2000
0000
3020
0000
0230
0000
0302
0000
,
1003
0000
0100
1000
0100
0000
0010
0000
0001
0000
1000
0000
0010
0000
0100
0000
,
0M00
0000
0100
0010
0100
0000
0001
0000
2000
0000
0000
0000
3100
0000
0020
0000
,
0000
0000
0031
1000
0001
0000
0100
0000
0020
0000
0000
0000
1030
0000
0002
0000
,
0000
0000
0000
0013
0100
1000
M000
1000
,
1200
0000
0320
0000
0031
2000
0000
3020
,
0000
0000
0130
0001
0100
0010
0000
2020
,
0000
3030
0010
1000
0010
0100
0000
0202
,
0000
0000
0303
0000
0001
0010
0100
1000
,
1002
0000
0203
0000
0310
2000
0000
3002
,
0000
0000
1003
0100
0010
0001
0100
0020
,
0000
0000
0130
0001
0010
0100
1000
0020
,
0000
0000
0000
0030
0100
0001
1000
0100
,
1200
0000
2300
0000
3001
0200
0000
0320
,
0000
2030
0000
3001
0100
1000
0100
0001
,
1000
0000
0000
0100
0000
0000
0010
0000
0000
0001
0000
0000
0100
0000
0000
0010
,
0000
0000
1000
0000
0000
0001
0000
0000
1000
0000
0000
0100
0000
0000
0010
0000
,
2002
0000
0000
0000
,
3003
0000
0000
0000
;

//---------------dance-single - C.Sanabria----------------
#NOTES:
     dance-single:
     C.Sanabria:
     Beginner:
     2:
     0.134,0.171,0.021,0.000,0.000:
0000
0000
0000
0000
,
0000
0000
0000
0000
,
0000
0000
0000
0000
,
0000
0000
0000
0000
,
0000
0000
0000
0000
,
0000
0000
0000
0000
,
0000
0000
0000
0000
,
0000
0000
0000
0000
,
1000
0000
0000
0000
,
0010
0000
0000
0000
,
1000
0000
0000
0000
,
0010
0000
0000
0000
,
0001
0000
0000
0000
,
0010
0000
0000
0000
,
0001
0000
0000
0000
,
0010
0000
0000
0000
,
1000
0000
0000
0000
,
0100
0000
0000
0000
,
0001
0000
0000
0000
,
1000
0000
0000
0000
,
0001
0001
0001
0000
,
1000
1000
1000
0000
,
0010
0010
0010
0000
,
0010
0010
0010
0000
,
0100
0000
0100
0000
,
0001
0000
0001
0000
,
1000
0000
1000
0000
,
0100
0000
0100
0000
,
0010
0000
0010
0000
,
0010
0000
0000
0000
,
0100
0000
0100
0000
,
0100
0000
0000
0000
,
0001
0001
0001
0000
,
1000
1000
1000
0000
,
1001
0000
0000
0000
,
0000
0000
0000
0000
,
1000
0000
1000
0000
,
1000
0000
1000
0000
,
0001
0000
0001
0000
,
0001
0000
0001
0000
,
0001
0000
0010
0000
,
1000
0000
0100
0000
,
0001
0000
0100
0000
,
1000
0000
0010
0000
,
0001
0000
0001
0000
,
0001
0000
0001
0000
,
1000
0000
1000
0000
,
1000
0000
1000
0000
,
0001
0000
0010
0000
,
1000
0000
0100
0000
,
0001
0000
0100
0000
,
1000
0000
0010
0000
,
0001
0000
0000
0000
,
0001
0000
0000
0000
,
1000
0000
0000
0000
,
0001
0000
0000
0000
,
0010
0010
0010
0000
,
0100
0100
0100
0000
,
1000
0000
1000
0000
,
0001
0000
0001
0000
,
0100
0000
0000
0000
,
0100
0000
0000
0000
,
0010
0000
1000
0000
,
0010
0000
1000
0000
,
0010
0000
0001
0000
,
0010
0000
0001
0000
,
1000
0000
0000
0000
,
0001
0000
0000
0000
,
1001
0000
0000
0000
,
0000
0000
0000
0000
,
1000
0000
1000
0000
,
1000
0000
0000
0000
,
1000
0000
1000
0000
,
1000
0000
0000
0000
,
1000
0000
1000
0000
,
1000
0000
0000
0000
,
1001
0000
0000
0000
,
0000
0000
0000
0000
,
0001
0000
0001
0000
,
0001
0000
0001
0000
,
1000
0000
1000
0000
,
1000
0000
1000
0000
,
0001
0000
0010
0000
,
1000
0000
0100
0000
,
0001
0000
0100
0000
,
1000
0000
0010
0000
,
0001
0000
0001
0000
,
0001
0000
0001
0000
,
1000
0000
1000
0000
,
1000
0000
1000
0000
,
0001
0000
0100
0000
,
1000
0000
0010
0000
,
0001
0000
0010
0000
,
1000
0000
0100
0000
,
0001
0000
0000
0000
,
0010
0000
0000
0000
,
1000
1000
1000
0000
,
1000
1000
1000
0000
,
0001
0000
0000
0000
,
0010
0000
0000
0000
,
0001
0001
0001
0000
,
0001
0001
0001
0000
,
0100
0000
0100
0000
,
0010
0000
0010
0000
,
1000
1000
1000
0000
,
0001
0001
0001
0000
,
0010
0000
0100
0000
,
1000
0000
0001
0000
,
0100
0000
0000
0000
,
0000
0000
0000
0000
,
1001
0000
0000
0000
;
