#TITLE:Backbonebreaks;
#SUBTITLE:;
#ARTIST:Waterflame;
#TITLETRANSLIT:;
#SUBTITLETRANSLIT:;
#ARTISTTRANSLIT:;
#GENRE:;
#CREDIT:;
#BANNER:backbonebreaks-bn.png;
#BACKGROUND:backbonebreaks-bg.png;
#LYRICSPATH:;
#CDTITLE:;
#MUSIC:Backbonebreaks.ogg;
#OFFSET:-0.040;
#SAMPLESTART:20.570;
#SAMPLELENGTH:12.000;
#SELECTABLE:YES;
#BPMS:0.000=140.000,44.000=70.000,46.000=140.000;
#STOPS:;
#BGCHANGES:;
#KEYSOUNDS:;

//---------------dance-single - C.Sanabria----------------
#NOTES:
     dance-single:
     C.Sanabria:
     Challenge:
     9:
     0.450,0.455,0.168,0.358,0.423:
0000
0000
0000
0000
,
0000
0000
0000
0000
,
0000
0000
0000
0000
,
0000
0000
0000
0000
,
2001
0000
0000
0000
3100
0000
M000
0000
0100
1000
0000
0001
0000
1000
0010
0000
,
0200
0001
0301
1000
M000
1000
0100
0010
,
1002
0000
0000
0000
0103
0000
000M
0000
0100
0001
0000
1000
0000
0001
0010
0000
,
0200
1000
1300
0001
000M
0001
0100
0010
,
1000
0100
0010
0001
0100
1000
0100
0001
,
1000
0000
0100
0000
1000
0000
2100
0000
0000
0000
3100
0000
0010
M000
0010
0000
,
0001
0100
0010
1000
0100
0001
0100
1000
,
0001
0000
0200
0020
M00M
0000
0330
0000
1000
0100
1000
0000
0001
0010
0001
0100
,
0010
0000
1000
0000
0010
0000
1000
0000
0001
0100
0001
0000
1000
0010
1000
0100
,
0010
0000
0001
0000
1000
0000
0010
0100
0010
0000
1000
0100
0010
0001
1000
0000
,
1002
0000
0103
0000
2001
0000
3100
0000
0010
0001
1000
0000
0010
1000
0010
0100
,
0001
0000
2000
0000
0002
0MM0
3003
0000
1000
0100
0010
0000
0100
1000
0001
0010
,
0001
0000
0100
0000
0001
0000
1000
0000
0001
0100
0010
0000
0100
0001
1000
0010
,
1000
0000
0100
0000
0010
0000
0001
1000
0001
0000
0010
0100
1000
0001
1000
0000
,
2010
0000
3001
0000
0012
0000
1003
0000
0100
0010
0001
0000
1000
0010
0100
0001
,
0010
0000
0002
0000
2000
0MM0
3003
0000
0001
0000
0100
0000
0001
0000
0010
0001
,
0000
1000
0000
0001
0100
0000
0010
0000
1000
0000
0100
0000
1000
0000
0010
1000
,
0000
0001
0000
1000
0000
0100
0010
0000
0100
0000
1000
0000
0010
0000
1000
0100
,
0000
1000
0000
0010
1000
0000
0001
0000
0M22
0000
0033
0000
M220
0000
0330
0000
,
220M
0000
3300
0000
20M2
0000
3003
0000
1000
0000
0100
0000
1000
0000
0010
1000
,
0000
0001
0000
1000
0100
0000
0010
0000
0001
0000
0100
0000
0001
0000
0010
0001
,
0000
1000
0001
0000
0100
0000
0010
0000
0100
0000
0001
0100
0000
0001
1000
0000
,
1000
0100
0000
1000
0001
0000
0100
0000
0010
0000
1000
0000
0001
0010
0100
1000
,
0020
0000
0000
0000
0200
M00M
0330
0000
0100
0000
0010
0000
1000
0000
0100
0020
,
0000
0000
0031
0000
0010
0100
0000
0000
1000
0000
0010
0000
0100
0000
0001
2000
,
30M0
0200
0300
0002
M003
0100
0010
0001
0010
0000
0100
0000
1000
0010
0000
0200
,
0000
0300
0010
0000
0100
0001
0000
0020
0000
0030
0100
0000
1000
0001
0000
0002
,
0000
0000
0000
1003
0000
0010
0100
0000
0010
0000
0100
0000
0001
0000
0010
0200
,
0000
0000
1300
0000
0100
0010
0000
0000
0001
0000
0100
0000
0010
0000
1000
0002
,
0M03
0020
0030
2000
300M
0010
0100
1000
0100
0000
0010
0000
0001
0100
0000
0020
,
0000
0030
0100
0000
0010
1000
0000
0200
0000
0300
0010
0000
0001
1000
0000
2000
,
0000
0000
0000
3001
0000
0100
0010
0000
1000
0000
0100
0000
0010
0000
0001
0000
,
1000
1001
0000
M00M
0001
0100
0010
1000
,
0001
0000
0000
0000
1000
0000
0000
0000
1001
0000
0000
0000
0000
M00M
0000
0000
1000
0000
0000
0000
0010
0000
0000
0000
0100
0000
0000
0000
0001
0000
0000
0000
,
1001
0101
1001
1100
1000
0100
0010
0001
,
1000
0000
0000
0000
0010
0000
0000
0000
1001
0000
0000
0000
0000
M00M
0000
0000
1000
0000
0100
0000
1000
0000
0000
0000
0001
0000
0010
0000
0001
0000
1000
0000
,
0200
0000
1300
0000
00MM
0000
0000
0000
0001
0100
0001
0000
1000
0010
1000
0001
,
0200
0000
0301
0000
0101
0000
0000
0001
0100
0010
1000
0100
1000
0001
0010
0000
,
0012
0000
1003
0000
2010
0000
3001
0000
1000
0100
0010
0000
0001
0100
0001
1000
,
0100
0000
0010
0000
2002
0MM0
3003
0000
1000
0100
0010
0000
0010
0100
1000
0001
,
0100
0000
0010
0000
1000
0000
1000
0000
0001
0100
0010
0000
0010
0100
0001
1000
,
0100
0000
0010
0000
0011
0000
0000
0001
0010
0000
0100
1000
0100
1000
0001
0000
,
0102
0000
1003
0000
2100
0000
3001
0000
1000
0010
0100
0000
0001
0010
0001
0100
,
0010
0000
1000
0000
1001
0000
0000
0000
1000
0010
1000
0000
0100
0010
0001
0100
,
0010
0000
0110
0000
M00M
0000
0000
0000
0001
0010
0001
0000
0100
0010
1000
0100
,
0010
0000
0100
0000
1001
0000
0000
1000
0100
0010
0001
0100
0010
1000
0001
0000
,
0012
0000
1003
0000
2010
0000
3001
0000
1000
0100
1000
0000
0001
0010
0100
1000
,
0001
0000
1000
0000
2002
0MM0
3003
0000
2001
0000
0000
0000
3100
0000
M000
0000
,
0100
1000
0000
0001
0000
1000
0010
0000
0200
0000
0001
0000
0301
0000
1000
0000
,
M000
1000
0100
0010
1002
0000
0103
000M
,
0100
0001
0000
1000
0000
0001
0010
0000
0200
0000
1000
0000
1300
0000
0001
0000
,
000M
0000
0001
0000
0100
0000
0010
0000
0100
0000
0010
0000
1000
0000
0100
0020
,
0000
0000
0031
0000
0010
0100
0000
0000
1000
0000
0010
0000
0100
0000
0001
2000
,
30M0
0200
0300
0002
M003
0100
0010
0001
0010
0000
0100
0000
1000
0010
0000
0200
,
0000
0300
0010
0000
0100
0001
0000
0020
0000
0030
0100
0000
1000
0001
0000
0002
,
0000
0000
0000
1003
0000
0010
0100
0000
0010
0000
0100
0000
0001
0000
0010
0200
,
0000
0000
1300
0000
0100
0010
0000
0000
0001
0000
0100
0000
0010
0000
1000
0002
,
0M03
0020
0030
2000
300M
0010
0100
1000
0100
0000
0010
0000
0001
0100
0000
0020
,
0000
0030
0100
0000
0010
1000
0000
0200
0000
0300
0010
0000
0001
1000
0000
2000
,
0000
0000
0000
3001
0000
0100
0010
0000
1000
0000
0010
0000
1000
0000
0100
0010
,
0000
0001
0000
0010
0000
0100
1000
0001
1000
0000
0100
0000
1000
0000
1000
0010
,
0000
1000
0000
0001
0000
0100
0010
1000
0001
0000
0010
0000
0001
0000
0100
0010
,
0000
1000
0000
0010
0000
0100
0001
0000
M202
0000
0303
0000
022M
0000
0330
0000
,
2M20
0000
3030
0000
20M2
0000
3003
0000
1000
0000
0010
0000
0100
0000
0002
M040
,
0000
0000
0M00
0000
0000
M033
0001
0100
0010
0000
1000
0000
0001
0000
2000
004M
,
0000
0000
0M00
0000
0000
303M
1000
0100
0010
0000
0001
0100
0000
0001
1000
0000
,
1000
0100
0000
1000
0001
0000
0100
0000
0010
0000
1000
0000
0001
0010
0100
1000
,
0001
1000
0010
0000
0100
0000
0001
0000
2MM2
0000
0000
0000
0000
0000
0000
0000
,
0000
0000
0000
0000
,
0000
0000
3003
0000
;

//---------------dance-single - C.Sanabria----------------
#NOTES:
     dance-single:
     C.Sanabria:
     Beginner:
     2:
     0.070,0.095,0.018,0.000,0.000:
0000
0000
0000
0000
,
0000
0000
0000
0000
,
0000
0000
0000
0000
,
0000
0000
0000
0000
,
1000
0000
0000
0000
,
0001
0000
0000
0000
,
1000
0000
0000
0000
,
0001
0000
0000
0000
,
0010
0000
0000
0000
,
0100
0000
0000
0000
,
0010
0000
0000
0000
,
0100
0000
1000
0000
,
0000
0000
1000
0000
,
0000
0000
0001
0000
,
0000
0000
0001
0000
,
0000
0000
0100
0000
,
0000
0000
0010
0000
,
0000
0000
1000
0000
,
0000
0000
1000
0000
,
0000
0000
0001
0000
,
0001
0000
1000
0000
,
1000
0000
0001
0000
,
0001
0000
1000
0000
,
1001
0000
0010
0000
,
0010
0000
0100
0000
,
0100
0000
0010
0000
,
0100
0000
0010
0000
,
0110
0000
1000
0000
,
0000
0000
0010
0000
,
0000
0000
0001
0000
,
0000
0000
0100
0000
,
0000
0000
1000
0000
,
0000
0000
0100
0000
,
0000
0000
0001
0000
,
0000
0000
0010
0000
,
0000
0000
1000
1000
,
1000
0000
0001
0001
,
0001
0000
0010
0000
,
0010
0000
0100
0000
,
0100
0000
1000
1000
,
1000
0000
0001
0001
,
0001
0000
0010
0000
,
0100
0000
1000
1000
,
1001
0000
0001
0000
,
0010
0000
0001
0000
,
0010
0000
0100
0000
,
1000
0000
0100
0000
,
1000
0000
0010
0000
,
0100
0000
0001
0000
,
0001
0000
0010
0000
,
0100
0000
1000
0000
,
1000
0000
0010
0000
,
0000
0000
0100
0000
,
0000
0000
0010
0000
,
0000
0000
0100
0000
,
0000
0000
0001
0000
,
0010
0000
1000
0000
,
0010
0000
0001
0000
,
0100
0000
1000
0000
,
0100
0000
0001
0000
,
0001
0000
1000
0000
,
1000
0000
0100
0000
,
0100
0000
0010
0000
,
0010
0000
0001
0000
,
0000
0000
1000
0000
,
0000
0000
0001
0000
,
0000
0000
1000
0000
,
0000
0000
0010
0000
,
0000
0000
0100
0000
,
0000
0000
0010
0000
,
0000
0000
0100
0000
,
0000
0000
1001
0000
;

//---------------dance-single - C.Sanabria----------------
#NOTES:
     dance-single:
     C.Sanabria:
     Hard:
     7:
     0.333,0.293,0.084,0.097,0.104:
0000
0000
0000
0000
,
0000
0000
0000
0000
,
0000
0000
0000
0000
,
0000
0000
0000
0000
,
2000
0000
3010
M000
0100
0001
0100
0000
,
0010
1000
0001
0100
0000
0100
0001
1000
,
0002
0000
0013
000M
0100
1000
0100
0000
,
0010
0001
1000
0010
0000
0010
1000
0001
,
1000
0010
1000
1000
0010
1000
0010
0010
,
0100
0001
1000
0100
0000
1000
0001
0100
,
0001
0010
0001
0001
0010
0001
0010
0010
,
0200
0000
0000
0020
0000
0000
0330
0000
1000
0000
0100
0000
0010
0000
0001
0000
,
1000
1001
0000
0000
0001
0100
0010
1000
,
0001
0010
0011
0000
1000
0100
1000
0000
,
0010
1000
0100
0000
0010
0001
0100
0001
,
1000
0010
1010
0000
0001
0100
0010
1000
,
0001
1001
0000
0000
1000
0100
0010
0001
,
1000
0010
1010
0000
0001
0100
0001
0000
,
0010
0001
0100
0000
0010
1000
0100
1000
,
0001
0000
0010
0000
0011
0000
0000
0000
1000
0000
0100
0000
1000
0000
0100
1000
,
0000
0100
0000
1000
0000
0100
1000
0000
0001
0000
0100
0000
0001
0000
0100
0001
,
0000
0100
0000
0001
0000
0100
0001
0000
1000
0000
0010
0000
1000
0000
0010
1000
,
0000
0010
0000
1000
0000
0010
1000
0000
0002
0000
0000
0000
0023
0000
0000
0000
,
0230
0000
0000
0000
2300
0000
0000
0000
3001
0000
0100
0000
0001
0000
0100
0001
,
0000
0100
0000
0001
0000
0100
0001
0000
1000
0000
0100
0000
1000
0000
0100
1000
,
0000
0100
0000
1000
0000
0100
1000
0000
0001
0000
0000
0100
0000
0000
0010
0000
,
1000
1000
0100
0100
0010
0001
1000
0001
,
0202
0000
0303
0000
1000
0100
1000
0100
,
0001
0100
0001
0100
1000
0010
0001
0010
,
1000
0100
0010
0000
0100
1000
0100
1000
,
0001
0100
0001
0100
0010
1000
0010
0001
,
0010
1000
0001
000M
0001
0100
0001
0100
,
1000
0100
1000
0100
0001
0010
1000
0010
,
0001
0100
0010
0000
0100
0001
0100
0001
,
1000
0100
1000
0100
0010
0001
0010
1000
,
0010
0000
0001
0000
1000
0000
0000
0000
0001
0000
0100
0000
0001
0100
0001
0000
,
0100
0000
0010
0000
00M0
0000
0000
0000
1000
0000
0100
0000
1000
0100
1000
0000
,
0100
0010
M11M
0000
0010
0001
0010
0001
,
0100
0001
0100
0001
0100
0010
1000
0100
,
0010
0000
0001
0000
1001
0000
0000
0000
1000
0000
0100
0000
1000
0100
1000
0000
,
0001
0000
0100
0000
0M00
0000
0000
0000
0001
0000
0100
0000
0001
0100
0001
0000
,
1000
0100
0110
0000
0010
0001
0010
0001
,
0100
0010
0100
0010
1000
0100
0010
0100
,
1000
0001
1001
0000
1000
0100
0010
0001
,
1000
1001
0000
0000
0001
0100
0010
1000
,
0001
1000
2002
3003
1000
0100
1000
0010
,
0100
0001
0010
0001
0100
0010
1000
0100
,
0010
0001
1001
0000
0001
0100
0010
1000
,
0001
1001
0000
0000
1000
0100
0010
0001
,
1000
0001
2002
3003
0001
0100
0001
0010
,
0100
1000
0010
1000
0100
0010
0001
0100
,
0010
1000
1001
0000
2000
0000
3010
M000
,
0100
0001
0100
0000
0010
1000
0001
0100
,
0000
0100
0001
1000
0002
0000
0013
000M
,
0100
1000
0100
0000
0010
0001
1000
0010
,
00M0
0010
1000
0001
1000
0100
1000
0100
,
0001
0100
0001
0100
1000
0010
0001
0010
,
1000
0100
0010
0000
0100
1000
0100
1000
,
0001
0100
0001
0100
0010
1000
0010
0001
,
0010
1000
0001
000M
0001
0100
0001
0100
,
1000
0100
1000
0100
0001
0010
1000
0010
,
0001
0100
0010
0000
0100
0001
0100
0001
,
1000
0100
1000
0100
0010
0001
0010
1000
,
0010
0000
0001
0000
1000
0000
0000
0000
0001
0000
0100
0000
0001
0000
0100
0001
,
0000
0100
0000
0001
0000
0100
0001
0000
1000
0000
0100
0000
1000
0000
0100
1000
,
0000
0100
0000
1000
0000
0100
1000
0000
0001
0000
0010
0000
0001
0000
0010
0001
,
0000
0010
0000
0001
0000
0010
0001
0000
2000
0000
0000
0000
3020
0000
0000
0000
,
0230
0000
0000
0000
0302
0000
0000
0000
1003
0000
0100
0000
1000
0000
0100
1000
,
0000
0100
0000
1000
0000
0100
1000
0000
0001
0000
0100
0000
0001
0000
0100
0001
,
0000
0100
0000
0001
0000
0100
0001
0000
1000
0000
0000
0100
0000
0000
0010
0000
,
0001
0001
0100
0100
0010
1000
0001
1000
,
0010
0100
0110
0MM0
2002
0000
0000
0000
,
0000
0000
0000
0000
,
0000
0000
3003
0000
;
