#TITLE:Alone Tonight;
#SUBTITLE:[Ronski Speed Remix] (radio edit);
#ARTIST:Above & Beyond;
#TITLETRANSLIT:;
#SUBTITLETRANSLIT:;
#ARTISTTRANSLIT:;
#GENRE:Trance;
#CREDIT:C. Sanabria;
#BANNER:Alone tonight [Ronski Speed remix]-bn.png;
#BACKGROUND:Alone tonight [Ronski Speed remix]-bg.png;
#LYRICSPATH:;
#CDTITLE:;
#MUSIC:Alone tonight [Ronski Speed remix] (radio edit ).mp3;
#OFFSET:-0.780;
#SAMPLESTART:112.090;
#SAMPLELENGTH:12.000;
#SELECTABLE:YES;
#BPMS:0.000=138.000;
#STOPS:;
#BGCHANGES:;
#KEYSOUNDS:;

//---------------dance-single - C. Sanabria----------------
#NOTES:
     dance-single:
     C. Sanabria:
     Challenge:
     10:
     0.650,0.916,0.026,0.363,0.757:
0000
0000
0000
0000
,
0000
0000
0000
0000
,
0000
0000
0000
0000
,
0000
0000
0000
0000
,
0000
0000
0000
0000
,
0000
0000
0000
0000
,
0000
0000
0000
0000
,
0000
0000
0000
0000
,
0010
0000
1000
0000
0010
1000
0001
0000
,
1000
0010
0100
0001
0100
0010
1000
0000
,
0010
0000
0100
0000
0001
0010
0100
1000
,
0001
010M
0M10
10M0
,
0002
0000
0020
0003
0002
0030
0020
0003
0200
0030
0020
0300
0200
0030
0020
0300
,
0200
0030
2000
0300
0200
3000
2000
0300
0002
3000
2000
0003
0002
3000
2000
0003
,
0000
3000
0020
0000
0030
0000
0020
0000
0030
0000
0200
0000
0300
0000
0200
0000
,
0300
0002
0003
2000
3000
0000
0000
0000
,
0010
0000
1000
0100
1000
0000
0010
0000
0100
0000
0001
0100
0001
0000
0010
0000
,
0100
0000
1000
0010
1000
0000
0010
0000
0100
0000
0001
0010
0001
0000
0100
0000
,
0001
0000
0010
0100
1000
0000
0001
0000
1000
0000
0010
0100
0001
0000
1000
0000
,
0100
0000
0010
0001
1000
0000
0001
0000
0100
0000
0010
1000
0001
0000
2000
0000
,
0000
0010
0000
3020
0000
0100
0000
0230
,
0000
0001
0000
0302
0000
1000
0000
1003
,
0000
0000
0100
0000
1000
0000
0001
0010
0000
0000
0010
0000
0001
0000
1000
0100
,
0000
0000
0100
0000
1000
0000
0001
0100
0000
0000
0100
0000
0001
0000
2000
0000
,
0000
0000
3010
0200
0000
0000
0301
0020
,
0000
0100
0000
0230
0000
2300
0000
3001
,
0000
0000
0100
0000
0001
0000
1000
0010
0000
0000
0010
0000
1000
0000
0001
0010
,
0000
0010
0001
2000
3020
0230
0302
2003
,
0000
0000
3001
0000
0100
0000
0010
1000
0000
1000
0010
0000
0100
0000
0001
1000
,
0000
1000
0001
0000
0010
0000
0100
1000
0000
1000
0100
0000
0010
0000
0001
0000
,
0000
0000
1000
0000
0010
0000
0000
0100
0000
0000
0001
0000
0010
0000
0100
0000
,
1000
0001
1000
0000
0010
0100
0010
1000
,
2001
0000
0000
0000
,
0200
0000
0000
3000
,
0020
0000
0000
0000
,
0330
0000
0000
0000
,
0002
0000
0000
0000
,
0200
0000
0000
0003
,
0020
0000
0000
0000
,
0330
0000
0000
0000
,
2000
0000
0000
0000
,
0002
0000
0000
3000
,
0020
0000
0000
0000
,
0033
0000
0000
0000
,
0002
0000
0000
0000
,
2000
0000
0000
0003
,
0020
0000
0000
0000
,
3030
0000
0000
0000
,
2002
0000
0000
0000
3003
0000
0010
0200
,
0000
0000
0000
0000
,
0302
0000
0000
0000
,
2003
0000
0000
0000
,
3000
0000
0000
0000
0000
0000
0100
0020
,
0000
0000
0000
0032
,
0000
0000
0000
2003
0000
3020
0000
0000
,
0000
0000
0030
0000
,
1000
0010
0100
0001
1000
0001
1000
0001
1000
0001
1000
0001
1000
0001
1000
0001
,
1000
0100
0010
0001
1000
0001
1000
0001
1000
0001
1000
0001
1000
0001
1000
0001
,
1000
0100
0010
0001
1000
0100
0010
0001
1000
0010
0100
0001
1000
0010
0100
0001
,
1000
0100
1000
0100
0010
0001
0010
0001
1000
0010
1000
0010
0100
0001
0100
0001
,
1000
0100
1000
0001
0100
0001
1000
0010
1000
0001
0010
0001
1000
0100
1000
0001
,
0100
0010
0100
0010
1000
0001
1000
0001
0010
0100
0010
0100
1000
0001
1000
0001
,
1000
0010
0100
0001
0100
0010
1000
0001
1000
0100
0010
0001
0010
0100
4000
0004
,
0000
0000
3003
0000
,
1000
0000
0001
0000
1000
0000
0100
0010
0001
0000
1000
0000
0001
0000
0100
0010
,
1000
0000
0001
0000
0010
0000
0100
1000
0001
0000
1000
0000
0010
0000
0100
0001
,
1000
0000
0100
0000
0010
0000
0001
0010
0000
0001
0010
0000
0001
0000
1000
0010
,
0000
1000
0010
0000
1000
0000
0001
0100
0000
0010
1000
0000
0001
0000
1000
0001
,
0010
0000
0100
0000
1000
0000
0000
0001
0000
0000
0100
0000
0001
0000
0000
1000
,
0000
0000
0010
0000
1000
0000
0000
0001
0000
0000
0010
0000
0001
0000
1000
0000
,
0010
0000
0100
0000
0001
0000
1000
0100
0000
0000
0100
0000
1000
0000
0001
0100
,
0000
0020
0000
2030
0000
3002
0000
0003
,
1000
0100
0010
0001
1000
0001
1000
0001
1000
0010
0100
0001
1000
0001
1000
0001
,
1000
0100
1000
0100
0010
0100
0010
0100
0010
0001
0010
0001
1000
0010
1000
0010
,
0100
0001
1000
0100
0010
0100
1000
0001
0100
0010
0100
0001
1000
0001
0010
0100
,
1000
0010
1000
0010
0100
0001
0100
0001
1000
0100
0010
0001
1000
0010
0100
0001
,
0010
0001
0100
0001
1000
0010
1000
0100
1000
0001
0010
0100
1000
0001
1000
0010
,
0100
0001
1000
0001
0100
0010
1000
0100
1000
0001
0010
0001
0100
0010
1000
0001
,
1000
0100
1000
0001
0010
0001
0100
0001
1000
0010
1000
0100
0010
0001
1000
0001
,
0100
0010
1000
0001
1000
0100
0010
0001
1000
0100
0010
0001
1000
0010
0100
0001
,
1000
0100
0010
0001
1000
0001
1000
0001
1000
0010
0100
0001
1000
0001
1000
0001
,
1000
0100
1000
0100
0010
0100
0010
0100
0010
0001
0010
0001
1000
0010
1000
0010
,
0100
0001
1000
0100
0010
0100
1000
0001
0100
0010
0100
0001
1000
0001
0010
0100
,
1000
0010
1000
0010
0100
0001
0100
0001
1000
0100
0010
0001
1000
0010
0100
0001
,
0010
0001
0100
0001
1000
0010
1000
0100
1000
0001
0010
0100
1000
0001
1000
0010
,
0100
0001
1000
0001
0100
0010
1000
0100
1000
0001
0010
0001
0100
0010
1000
0001
,
1000
0100
1000
0001
0010
0001
0100
0001
1000
0010
1000
0100
0010
0001
1000
0001
,
0100
0010
1000
0001
1000
0100
0010
0001
1000
0100
0010
0001
1000
0010
0100
0001
,
1000
0010
1000
0001
0010
0001
1000
0100
1000
0001
0100
0001
1000
0100
0010
0001
,
1000
0010
1000
0100
1000
0010
0100
0001
0010
0001
0100
0001
0010
0100
1000
0001
,
1000
0100
0010
0001
1000
0010
1000
0100
1000
0010
0100
0001
0010
0001
0100
0001
,
0010
0100
1000
0001
1000
0010
0100
0001
1000
0100
0010
0001
1000
0001
0100
0010
,
1000
0100
1000
0001
0010
0001
1000
0010
1000
0001
0100
0001
1000
0100
0010
0001
,
1000
0010
0100
0001
0010
0100
1000
0010
0100
0001
1000
0001
0100
0010
1000
0100
,
0010
0001
0100
0010
1000
0001
1000
0100
0010
0001
1000
0010
0100
0001
1000
0001
,
1000
0100
0010
0001
1000
0100
0010
0001
1000
0010
0100
0001
1000
0010
0100
0001
,
0010
0000
0100
0000
1000
0000
0000
0001
0000
0000
1000
0000
0010
0000
0000
0100
,
0000
0000
0001
0000
0010
0000
0000
0100
0000
0000
1000
0000
0001
0000
0000
0000
,
1000
0000
0001
0000
0100
0000
0000
0010
0000
0000
1000
0000
0100
0000
0000
0010
,
0000
0001
0100
0000
0010
1000
0100
0010
,
0001
0000
0100
0000
0010
0000
0000
1010
0000
0000
0100
0000
0010
0000
0000
0011
,
0000
0000
0001
0000
0100
0000
0000
0010
0000
0000
1000
0000
0001
0000
1000
0000
,
0020
0000
0100
0000
0230
0000
0000
0001
0000
0000
0310
0000
2000
0000
0000
0000
,
3010
0000
0100
0000
0001
0000
0000
1000
0000
0000
0001
0000
0010
0000
0100
0000
,
2000
0000
0000
0000
0000
0000
0000
3020
,
0000
0000
0000
0000
0000
0000
0000
0000
0000
0000
0000
0000
0000
0000
1030
0001
,
0200
0000
0000
0000
,
0000
0010
0320
0000
1030
0100
0010
0001
,
2000
0000
0000
0000
0000
0000
3010
0200
,
0000
0000
0001
0000
0301
0000
0000
0010
0000
0000
0100
0000
0000
0000
2002
0000
,
0000
0000
0000
0000
,
0000
0000
0000
0000
,
3003
0000
0000
0000
;

//---------------dance-single - C.Sanabria----------------
#NOTES:
     dance-single:
     C.Sanabria:
     Beginner:
     2:
     0.140,0.227,0.072,0.000,0.000:
0000
0000
0000
0000
,
0000
0000
0000
0000
,
0000
0000
0000
0000
,
0000
0000
0000
0000
,
0000
0000
0000
0000
,
0000
0000
0000
0000
,
0000
0000
0000
0000
,
0000
0000
0000
0000
,
1000
0000
1000
0000
,
1000
0000
1000
0000
,
0001
0000
0001
0000
,
0001
0000
0001
0000
,
1000
0000
0001
0000
,
1000
0000
0001
0000
,
0100
0000
0000
0000
,
0100
0000
0000
0000
,
0010
0010
0010
0000
,
0010
0010
0010
0000
,
0100
0100
0100
0000
,
0100
0100
0100
0000
,
1000
0000
1000
0000
,
0001
0000
0001
0000
,
0100
0100
0100
0000
,
0010
0010
0010
0000
,
1000
0000
1001
0000
,
0001
0000
1001
0000
,
0010
0000
0110
0000
,
0100
0000
0110
0000
,
1000
0000
0000
0000
,
1000
0000
0000
0000
,
0001
0000
0001
0000
,
0001
0000
0001
0000
,
0001
0000
0000
0000
,
0000
0000
0000
0000
,
0000
0000
0000
0000
,
0000
0000
0000
0000
,
1000
0000
0000
0000
,
0000
0000
0000
0000
,
0000
0000
0000
0000
,
0000
0000
0000
0000
,
0010
0000
0000
0000
,
0000
0000
0000
0000
,
0000
0000
0000
0000
,
0000
0000
0000
0000
,
0100
0000
0000
0000
,
0000
0000
0000
0000
,
0000
0000
0000
0000
,
0000
0000
0000
0000
,
1001
0000
0000
0000
,
0000
0000
0000
0000
,
0000
0000
0000
0000
,
0000
0000
0000
0000
,
0010
0000
0000
0000
,
0000
0000
0000
0000
,
0000
0000
0000
0000
,
0000
0000
0000
0000
,
0100
0100
0100
0100
,
0100
0100
0100
0100
,
0100
0100
0100
0100
,
0100
0100
0100
0100
,
0100
0100
0100
0100
,
0100
0100
0100
0100
,
0100
0100
0100
0100
,
0100
0000
0000
0000
,
0010
0000
1000
0000
,
0001
0000
0100
0000
,
0010
0000
0010
0000
,
0010
0000
0010
0000
,
1000
0000
0100
0000
,
0010
0000
0001
0000
,
0100
0000
0100
0000
,
0100
0000
0100
0000
,
1000
1000
1000
0000
,
1000
1000
1000
0000
,
0001
0001
0001
0000
,
0001
0001
0001
0000
,
0010
0000
0100
0000
,
0010
0000
0100
0000
,
1001
0000
1001
0000
,
1001
0000
0000
0000
,
1000
1000
1000
0000
,
0001
0001
0001
0000
,
0010
0000
0010
0000
,
0100
0000
0100
0000
,
1000
1000
1000
0000
,
0001
0001
0001
0000
,
0100
0000
0110
0000
,
1000
0000
1001
0000
,
0001
0001
0001
0000
,
1000
1000
1000
0000
,
0010
0000
0010
0000
,
0010
0010
0010
0000
,
1000
1000
1000
0000
,
0001
0001
0001
0000
,
0010
0000
0100
0000
,
0010
0010
0010
0000
,
1001
0000
0000
0000
,
0010
0000
0000
0000
,
1001
0000
0000
0000
,
0100
0000
0000
0000
,
0110
0000
0000
0000
,
1000
0000
0000
0000
,
0110
0000
0000
0000
,
0001
0000
0000
0000
,
0010
0000
0000
0000
,
0100
0000
0000
0000
,
1000
0000
0000
0000
,
0010
0000
0000
0000
,
0010
0000
0000
0000
,
0100
0000
0000
0000
,
0001
0000
0000
0000
,
1000
0000
0000
0000
;
