#TITLE:Aerial Drive;
#SUBTITLE:;
#ARTIST:DJ Mindsweeper;
#TITLETRANSLIT:;
#SUBTITLETRANSLIT:;
#ARTISTTRANSLIT:;
#GENRE:;
#CREDIT:;
#BANNER:Aerial Drive-bn.png;
#BACKGROUND:Aerial Drive-bg.png;
#LYRICSPATH:;
#CDTITLE:;
#MUSIC:Aerial Drive.ogg;
#OFFSET:-0.100;
#SAMPLESTART:31.729;
#SAMPLELENGTH:12.000;
#SELECTABLE:YES;
#DISPLAYBPM:95.000:190.000;
#BPMS:0.000=190.000,288.000=95.000,292.000=190.000,420.000=95.000,422.000=190.000,529.000=380.000,530.500=190.000,531.500=190.000,534.000=380.000,535.500=190.000,536.500=380.000,539.500=190.000,540.500=380.000,542.000=380.000,543.500=190.000,544.000=380.000,545.500=190.000,546.000=380.000,546.250=190.000,546.750=380.000,547.250=190.000,547.750=380.000,550.000=190.000;
#STOPS:529.000=0.079
,529.500=0.079
,530.000=0.079
,534.000=0.079
,534.500=0.079
,535.000=0.079
,536.500=0.079
,537.000=0.079
,537.500=0.079
,538.000=0.079
,538.500=0.079
,539.000=0.079
,540.500=0.079
,541.000=0.079
,541.500=0.079
,542.000=0.039
,542.250=0.039
,542.500=0.079
,543.000=0.079
,544.000=0.039
,544.250=0.039
,544.500=0.079
,545.000=0.079
,546.000=0.039
,546.750=0.039
,547.000=0.039
,547.750=0.039
,548.000=0.039
,548.250=0.039
,548.500=0.039
,548.750=0.039
,549.000=0.039
,549.250=0.039
,549.500=0.039
,549.750=0.039
;
#BGCHANGES:;
#KEYSOUNDS:;

//---------------dance-single - C.Sanabria----------------
#NOTES:
     dance-single:
     C.Sanabria:
     Challenge:
     11:
     0.917,1.000,0.067,1.000,0.468:
0000
0000
0000
0000
,
0000
0000
0000
0000
,
0000
0000
0000
0000
,
0000
0000
0000
0000
,
0000
1000
0000
0010
0000
0100
0000
0001
,
0000
1000
0000
0010
0000
0100
0000
0001
,
0000
1000
0000
0100
0000
0010
0000
0001
,
0000
1000
0000
0100
0000
0010
0000
0001
,
0000
1000
0000
0100
0000
1000
0000
0010
,
0000
0100
0000
0001
0000
0010
0000
0001
,
0000
0100
0000
0010
0000
1000
0000
0100
,
0000
0001
0000
0100
0000
1000
0000
0001
,
0000
2000
3000
0020
0030
0200
0300
0002
,
0003
0020
0030
2000
3000
0020
0030
0002
,
0003
0200
0300
0020
0030
2000
3000
0200
,
0300
0002
0003
0200
0300
2000
3000
0002
,
0103
0010
1000
0100
1000
0010
0100
0001
,
0010
0001
0100
0010
1000
0001
0010
0100
,
1000
0010
1000
0100
0010
0001
0100
0001
,
0010
0100
1000
0010
0100
0001
1000
0010
,
0100
0001
0010
0001
0100
0010
1000
0100
,
1000
0010
0100
0001
1000
0010
0100
0001
,
1000
0100
0010
0001
0100
0001
0010
0100
,
1000
0010
0100
0001
1000
0100
1000
0001
,
1000
0100
0010
0001
1000
0010
0100
0001
,
0100
0000
1000
0000
0100
0000
0001
0000
1000
0000
0100
0000
0010
0000
0001
1000
,
0001
0010
0100
1000
0001
0100
0010
1000
,
0100
0000
0001
0000
0100
0000
1000
0000
0001
0000
0100
0000
0010
0000
1000
0001
,
1000
0100
0010
0001
1000
0100
0010
0001
,
1000
0010
0100
0001
1000
0010
0100
0001
,
1000
0100
1000
0100
0010
0001
0010
0001
1000
0010
0100
0001
0010
0001
0100
0010
,
1000
0100
1000
0100
0010
0001
0010
0001
0100
0010
1000
0100
0010
0001
0010
0100
,
2000
3000
0000
0000
2000
3000
0000
0000
2000
3000
0000
0000
2000
3000
0000
0000
,
0002
0003
0000
0000
0002
0003
0000
0000
0002
0003
0000
0000
0020
0030
0200
0300
,
2000
3000
0000
0000
0020
0030
0000
0000
0200
0300
0000
0000
0002
0003
0000
0000
,
0020
0030
0000
0000
0200
0300
0000
0000
2000
3000
0000
0000
0002
0003
0200
0300
,
0010
0000
1000
0000
0100
0000
1000
0000
0010
0000
0100
0000
0001
0000
0010
0001
,
0010
0000
0100
0000
1000
0000
0001
0000
0100
0000
1000
0000
0100
0000
0001
0100
,
0001
0000
0010
0000
0100
0000
1000
0000
0010
0000
1000
0000
0100
0000
0010
0001
,
0010
0100
1000
0001
2002
3003
0220
0330
,
0000
0000
1000
0100
0000
0000
1000
0001
0000
0000
1000
0010
0000
0000
0010
0100
,
0000
0000
0001
0100
0000
0000
0001
1000
0000
0000
0001
0010
0000
0000
0100
0010
,
0000
0000
0100
1000
0000
0000
0001
1000
0000
0000
0010
1000
0000
0000
0010
0100
,
0000
0000
0001
0010
0000
0000
0001
1000
0000
0000
0001
0100
0000
0000
0010
0100
,
0000
0000
0002
0003
0000
0000
0200
0300
0000
0000
0020
0030
0000
0000
2000
3000
,
0000
0000
0002
0003
0000
0000
0020
0030
0000
0000
0200
0300
0000
0000
2000
3000
,
0001
0100
0000
0010
0100
0000
0001
0000
1000
0100
0000
0010
0100
0000
1000
0000
,
0001
0100
0001
0100
0010
1000
0100
0010
0001
1000
0001
1000
0010
0100
0010
0100
,
0002
0000
0023
0000
0032
0000
2003
0000
0000
0000
0200
0300
0000
0000
0002
0003
,
0000
0000
0200
0300
0000
0000
0002
0003
0000
0000
0200
0300
0000
0000
3002
0000
,
2003
0000
3020
0000
2030
0000
3002
0000
0000
0000
0200
0300
0000
0000
2000
3000
,
0000
0000
0020
0030
0000
0000
2000
3000
0000
0000
0203
0000
0320
0000
2030
0000
,
3002
0000
0023
0000
0032
0000
0203
0000
0000
0000
0020
0030
0000
0000
0002
0003
,
0000
0000
0020
0030
0000
0000
0002
0003
0000
0000
0020
0030
0000
0000
0302
0000
,
2003
0000
3200
0000
2300
0000
3020
0000
0000
0000
0200
0300
0000
0000
2000
3000
,
0000
0000
0200
0300
0000
0000
2000
3000
0000
0000
0230
0000
0302
0000
0023
0000
,
0031
0000
0100
0000
0000
0000
0020
0030
0000
0000
2000
3000
0000
0000
0002
0003
,
0000
0000
0020
0030
0000
0000
0200
0300
0000
0000
2000
3000
0001
0000
0100
0000
,
0010
0000
1000
0000
0000
0000
0200
0300
0000
0000
0020
0030
0000
0000
0002
0003
,
0000
0000
0200
0300
0000
0000
0020
0030
0000
0000
2000
3000
0001
0000
0001
0000
,
0010
0100
10M0
0010
0100
00M1
0010
0100
,
10M0
0010
0100
00M1
1000
0100
0010
0100
,
1000
0010
M100
0001
0010
010M
1000
0010
,
010M
0001
0010
M100
1000
0010
0100
0010
,
2010
0000
3000
000M
0000
0M00
0000
00M0
,
0000
M000
0000
000M
0000
M000
0200
00M0
,
0302
M000
0003
0M00
0000
00M0
0000
000M
,
0000
M000
0000
00M0
0000
0M00
2000
0000
,
3002
0203
0320
2030
3200
2300
3002
0023
,
0032
0203
0320
2030
3200
2300
3002
0203
,
0301
0100
0000
0010
0100
0000
0001
0000
1000
0100
0000
0010
0100
0000
1000
0000
,
0001
0100
0001
0100
0010
1000
0100
1000
0001
0010
0001
0010
0100
1000
0010
1000
,
0001
0000
0000
0000
0000
0000
0000
0000
0000
0000
0000
0000
0000
0000
0000
0000
2002
3003
0000
0000
0000
0000
0000
0000
0000
0000
0000
0000
0020
0000
0000
0000
,
0130
0000
1000
0100
1000
0000
0001
0100
0010
0000
1000
0000
0001
0000
1000
0000
,
1000
0000
0001
0100
0001
0000
1000
0100
0010
0000
0001
0000
0100
0000
0010
0000
,
1000
0000
0001
0010
0001
0000
1000
0100
1000
0000
0001
0000
0100
0000
0010
0000
,
0100
0000
0010
1000
0010
0000
0100
0001
0100
0000
0010
0000
1000
0000
0001
0000
,
1000
0000
0100
M00M
0100
0000
0001
0000
0100
M00M
0100
0000
1000
0000
0100
M00M
,
0100
0000
0001
0000
0100
M00M
0100
0000
1000
0000
0100
0000
0010
0000
0001
0000
,
1000
0000
0100
M00M
0100
0000
0001
0000
0100
M00M
0100
0000
1000
0000
0100
M00M
,
0100
0000
0001
0000
0100
M00M
0100
0000
1000
0000
0010
0000
0100
0000
0001
0000
,
1000
0000
0001
0100
0001
0000
0010
0001
1000
0000
0100
0000
1000
0000
1000
0000
,
0001
0000
1000
0100
1000
0000
0010
1000
0001
0000
1000
0000
0100
0000
0010
0000
,
0001
0000
1000
0100
0010
0000
0001
1000
0001
0000
1000
0000
0010
0000
0100
0000
,
0001
0000
1000
0100
1000
0000
0001
0100
0001
0000
1000
0010
1000
0000
0001
0010
,
0001
0000
0100
M00M
0100
0000
1000
0000
0010
0M0M
0010
0000
0001
0000
0100
M0M0
,
0100
0000
0010
0000
0100
M0M0
0100
0000
0001
0000
1000
0000
0010
0000
0100
0000
,
0001
0100
0000
0010
1000
0000
0001
0000
1000
0100
0000
0010
0001
0000
1000
0000
,
0001
0100
0010
1000
0001
0100
0010
1000
0001
0010
0100
1000
0010
1000
0100
0010
,
0002
M000
0003
00M0
0000
0M00
0000
000M
,
0000
M000
0000
0M00
0000
00M0
2000
000M
,
3020
0M00
0030
M000
0000
000M
0000
0M00
,
0000
00M0
0000
M000
0000
000M
0200
00M0
,
0302
M000
0003
0M00
0000
00M0
0000
000M
,
0000
0M00
0000
00M0
0000
000M
2000
00M0
,
3200
000M
0300
M000
0000
00M0
0000
0M00
,
0000
0000
000M
0000
0000
0000
0M00
0000
0010
0000
0000
1000
0000
0000
0001
0000
,
0200
0000
0320
0000
2030
0000
3200
0000
0000
0000
0020
0030
0000
0000
2000
3000
,
0000
0000
0020
0030
0000
0000
2000
3000
0000
0000
0020
0030
0000
0000
2300
0000
,
3200
0000
0320
0000
0032
0000
0203
0000
0000
0000
0020
0030
0000
0000
0002
0003
,
0000
0000
0020
0030
0000
0000
0002
0003
0000
0000
0320
0000
2030
0000
3002
0000
,
2003
0000
3200
0000
0320
0000
0032
0000
0000
0000
0020
0030
0000
0000
2000
3000
,
0000
0000
0200
0300
0000
0000
0020
0030
0000
0000
2000
3000
0000
0000
0203
0000
,
0310
1000
0000
0001
1000
0000
0100
0000
0010
0001
0000
1000
0001
0000
0100
0000
,
0010
1000
0010
1000
0001
0100
0001
0100
0010
1000
0100
1000
0010
0100
0001
1000
,
0000
0000
0000
0000
0000
0000
0020
0000
0130
0000
1000
0100
1000
0000
0001
0010
,
0001
0000
1000
0010
0100
0000
0001
1000
0001
0000
1000
0100
1000
0000
0001
0100
,
0010
0000
1000
0000
0001
0000
0010
0000
0100
0000
1000
0001
1000
0000
0010
0100
,
0001
0000
1000
0010
1000
0000
0001
0100
0001
0000
1000
0100
0010
0000
0001
0100
,
0001
0000
1000
0010
1000
0000
0001
0000
1000
0000
0100
M00M
0100
0000
0010
0000
,
0100
M00M
0100
0000
1000
0000
0100
M00M
0100
0000
0010
0000
0100
M00M
0100
0000
,
1000
0000
0010
0000
0100
0000
0001
0000
1000
0000
0100
00MM
0100
0000
0010
0000
,
0100
M00M
0100
0000
1000
0000
0010
0M0M
0010
0000
0001
0000
0100
M0M0
0100
0000
,
1000
0000
0010
0000
0100
0000
0001
0000
1000
0000
0100
0010
0100
0000
1000
0000
,
0002
0000
0103
0000
0010
0000
1000
0000
0001
0000
0100
0010
0100
0000
0001
0000
,
2000
0000
3100
0000
0020
0000
0032
0000
2003
0000
3010
0100
0001
0000
1000
0000
,
0200
0000
0310
0000
0100
0000
1000
0000
0001
0000
0010
0100
1000
0000
0001
0000
,
0200
0310
2000
3001
0020
0M00
0000
0230
,
0000
000M
2300
00M0
0000
3002
0000
M000
,
0203
00M0
0320
000M
0230
M000
0000
0302
,
0000
00M0
2003
0M00
0000
3200
0000
000M
,
0320
0000
M000
0000
0230
0000
000M
0000
1300
0000
0010
0100
0010
0000
1000
0000
,
0002
0000
0013
0000
0100
0000
1000
0000
0001
0000
0010
0100
0010
0000
0001
0000
,
2000
0000
3010
0000
0200
0000
0302
0000
2003
0000
3100
0010
0001
0000
1000
0000
,
0020
0000
0130
0000
0010
0000
1000
0000
0001
0000
0100
0010
1000
0000
0001
0000
,
0020
0000
0130
0000
2000
0000
3001
0000
1000
0000
0100
M00M
0100
0000
0001
0000
,
0010
M00M
0010
0000
0100
0000
0010
M00M
0010
0000
0001
0000
0100
M0M0
0100
0000
,
1000
0000
0010
0000
0100
0000
0001
0000
1000
0000
0100
M00M
0100
0000
0001
0000
,
0100
M00M
0100
0000
1000
0000
0010
M00M
0010
0000
0100
0000
0010
0M0M
0010
0000
,
1000
0001
0020
0000
0230
0000
0000
2300
,
0000
0000
3002
0000
0000
0203
0000
0000
,
0310
1000
0001
0100
0010
1000
0100
0010
,
0001
0100
0010
1000
0100
1100
0000
0011
,
1000
0100
0010
0001
1000
0010
0100
0001
1000
0000
0100
0000
0010
0000
0110
0000
,
0000
0011
0001
0100
0010
1000
0100
1100
,
0000
0000
1100
0000
1000
0000
0010
0000
0100
0001
1000
0000
0100
0000
1100
0000
,
0100
1000
0001
0000
0100
0000
0101
0000
0100
0010
0000
1000
0001
1000
0000
0001
,
0010
0100
1000
0010
1000
0100
0010
0001
0200
0000
0000
0000
0000
0000
0000
0000
,
0000
0000
0000
0000
,
0000
0000
0300
0000
;

//---------------dance-single - C.Sanabria----------------
#NOTES:
     dance-single:
     C.Sanabria:
     Beginner:
     3:
     0.217,0.309,0.325,0.000,0.000:
0000
0000
0000
0000
,
0000
0000
0000
0000
,
0000
0000
0000
0000
,
0000
0000
0000
0000
,
1000
0000
0000
0000
,
1000
0000
0000
0000
,
1000
0000
0000
0000
,
1000
0000
0000
0000
,
0001
0000
0000
0000
,
0001
0000
0000
0000
,
0001
0000
0000
0000
,
0001
0000
0000
0000
,
0100
0000
0000
0000
,
0100
0000
0000
0000
,
0100
0000
0000
0000
,
0100
0000
0000
0000
,
0010
0010
0010
0000
,
0010
0010
0010
0000
,
0100
0100
0100
0000
,
0100
0100
0100
0000
,
0001
0001
0001
0000
,
1000
1000
1000
0000
,
0001
0001
0001
0000
,
1000
1000
1000
0000
,
0010
0000
0100
0000
,
0010
0000
1001
0000
,
0100
0000
0010
0000
,
0100
0000
1001
0000
,
1000
0000
0100
0000
,
0010
0000
0110
0000
,
0001
0000
0100
0000
,
0010
0000
0110
0000
,
1001
0000
0000
0000
,
0000
0000
1000
0001
,
1001
0000
0000
0000
,
0000
0000
0001
1000
,
1001
0000
0010
0000
,
1001
0000
0100
0000
,
1001
0000
0001
0000
,
0110
0000
1000
0000
,
0110
0000
0000
0000
,
0000
0000
0000
0000
,
0010
0000
0000
0000
,
0000
0000
0000
0000
,
0100
0000
0000
0000
,
0000
0000
0000
0000
,
0001
0001
1000
1000
,
0001
1000
0001
1000
,
1001
0000
0000
0000
,
0000
0000
0000
0000
,
0100
0000
0000
0000
,
0000
0000
0000
0010
,
0010
0000
0000
0000
,
0000
0000
0000
0000
,
0001
0000
0000
0000
,
0000
0000
0000
1000
,
1000
0000
0000
0000
,
0000
0000
0000
0010
,
0010
0000
0000
0000
,
0000
0000
0000
0100
,
0100
0000
0000
0001
,
0000
0000
1000
0000
,
0100
0000
0000
0010
,
0000
0000
0001
0000
,
1001
0000
0000
0000
,
0000
0000
0000
0010
,
0010
0000
0000
0000
,
0000
0000
0000
0100
,
0100
0000
0000
0001
,
0000
0000
1000
0000
,
0100
0000
0000
0010
,
0000
0000
0001
0000
,
1001
0000
0000
0000
,
1001
0000
0000
0000
,
1001
0000
0000
0000
,
0110
0000
0000
0000
,
0110
0000
0000
0000
,
1001
0000
0000
0110
,
0000
0000
1001
0000
,
1001
0000
0000
0110
,
0000
0000
1001
0000
,
1001
0000
0010
0000
,
0000
0000
0100
0000
,
1001
0000
0010
0000
,
0000
0000
0100
0000
,
1001
0000
0000
0110
,
0000
0000
1001
0000
,
0110
0000
0000
1001
,
0000
0000
0110
0000
,
1001
0000
0000
0000
,
0000
0000
0000
0001
,
0001
0000
0000
0000
,
0000
0000
0000
1000
,
1000
0000
0000
0000
,
0000
0000
0000
0010
,
0100
0000
0000
0000
,
0000
0000
0000
0100
,
0010
0000
0000
0000
,
0000
0000
0000
1000
,
0001
0000
0000
0000
,
0000
0000
0000
0001
,
1000
0000
0000
0000
,
0000
0000
0000
0010
,
0100
0000
0100
0000
,
0010
0000
0010
0000
,
1001
0000
1001
0000
,
0100
0000
0000
0000
,
0010
0000
1001
0000
,
0100
0000
0000
0000
,
0100
0000
1001
0000
,
0000
0110
0000
0000
,
1001
0000
0110
0000
,
0000
1001
0000
0000
,
0110
0000
1001
0000
,
0100
0000
1001
0000
,
0010
0000
0000
0000
,
0100
0000
1001
0000
,
0010
0000
1000
1000
,
1000
0000
0001
0001
,
0001
0000
0100
0100
,
0100
0000
0010
0010
,
0010
0000
1000
0000
,
1001
0000
0001
0000
,
1001
0000
0010
0000
,
0110
0000
0100
0000
,
0110
0000
1000
1000
,
1000
0000
0010
0010
,
0010
0000
0100
0100
,
0100
0000
0001
0001
,
0001
0000
1000
0000
,
0010
0000
0001
0000
,
0100
0000
1000
0000
,
0001
0000
1000
0000
,
0001
0000
0110
0000
,
1001
0000
0110
0000
,
1001
0000
0110
0000
,
0110
0000
1001
0000
,
1001
0000
1001
0000
;

//---------------dance-single - C.Sanabria----------------
#NOTES:
     dance-single:
     C.Sanabria:
     Hard:
     9:
     0.733,0.822,0.006,0.606,0.079:
0000
0000
0000
0000
,
0000
0000
0000
0000
,
0000
0000
0000
0000
,
0000
0000
0000
0000
,
0000
1000
0000
1000
0000
1000
0000
1000
,
0000
0001
0000
0001
0000
0001
0000
0001
,
0000
1000
0000
0100
0000
0010
0000
0001
,
0000
1000
0000
0010
0000
0100
0000
0001
,
0000
0010
0000
0010
0000
0100
0000
0100
,
0000
1000
0000
0010
0000
0100
0000
0001
,
0000
0010
0000
0010
0000
0100
0000
0100
,
0000
1000
0000
0010
0000
0100
0000
0001
,
0000
0000
2000
3000
0000
0000
2000
3000
0000
0000
0200
0300
0000
0000
0200
0300
,
0000
0000
0020
0030
0000
0000
0020
0030
0000
0000
0002
0003
0000
0000
0002
0003
,
0000
0000
2000
3000
0000
0000
0200
0300
0000
0000
0020
0030
0000
0000
0002
0003
,
0000
1000
0010
0100
0002
0000
1003
000M
,
0001
0100
0001
0100
0010
0100
0010
0100
,
1000
0100
0010
0100
0001
1000
0001
1000
,
0001
0010
0001
0010
0100
0010
0100
0010
,
1000
0010
0100
0010
0001
1000
0001
1000
,
0001
0100
0001
0100
0010
0100
0010
0100
,
0001
0010
0001
0010
0100
1000
0010
0100
,
0001
0010
0001
0010
0100
0010
0100
0010
,
0100
1000
0100
1000
0010
0100
0001
1000
,
0001
0100
0001
0100
0001
1000
0001
1000
,
0001
0010
0001
0010
0100
1000
0010
0010
,
1000
0100
1000
0100
1000
0001
1000
0001
,
1000
0010
1000
0010
0100
0001
0010
0010
,
0001
0100
0010
1000
0001
0100
0010
1000
,
0001
0010
0001
0010
0001
1000
0001
1000
,
0010
1000
0010
1000
0001
1000
0001
0010
,
0100
0000
1000
0000
0100
0000
1000
0000
0001
0000
0100
0000
0001
0100
0010
1000
,
0001
0001
0010
0010
,
1000
0000
1000
0000
0010
0000
0010
1000
,
0001
0001
0100
0100
,
0010
0000
0010
0000
1000
0000
1000
0100
,
0020
0000
0031
0100
0001
1000
0020
0000
,
0130
00M0
0010
1000
0001
1000
0200
0000
,
0310
0M00
0010
0001
1000
0010
2000
0000
,
3001
M000
1000
0001
0010
0001
0100
0001
,
0000
1000
0000
0100
0000
0010
0000
0001
,
0000
1000
0000
0010
0000
0100
0000
0001
,
0000
1000
0000
0100
0000
0010
0000
0001
,
0000
0100
0000
0010
0000
1000
0000
0001
,
2000
0100
3002
0100
,
2003
0010
3002
0010
,
1003
0100
0000
1000
0100
0000
0010
0000
0001
0100
0000
0001
0100
0000
0010
0000
,
1000
0000
0100
0000
0001
0000
0100
0000
1000
0000
0010
0000
0100
0001
1000
0010
,
0200
0302
0023
0032
0000
1000
0000
1000
,
0000
0100
0000
0100
0000
0010
0000
0013
,
0200
2300
3020
2030
0000
0001
0000
0001
,
0000
0100
0000
0100
0000
3010
1000
0001
,
0020
0032
2003
3020
0000
0100
0000
0100
,
0000
1000
0000
1000
0000
0100
0000
0130
,
0020
2030
3002
0023
0000
0100
0000
0100
,
0000
0001
0000
0001
0000
0130
1000
0001
,
2000
3200
2300
3002
0000
0010
0000
0010
,
0000
1000
0000
1000
0000
0100
0000
0103
,
0002
0023
0032
2003
0000
0100
0000
0100
,
0000
0001
0000
0001
0000
0010
0000
3010
,
1000
0100
1000
0001
0010
0001
1000
0100
,
1000
0001
0010
0001
1000
0100
0010
0001
,
1000
0100
1000
0001
0100
0001
1000
0100
,
1000
0001
0100
0001
1000
0010
0100
0001
,
1001
00M0
0M00
000M
,
M000
0M00
00M0
0020
,
1030
00M0
0000
0000
0000
0000
0000
0000
,
0000
0000
0000
0200
,
0301
0100
0001
1000
0100
1000
0001
0100
,
0001
1000
0100
1000
0001
0100
0010
1000
,
0001
0010
0001
1000
0100
1000
0001
0100
,
0001
1000
0010
1000
0001
0010
0100
2000
,
0002
0000
0000
0000
3003
M00M
0000
0000
,
1000
0100
1000
0010
1000
0100
1000
0010
,
0100
0001
0100
0010
1000
0001
1000
0100
,
0010
0001
0100
0001
0010
0001
0100
0010
,
1000
0010
0100
0001
1000
0100
0010
0001
,
1000
0100
1000
0001
0100
0001
1000
0100
,
1000
0001
0100
0001
1000
0100
0010
0001
,
1000
0010
1000
0001
0010
0001
1000
0010
,
1000
0001
0010
0001
1000
0010
0100
0001
,
2000
3100
0010
0100
2000
3010
0100
0001
,
0010
0001
0100
0010
2000
3100
0020
0031
,
2000
3001
0100
0010
0200
0301
0010
0100
,
1000
0010
0100
0010
2000
3001
0020
0130
,
2000
0000
0000
3020
0000
0000
0230
0000
,
0000
0302
0000
0000
1003
0100
0010
0001
,
2000
0000
0000
3020
0000
0000
0230
0000
,
0000
0302
0000
0000
1003
0010
0100
0001
,
20M0
3M00
M000
000M
,
0M00
00M0
M000
0M02
,
0103
000M
0000
0000
M000
0000
00M0
0000
,
0M00
000M
M000
2M00
,
301M
M000
0000
0000
00M0
0000
0M00
0000
,
000M
M000
0M00
02M0
,
0301
0M00
0000
0000
M000
0000
00M0
0000
,
0M00
0000
000M
0000
M000
0010
00M0
0010
,
0200
0302
0023
0032
0000
1000
0000
1000
,
0000
0100
0000
0100
0000
0010
0000
0013
,
0200
2300
3020
2030
0000
0001
0000
0001
,
0000
0100
0000
0100
0000
3010
0200
0000
,
0320
2030
3002
0023
0000
0100
0000
0100
,
0000
0001
0000
0001
0000
0100
0000
0130
,
0010
0001
0000
1000
0001
0000
0100
0000
0010
1000
0000
0001
1000
0000
0100
0000
,
0010
0000
0001
0000
1000
0000
0100
0000
0010
0000
0001
0000
1000
0010
0100
0001
,
M000
00M0
0M00
000M
0001
0100
0001
0010
,
0001
0100
0001
0010
0100
1000
0100
0010
,
0001
1000
0001
0100
0010
1000
0100
1000
,
0010
1000
0100
0010
0001
0010
0100
1000
,
0001
0100
0010
1000
0001
0100
0001
1000
,
0100
1000
0001
0100
0001
1000
0100
1000
,
0001
0100
0010
1000
0001
0010
0001
1000
,
0010
1000
0001
0010
0001
1000
0010
1000
,
0001
0010
0100
1000
0002
0103
0010
0100
,
0002
0013
0100
1000
0010
1000
0100
0010
,
0002
0103
0020
1030
0002
1003
0100
0010
,
0200
1300
0010
0100
0001
0010
0100
0010
,
0002
1003
0020
0130
0002
0000
0000
0023
,
0000
0000
0230
0000
0000
2300
0000
0000
,
3001
0100
0010
1000
0002
0000
0000
0023
,
0000
0000
0230
0000
0000
2300
0000
0000
,
3001
0010
0100
1000
0001
0100
1000
0100
,
0001
1000
0100
1000
0001
0100
1000
0100
,
0001
0001
0010
0010
0100
1000
0010
0001
,
0010
1000
0100
0010
0001
1000
0100
0010
,
0001
0001
0100
0100
0001
0010
0001
1000
,
0100
1000
0001
0100
0001
1000
0010
1000
,
0001
0010
0100
0100
1000
0010
1000
0001
,
0100
0001
1000
0100
1000
0001
0010
0001
,
1000
0100
0010
0001
2000
0000
0000
3020
,
0000
0000
0230
0000
0000
0302
0000
0000
,
1003
0100
0010
0001
0200
0000
0000
0302
,
0000
0000
1003
0100
0010
0002
0000
1003
,
0001
0100
0010
1000
0001
0100
0010
1000
0001
0000
0010
0000
0001
0000
0200
0000
,
0000
0310
1000
0100
0010
0001
1000
0002
,
0000
0000
1003
0000
0100
0000
0010
0000
0001
0100
0001
0000
1000
0000
0100
0000
,
1000
0100
1000
0000
0001
0000
0100
0000
0010
0100
0000
0001
1000
0001
0000
0010
,
0100
1000
0001
1000
0001
1000
0001
1000
0002
0000
0000
0000
0000
0000
0000
0000
,
0000
0000
0000
0000
,
0000
0000
0003
0000
;
