#TITLE:Acceleration Anubis;
#SUBTITLE:;
#ARTIST:DJ Mindsweeper;
#TITLETRANSLIT:;
#SUBTITLETRANSLIT:;
#ARTISTTRANSLIT:;
#GENRE:;
#CREDIT:;
#BANNER:Acceleration Anubis-bn.png;
#BACKGROUND:Acceleration Anubis-bg.png;
#LYRICSPATH:;
#CDTITLE:;
#MUSIC:Acceleration Anubis.mp3;
#OFFSET:-0.580;
#SAMPLESTART:42.910;
#SAMPLELENGTH:12.000;
#SELECTABLE:YES;
#BPMS:0.000=121.000,32.000=145.000;
#STOPS:;
#BGCHANGES:;
#KEYSOUNDS:;

//---------------dance-single - C.Sanabria & JomyDDR----------------
#NOTES:
     dance-single:
     C.Sanabria & JomyDDR:
     Challenge:
     11:
     0.984,1.000,0.131,0.833,1.000:
2000
0000
0000
3200
0000
0000
0310
0001
,
2000
0000
0000
0000
,
0001
0000
0000
0000
0000
0000
0001
0000
0000
0000
0000
0000
0001
0000
0000
0000
0000
0000
3001
0000
0000
0100
0000
0000
0010
0000
0000
1000
0000
0000
0001
0000
0100
0000
0001
0000
0100
0000
0000
0010
0000
0000
1000
0000
0000
0001
0000
0000
,
2000
0000
0000
0000
,
3002
0000
0000
0023
0000
0000
0130
1000
,
0002
0203
0320
2030
3002
0000
0000
0000
,
0000
0000
0000
0000
1003
0100
2000
0000
0000
3001
0200
0000
0000
0000
0000
0000
,
0000
0310
1000
0001
0200
0000
0320
0000
,
1030
0000
0100
1000
0000
0100
0010
0000
0100
1000
0000
0001
0100
0000
0010
1000
,
0001
0000
0100
0001
0000
0100
0010
0000
0100
0001
0000
1000
0100
0010
0001
0000
,
1000
0000
0100
1000
0000
0100
0010
0000
0100
1000
0000
0001
0100
0000
0010
1000
,
0001
0000
0100
0001
0000
0100
0010
0000
0100
0001
0000
1000
0100
0010
0001
0000
,
1000
0100
1000
0001
0010
0001
1000
0010
1000
0001
0100
0001
1000
0100
0010
0001
,
1000
0010
1000
0001
0100
0001
1000
0100
1000
0001
0010
0001
1000
0010
0100
0001
,
1000
0100
0010
0001
1000
0100
0010
0001
1000
0010
0100
0001
1000
0010
0100
0001
,
1000
0100
1000
0100
0010
0001
0010
0001
1000
0010
1000
0010
0100
0001
0100
0001
,
1000
0100
0010
0001
0100
0001
0010
0100
1000
0010
1000
0100
0010
0001
0100
0001
,
1000
0100
1000
0100
0010
0001
1000
0001
1000
0100
1000
0100
0010
0001
0100
0010
,
1000
0001
1000
0001
0010
0100
0010
0100
1000
0010
0100
0001
1000
0100
0010
0001
,
1000
0010
1000
0010
0100
0001
0100
0001
1000
0100
1000
0100
0010
0001
0010
0001
,
0100
0010
0100
0010
1000
0001
1000
0001
0010
0100
0010
0100
1000
0001
1000
0001
,
1000
0010
0100
0001
1000
0010
0100
0001
1000
0100
0010
0001
1000
0100
0010
0001
,
1000
110M
0001
M101
1000
101M
0001
M011
,
0010
0000
0000
0100
0000
0000
0010
0000
0000
0100
0000
0000
0010
0000
0000
0100
0000
0000
0010
0000
0000
0100
0000
0000
4000
0000
0004
0000
0000
0000
0000
0000
0000
0000
0000
0000
0000
0000
0000
0000
0000
0000
3003
0000
0000
0000
0000
0000
,
1000
0000
0010
0100
0000
0010
0100
0000
2000
0000
3200
0000
0302
0000
2003
0000
,
3001
0000
0010
0100
0000
0010
0200
0000
0302
0000
0203
0000
2300
0000
3020
0000
,
1030
0000
0010
0100
0000
0010
0100
0000
2000
0000
3200
0000
0320
0000
2030
0000
,
3001
0000
0010
0100
0000
0010
0200
0000
0302
0000
0203
0000
2300
0000
3020
0000
,
1030
0000
0010
0100
0000
0010
0100
0000
2000
0000
3200
0000
0302
0000
0023
0000
,
0031
0000
0100
0010
0000
0100
0020
0000
0032
0000
0023
0000
2030
0000
3002
0000
,
1003
0000
0100
0010
0000
0100
0010
0000
2000
0000
3020
0000
0230
0000
2300
0000
,
3001
0000
0100
0010
0000
0100
0020
0000
0032
0000
0023
0000
2030
0000
3200
0000
,
1300
0000
0100
0010
0000
0100
1000
0000
0020
0000
0032
0000
0023
0000
2030
0000
,
3001
0000
0100
0010
0000
0100
0002
0000
0023
0000
2030
0000
3020
0000
0230
0000
,
1300
0000
0010
0100
0000
0001
0010
0000
0200
0000
2300
0000
3020
0000
0230
0000
,
0301
0000
0010
0100
0000
1000
0020
0000
0032
0000
0023
0000
2030
0000
3200
0000
,
1300
0000
0010
0100
0000
0100
1000
0000
2000
0000
3200
0000
0302
0000
0023
0000
,
0031
0000
0010
0100
0000
0100
0002
0000
0203
0000
2300
0000
3020
0000
0230
0000
,
0301
0000
0010
0100
0000
1000
0010
0000
0002
0000
0023
0000
2030
0000
3200
0000
,
0310
0000
0001
0100
0000
0100
0020
0000
0032
0000
0023
0000
2030
0000
3200
0000
,
1300
0100
0010
0001
1000
0100
0010
0001
0100
0010
0100
0010
1000
0001
1000
0001
,
1000
0100
0010
0001
1000
0100
0010
0001
0100
0010
0100
0010
1000
0001
1000
0001
,
1000
0010
0100
0001
1000
0100
0010
0001
0100
0001
0010
0100
1000
0001
0010
0100
,
1000
0100
0010
0001
1000
0010
0100
0001
0010
0001
0100
0010
1000
0001
0100
0010
,
1000
0000
0100
0010
0000
0100
0010
0000
0001
1000
0000
0001
1000
0000
0010
0100
,
0001
0000
0100
0010
0000
0100
0010
0000
1000
0001
0000
1000
0001
1000
0100
0000
,
1000
0000
0010
1000
0000
0001
0100
0000
0010
1000
0000
0001
0100
0000
0010
1000
,
0001
0000
0010
0001
0000
1000
0100
0000
0010
0001
0000
1000
0100
0010
0001
0000
,
2000
0000
0000
3020
0000
0000
0000
0000
,
0130
0001
2000
0000
3200
0000
0320
0000
0032
0000
0000
0000
2003
0000
0000
0000
,
3002
0203
2300
3200
0302
0023
2030
3020
,
0032
0000
0000
0000
0000
0000
0203
0000
0320
0000
2030
0000
3001
0100
0001
0000
,
2000
0000
3020
0000
0130
0001
0000
0001
2000
0000
3100
0010
0100
0010
0000
0001
,
2000
3020
0230
0302
2003
3200
0302
0203
,
1300
110M
0001
M101
1000
101M
0001
M011
,
1000
0000
0000
0100
0000
0000
0010
0000
0000
0001
0000
0000
0100
0000
0000
0001
0000
0000
0010
0000
0000
0100
0000
0000
4000
0000
0004
0000
0000
0000
0000
0000
0000
0000
0000
0000
0000
0000
0000
0000
0000
0000
3003
0000
0000
0000
0000
0000
,
1000
0000
0010
0000
0100
0001
0000
0100
0001
0000
0010
0000
0100
1000
0000
0100
,
1000
0001
0100
0000
1000
0000
0100
0000
0002
0000
0000
0000
0013
0000
0100
0000
,
1000
0010
0001
0010
1000
0100
0001
0100
,
2000
0000
0000
3020
0000
0031
0010
1000
,
0001
0000
0010
0000
0100
1000
0000
0100
1000
0000
0010
0000
0100
0001
0000
0100
,
0001
1000
0100
0000
0001
0000
0100
0000
2000
0000
0000
0000
3010
0000
0100
0000
,
0001
0010
1000
0010
0001
0100
1000
0100
,
0002
0000
0000
0023
0000
1030
0010
0001
,
0100
0000
0001
0000
1000
0010
0000
0010
1000
0000
0100
0000
0010
0001
0000
0010
,
0001
1000
0100
0000
0010
0000
0001
0000
2000
0000
0000
0000
3010
0000
0100
0000
,
1000
0100
0010
0100
0001
0010
0100
0010
,
0002
0000
0000
2003
0000
3100
0010
0001
,
0100
0000
0001
0000
1000
0100
0000
0100
1000
0000
0010
0000
0100
0001
0000
0100
,
0001
1000
0010
0000
0100
0000
0001
0000
2000
0000
0000
0000
3100
0000
0010
0000
,
0011
0011
1001
1001
1010
1010
1001
1001
,
1000
0100
0010
0001
0100
0001
0010
0100
1000
0010
1000
0100
0010
0001
0100
0001
,
2000
3000
0000
0020
0030
0000
0200
0300
0000
0002
0003
0000
0200
0300
0020
0030
,
2000
3000
0000
0200
0300
0000
0002
0003
0000
0200
0300
0100
1000
0001
0100
0000
,
0002
0003
0000
0200
0300
0000
0020
0030
0000
2000
3000
0000
0020
0030
0200
0300
,
0002
0003
0000
0020
0030
0000
2000
3000
0000
0020
0030
0001
0100
0010
1000
0000
,
0001
0000
1000
0100
0000
0010
0100
0000
0010
0001
0000
0010
0100
0000
1000
0001
,
1000
0000
0001
0100
0000
0010
0100
0000
0010
1000
0000
0010
0100
0001
0100
0000
,
0001
0000
1000
0100
0000
0010
0100
0000
1000
0100
0000
0010
0100
0000
0010
0001
,
1000
0000
0001
0100
0000
0010
0100
0000
0001
0100
0000
0010
1000
0001
1000
0000
,
1000
0010
0100
0001
1000
0010
0100
0001
0010
0100
0010
0100
1000
0001
1000
0001
,
1000
0010
0100
0001
1000
0010
0100
0001
0010
0100
0010
0100
1000
0001
1000
0001
,
1000
0100
0010
0001
1000
0010
0100
0001
0010
0001
0100
0010
1000
0001
0100
0010
,
1000
0010
0100
0001
1000
0100
0010
0001
0100
0001
0010
0100
1000
0001
0010
0100
,
1000
0010
1000
0001
0100
0001
1000
0100
1000
0001
0010
0001
1000
0010
0100
0001
,
1000
0100
1000
0001
0010
0001
1000
0010
1000
0001
0100
0001
1000
0100
0010
0001
,
1000
0010
0100
0001
1000
0010
0100
0001
1000
0100
0010
0001
1000
0100
0010
0001
,
1000
0100
1000
0100
1000
0100
1000
0100
1000
0100
1000
0100
0010
0001
0010
0001
0010
0001
0010
0001
0010
0001
0010
0001
,
0010
0000
M000
0M00
00M0
000M
0000
0000
,
1000
0000
0010
1000
0000
0100
1000
0000
0010
0100
0001
0000
0001
0100
0010
0000
,
1000
0000
0100
0010
0000
0100
1000
0000
0001
0100
0000
0010
0100
0000
0100
0000
,
0001
0000
0010
0001
0000
0100
0001
0000
0010
0100
1000
0000
1000
0100
0010
0000
,
0001
0000
0100
0010
0000
0100
0001
0000
1000
0100
0000
0010
0100
0000
0100
0000
,
1000
0000
0010
1000
0010
0000
0200
0000
0301
0000
0100
0000
0010
1000
0001
0000
,
0010
0000
0100
1000
0000
0001
1000
0000
0001
0100
0010
0000
0010
0100
0001
0000
,
0001
0000
0010
0001
0010
0000
0200
0000
1300
0000
0100
0000
0010
0001
1000
0000
,
0010
0000
0100
0001
0000
1000
0001
0000
1000
0100
0010
0000
0010
0100
1000
0000
,
0001
0000
0100
0010
0000
0100
0002
0000
0000
0000
0010
0000
0013
0100
1000
0000
,
0010
0000
0100
0001
0000
0100
0001
0000
0100
0001
1000
0000
0100
1000
0001
0000
,
1000
0000
0100
0010
0000
0100
2000
0000
0000
0000
0010
0000
3010
0100
0001
0000
,
0010
0000
0100
1000
0000
0100
1000
0000
0100
1000
0001
0000
0100
0001
1000
0000
,
0100
0000
0010
0001
0000
0001
2000
0000
0010
0000
0001
0000
3001
0100
0010
0000
,
1000
0000
0010
1000
0000
0010
0100
0000
0001
0100
0001
0000
1000
0010
1000
0000
,
1100
1100
1001
1001
0101
0101
1001
1001
,
1000
0100
0010
0001
0100
0001
0010
0100
1000
0010
1000
0100
0010
0001
0100
0010
,
2000
0000
0000
0000
,
0000
0000
0000
0000
,
0000
0000
0000
0000
,
0000
0000
0000
0000
,
3000
0000
0000
0000
;

//---------------dance-single - C.Sanabria----------------
#NOTES:
     dance-single:
     C.Sanabria:
     Beginner:
     3:
     0.188,0.229,0.169,0.000,0.000:
0000
0000
0000
0000
,
0000
0000
0000
0000
,
1000
0000
0000
0000
,
0001
0000
0000
0000
,
1000
0000
0000
0000
,
0001
0000
0000
0000
,
1000
0000
0000
0000
,
0001
0000
0000
0000
,
1000
0000
1000
0000
,
0001
0000
0001
0000
,
1000
0000
1000
0000
,
0001
0000
0001
0000
,
0010
0000
0010
0000
,
0100
0000
0100
0000
,
1000
0000
1000
0000
,
0001
0000
0001
0000
,
1000
0000
1000
0000
,
0010
0000
0010
0000
,
0100
0000
0100
0000
,
0001
0000
0001
0000
,
1000
0000
1000
0000
,
0100
0000
0100
0000
,
0010
0000
0010
0000
,
0001
0000
0001
0000
,
1001
0000
0010
0000
,
1001
0000
0010
0000
,
1001
0000
0010
0000
,
1001
0000
0010
0000
,
1001
0000
0100
0000
,
1001
0000
0100
0000
,
1001
0000
0100
0000
,
1001
0000
0100
0000
,
0110
0000
0010
0000
,
0110
0000
0010
0000
,
0110
0000
0010
0000
,
0110
0000
0010
0000
,
0110
0000
0100
0000
,
0110
0000
0100
0000
,
0110
0000
0100
0000
,
0110
0000
0100
0000
,
1001
0000
1000
0000
,
1001
0000
0001
0000
,
0110
0000
1000
0000
,
0110
0000
0001
0000
,
1000
0000
0100
0000
,
0001
0000
0100
0000
,
1000
0000
0100
0000
,
0001
0000
0100
0000
,
1000
0000
0010
0000
,
0001
0000
0010
0000
,
1000
0000
0010
0000
,
0001
0000
0010
0000
,
1000
0000
0100
0000
,
0010
0000
0001
0000
,
1000
1000
1000
1000
,
1000
1000
1000
1000
,
1000
0000
0010
0000
,
0100
0000
1001
0000
,
0001
0000
0010
0000
,
0100
0000
1001
0000
,
1000
0000
0100
0000
,
0010
0000
0110
0000
,
0001
0000
0100
0000
,
0010
0000
0110
0000
,
1000
0000
0100
0000
,
1001
0000
0110
0000
,
0001
0000
1000
0000
,
0010
0000
0100
0000
,
0001
0000
0100
0000
,
1001
0000
0110
0000
,
0001
0001
0001
0001
,
0001
0001
0001
0001
,
0001
0000
0000
0000
,
0000
0000
0000
0000
,
0000
0000
0000
0000
,
0000
0000
0000
0000
,
0010
0000
0000
0000
,
0100
0000
0000
0000
,
1000
0000
0000
0000
,
0001
0000
0000
0000
,
1000
1000
1000
0000
,
0001
0001
0001
0000
,
1000
1000
1000
0000
,
0001
0001
0001
0000
,
0010
0010
0010
0000
,
0100
0100
0100
0000
,
0010
0010
0010
0000
,
0100
0100
0100
0100
,
0000
0000
0000
0000
,
1000
0000
0100
0000
,
0001
0000
0100
0000
,
1000
1000
1000
0000
,
0001
0001
0001
0000
,
0001
0000
0100
0000
,
1000
0000
0100
0000
,
0001
0001
0001
0000
,
0010
0010
0010
0000
,
1000
0000
0100
0000
,
0001
0001
0001
0000
,
0001
0000
0100
0000
,
1000
1000
1000
0000
,
0010
0000
0100
0000
,
0001
0000
1001
0000
,
0010
0000
0100
0000
,
1000
0000
1001
0000
,
1001
0000
0000
0000
;
