#TITLE:Abyss;
#SUBTITLE:;
#ARTIST:F-777;
#TITLETRANSLIT:;
#SUBTITLETRANSLIT:;
#ARTISTTRANSLIT:;
#GENRE:;
#CREDIT:;
#BANNER:abyss-bn.png;
#BACKGROUND:abyss-bg.png;
#LYRICSPATH:;
#CDTITLE:;
#MUSIC:Abyss.mp3;
#OFFSET:-0.031;
#SAMPLESTART:27.390;
#SAMPLELENGTH:12.000;
#SELECTABLE:YES;
#BPMS:0.000=140.000;
#STOPS:;
#BGCHANGES:;
#KEYSOUNDS:;

//---------------dance-single - C.Sanabria----------------
#NOTES:
     dance-single:
     C.Sanabria:
     Challenge:
     10:
     0.651,0.836,0.110,0.467,0.785:
0000
0000
0000
0000
,
0000
0000
0000
0000
,
0000
0000
0000
0000
,
0000
0000
0000
0000
,
M000
000M
M000
000M
,
M000
000M
M000
000M
,
M000
000M
M000
000M
,
00M0
00M0
0M00
0M00
,
1000
0010
1000
0010
,
0100
0001
0100
0001
,
1000
0000
0000
0010
1000
0000
0001
0000
0100
0000
0000
0010
1000
0000
0001
0000
,
0200
M000
0300
0000
0200
M000
0300
0000
0020
000M
0030
0000
0020
000M
0030
0000
,
1000
0010
0000
0100
0000
0000
0010
0000
1000
0010
0000
0100
0000
0000
0010
0000
,
0100
0001
0000
0100
0000
0000
0001
0000
0100
0001
0000
0100
0000
0000
0001
0000
,
1000
0000
0000
0010
0100
0000
0001
0000
1000
0000
0000
0010
0100
0000
0001
0000
,
2000
0M00
3000
0000
2000
0M00
3000
0000
0002
00M0
0003
0000
0002
00M0
0003
0000
,
1000
0100
0000
0010
0000
0100
1000
0000
1000
0100
0000
0010
0000
0100
1000
0000
,
0100
0010
0000
0001
0000
0010
0100
0000
0100
0010
0000
0001
0000
0010
0100
0000
,
1000
0100
0000
0001
0000
0100
1000
0000
1000
0100
0000
0010
0000
0100
1000
0000
,
0001
0100
0000
0010
0000
0100
0001
0000
0001
0100
0000
1000
0000
0100
0001
0000
,
1000
0100
0000
0010
0000
0100
1000
0000
0001
0010
0000
0100
0000
0010
0001
0000
,
1000
0100
0000
0001
0000
0100
1000
0000
0001
0010
0000
1000
0000
0010
0001
0000
,
1000
0100
0000
0010
0000
0001
0100
0000
0100
0001
0000
0010
0000
0100
1000
0000
,
1100
0000
0110
0000
0012
0000
0000
0000
2000
3000
0000
2000
3000
0000
2000
3003
,
1001
0000
0000
1000
0100
0000
0010
0000
0001
0000
0000
1000
0100
0000
0010
0000
,
0100
0000
0000
1000
0100
0000
0001
0000
0100
0000
0000
1000
0100
0000
1000
0000
,
0010
0000
0000
0100
0001
0000
1000
0000
0010
0000
0000
0100
0001
0000
0100
0000
,
1000
0000
0000
0100
0001
0000
0010
0000
0001
0000
0000
1000
0100
0000
0010
0000
,
0100
0000
0000
0100
1000
0000
0001
0010
0100
0000
0000
0100
1000
0000
0010
0100
,
0001
0000
0000
0010
0100
0000
1000
0100
0010
0000
0000
0100
1000
0000
0001
0010
,
0100
0000
0000
0010
0100
0000
1000
0010
0100
0000
0000
0010
0100
0000
0001
1000
,
0001
0000
0100
0010
0000
1000
0000
0010
0100
0000
0001
1000
0000
0001
0000
1000
,
0001
0100
0001
0000
1000
0100
0010
0001
0010
0100
1000
0000
0001
0100
0010
1000
,
0010
0100
0001
0000
1000
0010
0100
0001
0100
0010
1000
0000
0001
0010
0100
1000
,
0100
0010
0001
0000
1000
0010
0100
0001
1000
0100
0010
0000
0001
0100
0010
1000
,
0001
1000
0100
0000
0010
1000
0010
0100
0010
0001
1000
0000
0001
0100
0010
0100
,
1000
0100
0010
0000
1000
0100
1000
0100
1000
0100
0010
0000
0001
0100
0001
0100
,
0001
0100
0010
0000
1000
0001
0010
0100
1000
0001
0100
0000
0001
1000
0010
0100
,
0001
1000
0100
0000
0010
0001
0100
0010
1000
0001
1000
0000
0010
1000
0100
0010
,
0001
1000
0001
0000
1000
0100
0010
0001
0010
0100
1000
0000
1000
0010
0100
0001
,
1000
0100
1000
0100
0010
0001
0010
0001
1000
0010
0100
0001
0100
0010
1000
0001
,
1000
0100
1000
0100
0010
0001
0010
0001
1000
0010
0100
0001
0010
0001
0100
0010
,
1000
0001
1000
0100
0010
0100
1000
0001
1000
0010
0100
0010
1000
0100
0010
0001
,
1000
0010
1000
0010
0100
0001
0100
0001
1000
0100
1000
0010
0100
0001
0010
0001
,
1000
0100
1000
0100
0010
0001
0010
0001
1000
0010
1000
0010
0100
0001
0100
0001
,
1000
0100
0010
0001
0010
0100
1000
0010
1000
0100
0010
0001
0100
0001
0010
0100
,
1000
110M
0100
M110
0010
0M11
0001
10M1
,
4000
3400
0340
0034
0043
0430
4300
3004
0103
0010
0100
0010
0100
0000
0110
0000
,
2000
0000
0000
0000
0020
0000
0000
3000
,
0200
0000
0000
0000
0000
0000
0000
0030
,
0002
0000
0000
0300
0020
0000
0000
0003
,
2000
0000
0000
0030
0020
0000
0000
3000
,
0002
0000
0000
0030
0200
0000
0000
0003
,
0020
0000
0000
0000
0000
0000
0000
0300
,
2000
0000
0000
0030
0200
0000
0000
3000
,
0002
0000
0000
0300
0200
0000
0000
0003
,
1300
0100
0000
0010
0000
0100
1000
0000
1000
0100
0000
0010
0000
0100
1000
0000
,
1000
0100
0000
0001
0000
0100
1000
0000
1000
0100
0000
0001
0000
0100
1000
0000
,
0001
0100
0000
0010
0000
0100
0001
0000
0001
0100
0000
1000
0000
0100
0001
0000
,
1000
0010
0000
0100
0000
0010
1000
0000
1000
0010
0000
0001
0000
0010
1000
0000
,
1000
0100
0000
0010
0000
0100
1000
0000
1000
0100
0000
0001
0000
0100
1000
0000
,
0001
0100
0000
0010
0000
0100
0001
0000
0001
0100
0000
0010
0000
0100
0001
0000
,
1000
0100
0000
0010
0000
0001
0100
0000
0100
0001
0000
0010
0000
0100
1000
0000
,
0002
00M0
0003
0000
0002
00M0
0003
0000
2000
0M00
3000
0000
2000
0M00
3000
0000
,
0000
0000
0000
0000
,
0000
0000
0000
0000
,
1000
0M10
100M
0M10
,
020M
0000
0000
0301
20M0
0000
302M
0000
,
1M30
0000
0000
001M
0000
0000
1M00
0000
0020
0000
000M
0000
0230
0000
M000
0000
,
0302
0000
0000
0000
0000
00M0
0000
0000
0000
0000
0000
0000
1003
0000
0000
0000
0200
0000
0000
0000
00M0
0000
0000
0000
0320
0000
0000
0000
M000
0000
0000
0000
,
0031
1000
0001
0000
1000
0100
1000
0100
1000
0001
1000
0000
0001
0100
0001
0100
,
0001
1000
0001
0000
1000
0100
0010
0001
0100
0010
1000
0000
1000
0010
0100
0001
,
0010
0100
1000
0000
0001
0010
0100
1000
0100
0010
0001
0000
1000
0010
0100
0001
,
1000
0100
0010
0000
0002
0000
0023
0000
0230
0000
0300
0000
1100
0000
0000
0000
,
0001
0000
0010
0001
0020
0000
0031
0000
2000
0000
3000
0000
1100
0000
0000
0000
,
1000
0000
0010
1000
0020
0000
1030
0000
0002
0000
0003
0000
0101
0000
0000
0000
,
1000
0000
0000
0010
1000
0000
0020
0000
2030
0000
3000
0000
2010
0000
0000
0000
,
3001
0000
0000
0010
0001
0000
2000
0000
3200
0000
0300
0000
2002
0000
3003
0000
,
1000
0000
0000
0100
0000
0000
1000
0000
0100
0000
0000
0000
0110
0000
0000
0000
,
0001
0000
0100
0001
0200
0000
0301
0000
2000
0000
3000
0000
2100
0000
0000
0000
,
3001
0000
0000
1000
0100
0010
0001
0000
2000
0000
0000
0000
3020
0000
0000
0000
,
0130
0000
0001
0100
0002
0000
1003
0000
0020
0000
0000
0000
0230
0000
0000
0000
,
0301
0100
0000
0010
0000
1000
0002
0000
0023
0000
0000
0000
0230
0000
0000
0000
,
2300
0000
0000
3010
1020
0000
0230
0000
,
0301
0010
0000
0100
0000
0010
0001
0000
2000
0000
0000
0000
3200
0000
0000
0000
,
0320
0000
0031
1000
0001
0000
0100
0000
0201
0000
0000
0000
0320
0000
0000
0000
,
1030
0100
0000
0001
0000
0100
1000
0000
0020
0000
0000
0000
0230
0000
0000
0000
,
0302
0000
0000
0013
0210
0000
2300
0000
,
3001
0010
0000
1000
0000
0010
0001
0000
2000
0000
0000
0000
3020
0000
0000
0000
,
0230
0000
0301
1000
0001
0000
0010
0000
0021
0000
0000
0000
0230
0000
0000
0000
,
1300
0100
1000
0100
0010
0100
0010
0100
1000
0100
1000
0100
0010
0100
0010
0100
,
0010
0001
0100
0010
1000
0010
1000
0010
1000
0100
0010
0001
0100
0001
0100
0001
,
0010
0100
1000
0001
1000
0010
0100
0001
1000
0100
0010
0001
1000
0010
0100
0001
,
1000
0100
0010
0100
1000
0100
0010
0100
1000
0010
0100
0001
1000
0010
0100
0001
,
1000
0100
1000
0100
0010
0001
0010
0001
1000
0010
1000
0010
0100
0001
0100
0001
,
1000
0100
0010
0001
1000
0010
0100
0001
1000
0100
0010
0001
0100
0010
1000
0100
,
0010
0001
0100
0010
1000
0010
0100
0001
0010
0100
1000
0100
0010
0001
0100
0010
,
1000
0100
1000
0001
0010
0001
1000
0010
0100
0001
0100
0010
1000
0100
0010
0001
,
2002
0000
0000
0000
,
0000
0000
0000
0000
,
3003
0000
0000
00M0
0M00
0000
000M
0000
,
M000
0000
0000
0M00
00M0
0000
000M
0000
,
2000
0000
0000
3010
0200
0000
0302
0000
,
2003
0000
0000
3100
0020
0000
0032
0000
,
2003
0000
0000
3001
0200
0000
2300
0000
,
3200
0000
0000
0301
0020
0000
0230
0000
,
2300
0000
0000
0000
0020
0000
0000
3000
,
0200
0000
0000
0000
0000
0000
0000
0030
,
0002
0000
0000
0300
0020
0000
0000
0003
,
2000
0000
0000
0030
0020
0000
0000
3000
,
0031
0100
0001
0100
0010
0100
0010
0100
,
1000
0100
1000
0100
0010
0100
0010
0100
,
0002
0013
2000
3100
,
0012
1003
2010
3001
,
1000
0100
0000
0010
0000
0100
1000
0000
1000
0100
0000
0010
0000
0100
1000
0000
,
0100
0010
0000
0001
0000
0010
0100
0000
0100
0010
0000
0001
0000
0010
0100
0000
,
1000
0100
0000
0001
0000
0100
1000
0000
1000
0100
0000
0010
0000
0100
1000
0000
,
0001
0100
0000
0010
0000
0100
0001
0000
0001
0100
0000
1000
0000
0100
0001
0000
,
1000
0100
0000
0010
0000
0100
1000
0000
0001
0010
0000
0100
0000
0010
0001
0000
,
1000
0100
0000
0001
0000
0100
1000
0000
0001
0010
0000
1000
0000
0010
0001
0000
,
1000
0100
0000
0010
0000
0001
0100
0000
0100
0001
0000
0010
0000
0100
1000
0000
,
0002
00M0
0003
0000
0002
00M0
0003
0000
2000
0M00
3000
0000
2000
0M00
3000
0000
,
1000
0100
1000
0000
0010
0100
0010
0000
0100
0001
0100
0000
0010
1000
0010
0000
,
0100
0001
1000
0000
0100
0010
0001
0000
1000
0001
0100
0000
0010
1000
0001
0000
,
1000
0100
1000
0000
0010
0100
0010
0000
0100
0001
0100
0000
0001
0010
0001
0000
,
1000
0100
0010
0000
0100
1000
0001
0000
1000
0010
0100
0000
0001
1000
0100
0000
,
1000
0010
1000
0000
0100
0010
0100
0000
0010
0001
0010
0000
0100
1000
0100
0000
,
0010
0001
1000
0000
0010
0100
0001
0000
1000
0001
0010
0000
0100
1000
0001
0000
,
1000
0010
1000
0000
0100
0010
0100
0000
0010
0001
0010
0000
0001
0100
0001
0000
,
1000
0010
0100
0000
0010
1000
0001
0000
1000
0100
0010
0000
0001
1000
0010
0000
,
1000
0000
0000
0100
0000
0000
1000
0000
0002
0000
0000
0000
0023
0000
0000
0000
,
0031
0000
1000
0010
2000
0000
3001
0000
0200
0000
0300
0000
0110
0000
0000
0000
,
0001
0000
0000
0100
0000
0000
0001
0000
0020
0000
0000
0000
0230
0000
0000
0000
,
1300
0000
0001
0010
0002
0000
0103
0000
0020
0000
0030
0000
1010
0000
0000
0000
,
0002
0000
0000
1003
0010
0100
0001
0000
0020
0000
0000
0000
0230
0000
0000
0000
,
1300
0000
0010
1000
0001
0000
0100
0000
0020
0000
0030
0000
1010
0000
0000
0000
,
2000
0000
0000
3001
0010
0100
1000
0000
0020
0000
0000
0000
0230
0000
0000
0000
,
0301
0000
0010
0001
1000
0000
0010
0000
0200
0000
0300
0000
0101
0000
0000
0000
,
1000
0000
0000
0010
1000
0000
0001
0000
0100
0000
0000
0100
0001
0000
1000
0000
,
0010
0000
0000
0010
1000
0000
0001
0000
0100
0000
0000
0100
0001
0000
1000
0000
,
0010
0000
0000
1000
0001
0000
0100
0000
0010
0000
0000
0010
0100
0000
0001
0000
,
2000
0M00
3000
0000
2000
0M00
3000
0000
0002
00M0
0003
0000
0002
00M0
0003
0000
,
1000
0010
1000
0010
,
0100
0001
0100
0001
,
1000
0010
0100
0001
,
0010
0000
0100
0000
0010
0000
0000
0000
1100
0000
0000
0110
0000
0000
0011
0000
,
2002
0000
0000
0000
,
0000
0000
0000
3003
;

//---------------dance-single - C.Sanabria----------------
#NOTES:
     dance-single:
     C.Sanabria:
     Beginner:
     2:
     0.081,0.103,0.004,0.000,0.000:
0000
0000
0000
0000
,
0000
0000
0000
0000
,
0000
0000
0000
0000
,
0000
0000
0000
0000
,
0000
0000
0000
0000
,
0000
0000
0000
0000
,
0000
0000
0000
0000
,
0000
0000
0000
0000
,
1000
0000
0000
0000
,
1000
0000
0000
0000
,
1000
0000
0000
0000
,
1000
0000
0000
0000
,
0001
0000
0000
0000
,
0001
0000
0000
0000
,
0001
0000
0000
0000
,
0001
0000
0000
0000
,
0100
0000
0100
0000
,
0100
0000
0100
0000
,
0100
0000
0100
0000
,
0100
0000
0100
0000
,
0010
0000
0010
0000
,
0010
0000
0010
0000
,
0010
0000
0010
0000
,
0010
0000
0010
0000
,
1000
0000
0000
0000
,
1000
0000
0000
0000
,
1000
0000
0000
0000
,
1000
0000
0000
0000
,
0001
0000
0000
0000
,
0001
0000
0000
0000
,
0001
0000
0000
0000
,
0001
0000
0000
0000
,
1000
0000
0000
0000
,
0100
0000
0000
0000
,
0001
0000
0000
0000
,
0100
0000
0000
0000
,
1000
0000
0000
0000
,
0010
0000
0000
0000
,
0001
0000
0000
0000
,
0010
0000
0000
0000
,
1000
0000
1000
0000
,
0001
0000
0001
0000
,
1000
0000
1000
0000
,
0010
0000
0010
0000
,
1000
0000
1000
0000
,
0001
0000
0001
0000
,
1000
0000
1000
0000
,
0100
0000
0100
0000
,
1000
0000
0000
0000
,
0010
0000
0000
0000
,
0001
0000
0000
0000
,
0010
0000
0000
0000
,
1000
0000
0000
0000
,
0100
0000
0000
0000
,
0001
0000
0000
0000
,
0100
0000
0000
0000
,
1000
0000
0000
0000
,
1000
0000
0000
0000
,
1000
0000
0000
0000
,
1000
0000
0000
0000
,
0001
0000
0000
0000
,
0001
0000
0000
0000
,
0001
0000
0000
0000
,
0001
0000
0000
0000
,
0000
0000
0000
0000
,
0000
0000
0000
0000
,
1000
0000
0000
0000
,
0010
0000
0000
0000
,
1000
0000
0000
0000
,
0010
0000
0000
0000
,
0100
0000
0000
0000
,
0001
0000
0000
0000
,
0100
0000
0000
0000
,
0001
0000
0000
0000
,
1000
0000
0000
0000
,
0100
0000
0000
0000
,
0001
0000
0000
0000
,
0010
0000
0000
0000
,
1000
0000
0000
0000
,
0010
0000
0000
0000
,
0001
0000
0000
0000
,
0100
0000
0000
0000
,
1000
0000
1000
0000
,
1000
0000
1000
0000
,
0001
0000
0001
0000
,
0001
0000
0001
0000
,
1000
0000
1000
0000
,
1000
0000
1000
0000
,
0001
0000
0001
0000
,
0010
0000
0100
0000
,
1000
0000
0000
0000
,
1000
0000
0000
0000
,
1000
0000
0000
0000
,
0100
0000
0000
0000
,
0001
0000
0000
0000
,
0001
0000
0000
0000
,
0001
0000
0000
0000
,
0010
0000
0000
0000
,
1000
0000
0000
0000
,
0000
0000
0000
0000
,
0000
0000
0000
0000
,
0000
0000
0000
0000
,
1000
0000
0000
0000
,
0000
0000
0000
0000
,
0001
0000
0000
0000
,
0000
0000
0000
0000
,
0010
0000
0000
0000
,
0010
0000
0000
0000
,
0100
0000
0000
0000
,
0100
0000
0000
0000
,
1000
0000
1000
0000
,
1000
0000
1000
0000
,
0001
0000
0001
0000
,
0001
0000
0001
0000
,
0010
0000
0000
0000
,
0010
0000
0000
0000
,
0010
0000
0000
0000
,
0100
0000
0000
0000
,
1000
0000
0000
0000
,
1000
0000
0000
0000
,
1000
0000
0000
0000
,
0010
0000
0000
0000
,
0001
0000
0000
0000
,
0100
0000
0000
0000
,
1000
0000
0000
0000
,
0100
0000
0000
0000
,
0001
0000
0000
0000
,
0010
0000
0000
0000
,
1000
0000
0000
0000
,
0010
0000
0000
0000
,
0001
0000
0000
0000
,
0001
0000
0000
0000
,
1000
0000
0000
0000
,
1000
0000
0000
0000
,
0010
0000
0000
0000
,
0010
0000
0000
0000
,
0100
0000
0000
0000
,
0100
0000
0000
0000
,
0001
0000
0000
0000
,
0001
0000
0000
0000
,
0001
0000
0000
0000
,
0001
0000
0000
0000
,
1000
0000
0000
0000
,
1000
0000
0000
0000
,
1000
0000
0000
0000
,
1000
0000
0000
0000
,
1001
0000
0000
0000
;

//---------------dance-single - C.Sanabria----------------
#NOTES:
     dance-single:
     C.Sanabria:
     Hard:
     8:
     0.421,0.468,0.046,0.421,0.110:
0000
0000
0000
0000
,
0000
0000
0000
0000
,
0000
0000
0000
0000
,
0000
0000
0000
0000
,
0000
0000
0000
0000
,
0000
0000
0000
0000
,
0000
0000
0000
0000
,
0000
0000
0000
0000
,
0100
0001
1000
0010
,
0100
0010
1000
0001
,
2000
0100
3002
0100
,
1003
1000
0010
0010
,
1000
0100
0010
0001
,
1000
0100
0010
0001
,
2000
0010
3002
0010
,
1003
1000
0010
0010
,
1000
0000
0000
0001
0010
0000
0001
0000
1000
0000
0000
0001
0010
0000
0001
0000
,
0100
0000
0000
0001
0010
0000
0001
0000
1000
0000
0000
0001
0010
0000
0001
0000
,
0100
0010
1000
0000
0100
0010
0001
0000
,
2000
0000
3020
0000
,
0130
0000
0100
0000
0001
1000
0001
0000
,
0010
0000
0010
0000
0001
1000
0001
0000
,
2000
0100
0001
0001
,
3100
0000
0010
0000
0100
0000
0000
0000
1000
0000
0000
0010
0000
0000
1000
0000
,
0001
0000
0000
1000
0010
0000
1000
0000
0001
0000
0000
1000
0010
0000
1000
0000
,
0100
0000
0000
1000
0010
0000
1000
0000
0001
0000
0000
0001
0100
0000
0010
0000
,
0100
0000
0000
0100
0001
0000
1000
0000
0001
0000
0000
0100
0001
0000
0010
0000
,
0001
0001
0010
0010
,
0100
0000
0000
0100
1000
0000
0001
0000
1000
0000
0000
0100
1000
0000
0010
0000
,
1000
0000
0000
0100
1000
0000
0001
0000
1000
0000
0000
1000
0100
0000
0010
0000
,
0100
0000
0000
1000
0001
0000
0100
0000
0001
0000
0000
0010
0001
0000
1000
0000
,
0001
0001
0100
0100
,
0010
1000
0010
1000
0001
0100
0001
0100
,
0010
1000
0001
0100
0010
1000
0100
0010
,
0001
0100
0001
0100
0010
1000
0010
1000
,
0001
0100
0010
1000
0001
0100
0010
1000
,
0100
0010
0001
0100
0001
0010
0100
1000
,
0010
1000
0100
0010
0001
0100
0001
0010
,
0100
1000
0001
0100
0001
0100
0010
1000
,
0001
0001
0010
0010
,
0100
1000
0002
0000
0103
0001
2000
0000
,
3010
1000
0002
0000
0013
0001
2000
0000
,
3100
0010
0002
0000
0103
0010
2000
0000
,
3001
0001
0010
0010
,
0100
1000
0020
0000
0130
0001
0020
0000
,
0130
1000
0002
0000
0103
0001
2000
0000
,
3001
0010
2000
0000
3001
0100
2000
0000
,
3001
0000
0100
0000
0010
0000
1000
0000
0100
0010
0100
0010
0100
0000
1000
0000
,
0002
0000
0203
0000
,
0320
1000
1000
1000
,
2030
0000
3200
0000
,
0320
0000
0032
0000
,
2003
0000
3020
0000
,
0230
0001
0001
0001
,
0302
0000
0023
0000
,
0230
0000
2300
0000
,
3001
0000
0000
1000
0010
0000
1000
0000
0001
0000
0000
1000
0010
0000
1000
0000
,
0100
0000
0000
1000
0010
0000
1000
0000
0001
0000
0000
1000
0010
0000
1000
0000
,
0100
0010
0001
0000
0100
0010
1000
0000
,
0002
0000
0023
0000
,
0130
0000
0100
0000
1000
0001
1000
0000
,
0010
0000
0010
0000
1000
0001
1000
0000
,
0002
0100
1000
1000
,
0103
0000
0010
0000
0100
0000
0000
0000
0001
0000
0000
1000
0000
0000
0001
0000
,
0000
0000
0000
0000
,
0000
0000
0000
0000
,
1000
0010
0100
0001
,
1000
0000
0100
0010
0100
0000
1001
0000
,
0001
0100
0010
1000
,
0100
0000
0010
0001
1000
0000
1001
0000
,
1000
0010
0100
0001
,
0010
0000
0100
1000
0001
0000
1001
0000
,
0001
0100
0010
1000
,
0100
0000
0010
0001
2000
0000
3010
0000
,
0100
0000
0000
0001
0000
0000
1000
0000
0020
0000
0000
0000
0130
0000
0001
0000
,
2000
0000
0000
3100
0020
0000
0032
0000
,
1003
0000
0000
0010
0000
0000
0100
0000
0002
0000
0000
0000
0023
0000
0000
0000
,
0230
0000
1300
0001
0200
0000
0320
0000
,
1030
0000
0000
1000
0100
0000
0010
0000
0002
0000
0000
0000
1003
0000
0000
0000
,
0102
0000
0000
0103
0020
0000
2030
0000
,
3001
0000
0000
0001
0010
0000
0001
0000
2000
0000
0000
0000
3010
0000
0000
0000
,
2100
0000
0000
3100
0020
0000
0032
0000
,
0103
0000
0000
0001
0000
0000
1000
0000
0020
0000
0000
0000
0130
0000
0001
0000
,
2000
0000
0000
3100
0020
0000
0032
0000
,
1003
0000
0000
0010
0000
0000
0100
0000
0002
0000
0000
0000
0023
0000
0000
0000
,
0230
0000
1300
0001
0200
0000
0320
0000
,
1030
0000
0000
1000
0100
0000
0010
0000
0002
0000
0000
0000
1003
0000
0000
0000
,
0102
0000
0000
0103
0020
0000
2030
0000
,
3001
0000
0000
0001
0010
0000
0001
0000
2000
0000
0000
0000
3010
0000
0000
0000
,
2100
0000
0000
3100
0020
0000
0032
0000
,
1003
0100
0010
0002
0100
0000
1003
0010
,
1000
0100
0010
0002
0100
0000
0013
0100
,
1000
0010
1000
0000
0001
0100
0001
0000
,
1000
0100
0010
0001
0100
0010
1000
0001
,
0020
0001
0100
1000
,
0031
0100
1000
0100
0002
0000
2003
0000
,
3100
0010
0001
0100
0020
0000
2030
0000
,
3001
0010
1000
0010
0002
0000
0103
0000
,
2002
0000
0000
0000
,
0000
0000
0000
0000
,
0000
0000
0000
0000
,
3003
0000
0000
0000
,
1000
0000
0000
0010
0100
0000
0001
0000
,
1000
0000
0000
0100
0010
0000
0001
0000
,
0100
0000
0000
0001
0010
0000
0100
0000
,
1000
0000
0000
0010
0100
0000
0001
0000
,
2000
0000
3002
0000
,
0023
0000
0100
0000
,
0032
0000
2003
0000
,
3020
0000
0230
0000
,
0301
0100
0001
0000
0010
0001
0100
0000
,
0010
1000
0001
0100
0010
0000
1001
0000
,
2000
0000
0200
0300
,
3002
0000
0020
0030
,
1003
0000
0000
0001
0100
0000
0001
0000
1000
0000
0000
0001
0100
0000
0001
0000
,
0010
0000
0000
0001
0100
0000
0001
0000
1000
0000
0000
1000
0010
0000
0100
0000
,
0010
0000
0000
0010
1000
0000
0001
0000
1000
0000
0000
0010
1000
0000
0100
0000
,
1000
1000
0100
0100
,
0010
0000
0000
0010
0001
0000
1000
0000
0001
0000
0000
0010
0001
0000
0100
0000
,
0001
0000
0000
0010
0001
0000
1000
0000
0001
0000
0000
0001
0010
0000
0100
0000
,
0010
0000
0000
0001
1000
0000
0010
0000
1000
0000
0000
0100
1000
0000
0001
0000
,
1000
1000
0010
0010
,
2000
0000
3010
1000
0200
0000
0310
0000
,
0012
0000
0000
1000
2003
0000
3010
0000
,
0100
0000
0000
0001
0000
0000
0010
0000
0200
0000
0000
0000
2300
0000
0000
0000
,
3002
0000
0000
0103
0020
0000
1030
0000
,
0002
0000
0013
0001
0200
0000
0310
0000
,
2010
0000
0000
0001
3001
0000
0010
0000
,
0100
0000
0000
1000
0000
0000
0010
0000
0200
0000
0000
0000
0302
0000
0000
0000
,
1003
0000
0001
0000
1000
0000
0000
0000
0010
0000
0000
0100
0000
0000
0010
0000
,
1000
0000
0000
0001
0000
0000
1000
0000
0200
0000
0000
0000
0320
0000
0000
0000
,
0031
0000
0100
0001
0100
0000
0010
0000
2000
0000
0000
0000
3001
0000
0000
0000
,
0010
0000
0000
0100
0000
0000
1000
0000
0002
0000
0000
0000
0203
0000
0000
0000
,
0310
0000
1000
0001
1000
0000
0100
0000
0020
0000
0000
0000
0031
0000
0000
0000
,
0001
0000
0000
1000
0000
0000
0001
0000
0200
0000
0000
0000
0320
0000
0000
0000
,
1030
0000
0100
1000
0100
0000
0010
0000
0002
0000
0000
0000
1003
0000
0000
0000
,
0010
0000
0000
0100
0000
0000
0001
0000
2000
0000
0000
0000
3200
0000
0000
0000
,
0310
0000
0001
1000
0001
0000
0100
0000
0020
0000
0000
0000
1030
0000
0000
0000
,
0001
0000
0000
0100
0001
0000
1000
0000
0001
0000
0000
0010
0001
0000
1000
0000
,
0001
0000
0000
0100
0001
0000
1000
0000
0001
0000
0000
0010
0100
0000
1000
0000
,
0001
0000
0000
1000
0100
0000
0010
0000
0100
0000
0000
0100
1000
0000
0001
0000
,
1000
1000
0010
0010
,
0100
0001
1000
0010
,
0100
0001
1000
0100
,
0010
0001
1000
0010
,
1000
0000
0001
0000
1001
0000
0000
0000
1000
0000
0000
0100
0000
0000
0010
0000
,
2002
0000
0000
0000
,
3003
0000
0000
0000
;
