#TITLE:Hit Da' Bass;
#SUBTITLE:;
#ARTIST:Buffering...Inc.;
#TITLETRANSLIT:;
#SUBTITLETRANSLIT:;
#ARTISTTRANSLIT:;
#GENRE:;
#DISPLAYBPM:128.000;
#CREDIT:;
#BANNER:hitdabass-bn.png;
#BACKGROUND:hitdabass-bg.png;
#LYRICSPATH:;
#CDTITLE:;
#MUSIC:Buffering...Inc. - Hit Da' Bass.ogg;
#OFFSET:-0.150;
#SAMPLESTART:110.750;
#SAMPLELENGTH:12.000;
#SELECTABLE:YES;
#BPMS:0.000=128.000,234.000=10000000320.000,246.000=256.000,247.000=64.000,247.167=256.000,251.000=64.000,251.167=256.000,251.500=128.000,251.750=64.000,251.917=256.000,252.250=128.000,252.500=64.000,252.667=256.000,253.000=128.000,253.250=64.000,253.417=256.000,253.750=128.000,254.000=64.000,254.167=256.000,254.500=64.000,254.667=256.000,255.000=64.000,255.167=256.000,259.000=64.000,259.167=256.000,259.500=128.000,259.750=256.000,260.083=64.000,260.250=128.000,260.500=256.000,260.833=64.000,261.000=256.000,261.500=256.000,261.833=64.000,262.000=256.000,262.333=64.000,262.500=256.000,262.833=64.000,263.000=64.000,263.167=256.000,267.000=64.000,267.167=256.000,267.500=128.000,267.750=64.000,267.917=256.000,268.250=128.000,268.500=64.000,268.667=256.000,269.000=128.000,269.250=64.000,269.417=256.000,269.750=128.000,270.000=64.000,270.167=256.000,270.500=64.000,270.667=256.000,271.000=64.000,271.167=256.000,275.000=64.000,275.167=256.000,275.500=128.000,275.750=256.000,276.083=64.000,276.250=128.000,276.500=256.000,276.833=64.000,277.000=128.000,277.500=256.000,277.833=64.000,278.000=256.000,278.333=64.000,278.500=256.000,278.833=64.000,279.000=128.000,294.000=256.000,294.333=64.000,294.500=256.000,294.833=64.000,295.000=64.000,295.167=256.000,299.000=64.000,299.167=256.000,300.500=64.000,300.667=256.000,302.000=256.000,302.333=64.000,302.500=256.000,302.833=64.000,303.000=64.000,303.167=256.000,307.000=64.000,307.167=256.000,307.500=128.000,307.750=516.000,308.000=128.000,308.250=516.000,308.500=256.000,308.833=64.000,309.000=128.000,309.500=256.000,309.833=64.000,310.000=256.000,310.333=64.000,310.667=256.000,311.000=128.000;
#STOPS:238.000=0.235
,242.000=0.234
,246.000=0.234
,247.500=0.058
,247.750=0.059
,248.000=0.059
,248.250=0.059
,248.500=0.058
,248.750=0.058
,249.000=0.059
,249.250=0.059
,249.500=0.059
,249.750=0.058
,250.000=0.058
,250.250=0.059
,250.500=0.059
,250.750=0.059
,255.500=0.059
,255.750=0.058
,256.000=0.058
,256.250=0.060
,256.500=0.058
,256.750=0.059
,257.000=0.058
,257.250=0.058
,257.500=0.059
,257.750=0.059
,258.000=0.059
,258.250=0.058
,258.500=0.058
,258.750=0.059
,261.000=0.059
,261.250=0.058
,263.500=0.058
,263.750=0.060
,264.000=0.058
,264.250=0.058
,264.500=0.059
,264.750=0.058
,265.000=0.060
,265.250=0.058
,265.500=0.058
,265.750=0.059
,266.000=0.058
,266.250=0.060
,266.500=0.058
,266.750=0.058
,271.500=0.058
,271.750=0.059
,272.000=0.059
,272.250=0.059
,272.500=0.058
,272.750=0.058
,273.000=0.059
,273.250=0.058
,273.500=0.060
,273.750=0.058
,274.000=0.058
,274.250=0.059
,274.500=0.058
,274.750=0.060
,295.500=0.059
,295.750=0.058
,296.000=0.059
,296.250=0.058
,296.500=0.059
,296.750=0.059
,297.000=0.058
,297.250=0.059
,297.500=0.058
,297.750=0.059
,298.000=0.059
,298.250=0.058
,298.500=0.059
,298.750=0.058
,299.500=0.059
,299.750=0.058
,300.000=0.059
,300.250=0.058
,301.000=0.058
,301.250=0.059
,301.500=0.059
,301.750=0.059
,303.500=0.059
,303.750=0.058
,304.000=0.059
,304.250=0.058
,304.500=0.059
,304.750=0.059
,305.000=0.058
,305.250=0.059
,305.500=0.058
,305.750=0.058
,306.000=0.060
,306.250=0.058
,306.500=0.059
,306.750=0.058
,307.750=0.088
,308.250=0.088
;
#BGCHANGES:;
#KEYSOUNDS:;

//---------------dance-single - C.Sanabria----------------
#NOTES:
     dance-single:
     C.Sanabria:
     Challenge:
     11:
     0.880,1.000,0.116,0.822,0.988:
0000
0000
0000
0000
,
0000
0000
0000
0000
,
0000
0000
0000
0000
,
0000
0000
0000
0000
,
2000
0000
0000
0000
0000
0000
0000
0000
0000
0000
0000
0000
3200
0000
0000
0000
0000
0000
0300
0000
0000
0000
0100
0000
1000
0000
0000
0000
0000
0000
0001
0000
0000
1000
0000
0000
0000
0000
0000
0000
0000
0000
1000
0000
0000
0000
0000
0000
,
0002
0000
0000
0000
0000
0000
0000
0000
0000
0000
0000
0000
0203
0000
0000
0000
0000
0000
0300
0000
0000
0000
0100
0000
0001
0000
0000
0000
0000
0000
1000
0000
0000
0001
0000
0000
0000
0000
0000
0000
0000
0000
0001
0000
0000
0000
0000
0000
,
0020
0000
0000
0000
0000
0000
0000
0000
0000
0000
0000
0000
0230
0000
0000
0000
0000
0000
0300
0000
0000
0000
0100
0000
1000
0000
0000
0000
0000
0000
0001
0000
0000
1000
0000
0000
0000
0000
0000
0000
0000
0000
1000
0000
0000
0000
0000
0000
,
0020
0000
0000
0000
0000
0000
0000
0000
0000
0000
0000
0000
0230
0000
0000
0000
0000
0000
0300
0000
0000
0000
0100
0000
0001
0000
0000
0000
0000
0000
0000
0000
0000
0001
0000
0000
0000
0000
0000
0000
0000
0000
0001
0000
0000
0000
0000
0000
,
2000
0000
0000
0000
3200
0000
0000
1300
0010
0000
0100
0000
0001
0000
0001
0000
,
000M
0000
0001
0100
0010
1000
0001
1000
0100
0000
0010
0000
0100
0000
1000
0001
,
2000
0000
0000
3010
0200
0000
0000
0301
1000
0001
1000
0001
0010
0000
0010
0000
,
0000
0100
1000
0001
1000
0000
1000
0000
2004
0000
0000
0000
0000
0000
3003
0000
,
0002
0000
0000
0000
0203
0000
0000
0310
0100
0000
0001
1000
0001
0000
1000
0100
,
0000
0100
1000
0001
1000
0000
0010
0100
0001
1000
0001
2000
0000
0000
3100
0000
,
0010
0000
0001
1000
0001
0000
1000
0010
1000
0000
0100
0010
0000
0000
0M04
0000
,
M000
0000
1003
0010
0100
0001
0100
0010
1000
0001
1000
0002
0000
0000
0000
0000
,
1003
0100
0010
0100
M0MM
0100
0001
1000
0001
0010
0100
0010
MM0M
0010
1000
0001
,
1000
0100
0010
0100
M0MM
0100
0001
1000
0001
0010
0100
0010
MM0M
0010
1000
0001
,
1000
0100
0010
0100
M0MM
0100
0001
1000
0010
0100
0001
0100
0000
0000
2MM2
0000
,
3003
0000
1000
0100
0010
0001
0010
0100
1000
0001
1000
0002
0000
0000
0000
0000
,
1003
0100
0010
0100
M0MM
0100
0001
1000
0001
0010
0100
0010
MM0M
0010
1000
0001
,
1000
0100
0010
0100
M0MM
0100
0001
1000
0001
0010
0100
0010
MM0M
0010
1000
0001
,
1000
0100
0010
0100
M0MM
0100
0001
1000
0010
0100
0001
0100
0000
0000
2MM2
0000
,
3003
0000
1000
0100
0010
0001
0010
0100
1000
0001
1000
0002
0000
0000
0000
0000
,
0003
0000
1000
0000
0000
0000
0010
0000
0000
0000
1000
0000
0001
0100
0010
0100
,
0000
0000
0001
0000
0000
0000
0010
0000
0000
0000
0001
0000
1000
0100
0010
0100
,
0000
0000
1000
0000
0000
0000
0010
0000
0000
0000
0100
0000
0000
0002
0000
0023
,
0000
0030
0001
0000
0000
0000
0010
0000
0000
0000
0100
0000
0000
2000
0000
3020
,
0000
0030
1000
0000
0100
0000
0010
0000
0001
0000
0010
0000
0000
000M
0000
M000
,
0000
0000
0001
0000
0100
0000
0010
0000
1000
0000
0000
0020
0000
000M
0030
M000
,
0000
1000
0100
0010
0001
0100
0001
2000
,
0000
0000
3001
0000
0100
0000
0010
0000
1000
0000
0000
0020
0000
0000
0030
0000
,
2002
0000
0000
0000
,
0000
0000
0000
3003
,
2001
0000
0000
3100
1000
0000
0002
0000
0103
0000
0002
0000
0013
0000
0100
0000
,
0021
0000
0000
0130
1000
0000
0002
0000
0103
0000
0020
0000
0130
0000
0001
0000
,
1200
0000
0000
0310
0100
0000
2000
0000
3010
0000
0200
0000
0301
0000
1000
0000
,
0021
0000
0000
0130
1000
0000
0001
0000
0100
0000
0010
0000
0100
0000
0001
0000
,
1002
0000
0000
1000
0000
0000
1003
0000
0010
0000
0100
0000
0001
0000
0010
0000
,
0021
0000
0000
0031
0010
0000
0002
0000
0103
0000
0020
0000
1030
0000
0001
0000
,
0021
0000
0000
0001
0000
0000
0031
0000
0100
0000
0010
0000
1000
0000
0100
0000
,
2100
0000
0000
3100
1000
0000
0020
0000
0130
0000
0002
0000
1003
0000
0100
0000
,
0020
0000
0031
0100
0010
0100
0001
1000
0001
0100
0010
0100
0001
0000
1000
0000
,
0200
0000
0310
0100
1000
0001
2000
0000
3010
0100
0010
2000
0001
0000
3001
0000
,
2000
0000
3100
0010
0001
1000
0001
0010
0100
1000
0001
1000
0001
0000
0010
0000
,
0200
0000
1300
0010
0100
0010
2000
0000
3001
0100
0001
2000
0010
0000
3010
0000
,
0200
0000
0301
0010
0100
0010
0001
1000
0001
0010
0100
0010
0001
0000
1000
0000
,
0020
0000
0130
0010
1000
0001
2000
0000
3100
0010
0100
2000
0001
0000
3001
0000
,
2000
0000
3010
0100
0001
1000
0001
0100
0010
1000
0001
1000
0001
0000
0100
0000
,
0020
0000
1030
0100
0010
0100
2000
0000
3001
0010
0001
2000
0100
0000
3100
0000
,
0010
0010
0010
0010
0040
0000
0000
0000
,
0031
0001
0001
0001
0004
0000
0000
0000
,
1003
1000
1000
1000
4000
0000
0000
0000
,
3010
0010
0010
0010
0040
0000
0000
0000
,
1030
0010
0100
0010
1000
0001
1000
0100
0010
0001
1000
0001
0010
0100
1000
0001
,
1000
0010
1000
0010
0100
0001
0100
0001
1000
0100
1000
0100
0010
0001
0010
0001
,
1000
0100
0010
0100
1000
0001
1000
0001
0100
0010
0100
0001
1000
0001
1000
0100
0010
0100
1000
0001
1000
0001
0100
0010
,
1000
0001
1000
0001
0010
0100
1000
0001
1000
0100
0010
0001
1000
0001
0100
0010
1000
0010
0100
0001
1000
0001
0010
0100
,
1000
0000
0000
0000
,
0000
0000
0000
0000
0000
MM00
0000
0000
,
0000
0000
0000
0000
0000
00MM
0000
0000
,
0000
0000
0000
0000
0000
0000
0000
0000
0000
0000
0000
0000
0020
0000
1030
0010
,
0100
0010
1000
0010
0100
0010
1000
0010
0100
0010
1000
0001
2000
0000
3100
0020
,
0000
0130
2000
0000
3010
0200
0000
0301
2000
0000
3002
0000
0023
0000
0130
0010
,
0001
0010
0100
0010
0001
0010
0100
0010
0001
0010
0100
0010
0002
0000
0103
0020
,
0000
1030
0002
0000
1003
0010
2000
0000
3002
0000
0023
0000
0230
0000
1300
0010
,
1000
0001
1000
0010
1000
0001
1000
0010
1000
0001
1000
0010
2000
0000
3100
0020
,
0000
0031
0200
0000
0301
0020
0000
0130
2000
0000
3002
0000
0023
0000
0031
0100
,
0001
1000
0001
0100
0001
1000
0001
0100
0001
1000
0001
0100
0002
0000
0013
0200
,
0000
1300
0020
0000
1030
0001
2000
0000
3200
0000
0320
0000
0031
0100
0001
0100
,
0001
0100
0001
0100
0010
0100
0010
0100
0010
0100
0010
0100
0010
1000
0010
1000
,
0010
1000
0010
1000
0001
0010
0001
0010
0001
0010
0001
0010
0100
1000
0001
1000
,
0001
0000
0000
0100
0000
0000
0010
0000
0000
1000
0000
0000
0001
0000
0000
1000
0000
0000
0001
0000
0000
0010
0000
0000
0100
0000
0000
1000
0000
0000
0001
0000
0000
1000
0000
0000
0001
0000
0100
0000
0010
0000
1000
0000
0001
0000
1000
0000
,
0001
0000
0100
0000
0010
0000
1000
0000
0001
0000
1000
0000
0001
0000
0100
0000
0010
0000
1000
0000
0001
0000
1000
0000
0002
0000
0000
0000
0000
0000
2003
0000
0000
0000
0000
0000
3020
0000
0000
0000
0000
0000
0130
0000
0000
0001
0000
0000
,
1000
0010
1000
0001
0100
0001
1000
0010
1000
0001
0100
0001
0020
0000
0130
1000
,
0100
1000
0002
0000
0103
0001
1000
0010
0200
0000
0302
0000
0203
0000
0310
1000
,
0001
0100
0001
1000
0100
0010
0001
0010
0100
1000
0001
0100
0002
0000
0013
0200
,
1300
0002
0203
0000
0310
1000
0020
0000
0230
0000
0301
0000
2001
0000
0000
3100
,
1000
0000
0002
0000
0103
0000
0002
0000
0013
0000
0100
0000
0021
0000
0000
0130
,
1000
0000
0002
0000
0103
0000
0020
0000
0130
0000
0001
0000
1200
0000
0000
0310
,
0100
0000
2000
0000
3010
0000
0200
0000
0301
0000
1000
0000
0021
0000
0000
0130
,
1000
0000
0001
0000
0100
0000
0010
0000
0100
0000
0001
0000
1002
0000
0000
1000
,
0000
0000
1003
0000
0010
0000
0100
0000
0001
0000
0010
0000
0021
0000
0000
0031
,
0010
0000
0002
0000
0103
0000
0020
0000
1030
0000
0001
0000
0021
0000
0000
0001
,
0000
0000
0031
0000
0100
0000
0010
0000
1000
0000
0100
0000
2100
0000
0000
3100
,
1000
0000
0020
0000
0130
0000
0002
0000
1003
0000
0100
0000
0010
0001
0010
0001
,
1000
0100
0010
0100
1000
0001
1000
0001
0100
0010
1000
0010
2000
0000
0100
0000
,
3200
0000
0010
0000
0320
0000
0001
0000
0001
0000
0031
0000
0010
0100
0010
0001
,
1000
0001
0100
0001
1000
0010
0100
0010
1000
0001
1000
0001
2000
0000
0100
0000
,
3200
0000
0010
0000
0320
0000
0001
0000
0001
0000
0031
0000
1000
0010
1000
0010
,
0100
0001
1000
0001
0100
0010
0100
0010
1000
0001
0010
0100
2000
0000
0010
0000
,
3020
0000
0100
0000
0230
0000
0001
0000
0001
0000
0301
0000
1000
0100
0010
0100
,
1000
0001
0100
0001
1000
0010
0100
0001
1000
0100
0010
0100
2000
0000
3001
0010
,
0100
0010
0002
0000
1003
0010
0100
0001
1000
0100
0010
0001
2000
0000
3000
0000
,
2000
0000
3000
0000
2000
0000
3000
2000
0000
3000
2000
0000
3000
0000
0000
0000
;
