#TITLE:What I've Got;
#SUBTITLE:;
#ARTIST:Stephen Stripling;
#TITLETRANSLIT:;
#SUBTITLETRANSLIT:;
#ARTISTTRANSLIT:;
#GENRE:;
#CREDIT:;
#BANNER:whativegot-bn.png;
#BACKGROUND:whativegot-bg.png;
#LYRICSPATH:;
#CDTITLE:;
#MUSIC:Stephen Stripling - What I've Got.ogg;
#OFFSET:-0.040;
#SAMPLESTART:45.610;
#SAMPLELENGTH:12.000;
#SELECTABLE:YES;
#BPMS:0.000=150.000;
#STOPS:;
#BGCHANGES:;
#KEYSOUNDS:;

//---------------dance-single - C.Sanabria----------------
#NOTES:
     dance-single:
     C.Sanabria:
     Challenge:
     9:
     0.827,0.937,0.394,1.000,0.339:
0000
0000
0000
0000
,
0000
0000
0000
0000
,
0000
0000
0000
0000
,
0000
0000
0000
0000
,
0000
0000
0000
0000
0002
0003
0002
0003
,
0002
0003
0002
0003
0020
0030
0020
0030
,
0020
0000
0030
0000
0100
1000
0001
1000
0020
0000
0030
0000
0020
0000
0030
0000
,
0020
0030
2000
3000
0002
0003
0020
0030
,
0200
0000
0300
0000
1000
0010
0100
0001
1000
0000
1000
0000
1000
0100
0000
0000
,
2000
0000
3000
2000
0000
3000
0000
0000
0010
0000
0010
0000
0010
0100
0000
0000
,
0002
0000
0003
0002
0000
0003
0000
0000
0010
0000
0010
0000
0010
0100
0000
0000
,
2000
0000
3000
2000
0000
3000
0000
0000
0001
0000
0001
0000
0001
1000
0000
0000
,
0002
0000
0003
0002
0000
0003
0000
0000
2000
0000
3000
0000
0020
0000
0030
0000
,
2000
3000
0020
0030
0200
0300
0002
0003
,
0200
0000
0300
0000
0001
0010
0100
1000
0002
0000
0003
0000
0002
0000
0003
0000
,
0002
0003
0200
0300
0020
0030
2000
3000
,
0200
0000
0300
0000
0001
0010
0100
1000
0002
0000
0003
0000
0200
0000
0300
0000
,
0002
0003
0200
0300
0020
0030
2000
3000
,
0020
0000
0030
0000
1000
0100
0010
0001
2000
0000
3000
0000
2000
0000
3000
0000
,
2000
3000
0020
0030
0200
0300
0002
0003
,
1000
0000
0000
0100
0000
0000
0000
0000
0010
0000
0000
0001
0000
0000
0000
0000
1000
0000
0000
0100
0000
0000
0000
0000
0010
0000
0000
0001
0000
0000
0000
0000
1000
0000
0000
0000
0000
0000
0000
0000
0010
0000
0000
0000
0000
0000
0000
0000
0100
0000
0000
0000
0000
0000
0000
0000
0001
0000
0000
0000
0000
0000
0000
0000
,
000M
0001
0101
0100
0010
1000
0100
1000
,
M000
0000
1000
0001
1000
0000
1100
0000
0010
0000
0001
0000
0100
0000
0010
0000
,
00M0
0010
0110
0100
0002
0003
0020
0030
,
0200
0000
1300
0001
1000
0010
0100
0001
1000
0000
0100
0000
0010
0000
0100
0000
,
0M00
0100
1100
1000
0010
0100
0001
0010
,
00M0
0000
0010
0001
1000
0000
1010
0000
1000
0000
0100
0000
0010
0000
0001
0000
,
000M
0001
1001
1000
0002
0003
2000
3000
,
0001
0000
0000
0100
0000
0000
0000
0000
0010
0000
0000
1000
0000
0000
0000
0000
0001
0000
0000
0100
0000
0000
0000
0000
0010
0000
0000
1000
0000
0000
0000
0000
0001
0000
0000
0000
0000
0000
0000
0000
0100
0000
0000
0000
0000
0000
0000
0000
0101
0000
0000
0000
0000
0000
0000
0000
0100
0000
0000
0000
0000
0000
0000
0000
,
0010
1000
1010
1000
0100
0010
0110
0010
,
0001
0100
0101
0100
0010
1000
1001
0001
,
0010
0000
0100
0000
1100
0000
1000
0001
2000
0000
3000
0000
M020
0000
0030
0000
,
02M0
0300
0M02
0003
100M
0100
1100
0100
,
0010
0001
0011
0001
0100
0010
0110
0010
,
1000
0100
1100
0100
0010
0001
1001
1000
,
0010
0000
0100
0000
0101
0000
0001
1000
0002
0000
0003
0000
002M
0000
0000
0000
,
0230
0000
2300
3000
0022
0033
0022
0033
,
0022
0033
0022
0033
0202
0303
0202
0303
,
0202
0000
0303
0000
0001
0010
0100
1000
0200
0000
0300
0000
2200
0000
3300
0000
,
2020
3030
2002
3003
0202
0303
0220
0330
,
2020
0000
3030
0000
0001
0010
0100
1000
0002
0000
0003
0000
002M
0000
0030
0000
,
00M2
0003
002M
0030
22M0
3300
2200
3300
,
2200
0000
3300
0000
0100
0010
0001
1000
0002
0000
0003
0000
0022
0000
0033
0000
,
0202
0303
2002
3003
2000
3000
M020
0030
,
02M0
0000
0300
0000
0M01
0010
0100
1000
0001
0000
000M
0000
0020
0000
0000
0000
,
0230
0000
2300
0000
3001
0100
0001
0010
,
0001
0000
0000
0100
0000
0000
0010
0000
1000
0000
0100
0000
1000
0000
0010
0000
,
1000
0000
0000
0100
0000
0000
0010
0000
0001
0000
1000
0000
0010
0000
0100
0000
,
0001
0000
0000
1000
0000
0000
0001
0000
0020
0000
0030
0000
0220
0000
0330
0000
,
2200
0000
3300
0000
1000
0100
0010
0001
1000
0000
0100
0000
1000
0000
0010
0000
,
1000
0000
0000
0100
0000
0000
0010
0000
0001
0000
0100
0000
0001
0000
0010
0000
,
0001
0000
0000
0100
0000
0000
0010
0000
1000
0000
0100
0000
0001
0000
0100
0000
,
1000
0000
0000
0010
0000
0000
0100
0000
0202
0000
0303
0000
2020
0000
3030
0000
,
1001
0000
0000
0000
0000
0000
0000
0000
1000
0000
0000
0100
0000
0000
0000
0000
0010
0000
0000
0001
0000
0000
0000
0000
1000
0000
0000
0100
0000
0000
0000
0000
0010
0000
0000
0000
0000
0000
0000
0000
0001
0000
0000
0000
0000
0000
0000
0000
1000
0000
0000
0000
0000
0000
0000
0000
0001
0000
0000
0000
0000
0000
0000
0000
,
0100
0000
0010
1000
0001
0000
1000
0000
0010
0000
0100
0000
0001
0000
0100
0000
,
0010
0000
1000
0000
0001
0010
0001
1000
0100
0000
0010
0000
0100
0000
1000
0000
,
0001
0000
1000
0010
1000
0000
0001
0000
2000
0000
0000
0000
3020
0000
0000
0000
,
0230
0000
0000
0000
0301
0010
0100
1000
0001
0000
0100
0000
0010
0000
1000
0000
,
0001
0000
0010
0001
1000
0000
0010
0000
0100
0000
0001
0000
0100
0000
0010
0000
,
1000
0000
0001
0000
0010
0100
1000
0001
1000
0000
0010
0000
0100
0000
0001
0000
,
0100
0000
0010
1000
0001
0000
1000
0000
2200
0000
3300
0000
0220
0000
0330
0000
,
0022
0000
0033
0000
2002
0000
3003
0000
1000
0000
1000
0000
1000
0010
0000
0000
,
0200
0000
0301
0200
0000
0300
0010
0000
0100
0000
0100
0000
0100
0001
0000
0000
,
2000
0000
3100
2000
0000
3000
0100
0000
0010
0000
0010
0000
0010
0001
0000
0000
,
2000
0000
3001
2000
0000
3000
0010
0000
0100
0000
0100
0000
0100
0001
0000
0000
,
2000
0000
3100
2000
0000
3000
0100
1000
0001
0000
1000
0000
0001
0100
0000
0000
,
0020
0000
1030
0002
0000
0003
1000
0000
11MM
0000
0000
0000
M11M
0000
0000
0000
,
MM11
M11M
11MM
1MM1
,
M1M1
0000
0000
0000
M11M
0000
1000
0001
1000
0000
M000
0000
2000
0000
0000
0000
,
3020
0000
0230
0000
0301
1000
0001
1000
,
0010
1000
0010
1000
0001
0100
0001
0100
,
0010
0000
1000
0000
0001
0010
0100
0010
0001
0000
1000
0000
0010
0000
0100
0000
,
0001
0000
0010
0000
0001
0000
0100
0010
1000
0000
0001
0000
2000
0000
3000
0000
,
M002
0000
0003
0000
100M
0100
0010
0001
1000
0000
0001
0000
1000
0000
0001
0000
,
0010
0001
0010
0001
0010
0100
0010
0100
,
1000
0000
0100
0000
1000
0010
0100
0001
1000
0000
0100
0000
0010
0000
0001
0000
,
1000
0000
0010
0000
0100
0000
0001
1000
0002
0000
0003
0000
002M
0000
0030
0000
,
02M0
0000
0300
0000
1M00
0010
1000
0001
0100
0000
0020
0000
0030
0000
20M0
0000
,
3000
M002
0003
020M
0300
0M20
0030
02M0
,
0300
0000
0M02
0000
1003
0100
1000
0001
0010
0000
0200
0000
0300
0000
0M20
0000
,
0030
0000
00M2
0000
0003
0000
1000
0001
2000
0000
3000
0000
M020
0000
0030
0000
,
02M0
0000
0300
0000
0M01
0010
0100
1000
0001
0000
0200
0000
0300
0000
0M02
0000
,
0003
200M
3000
M020
0030
02M0
0300
0M20
,
0030
0000
20M0
0000
3001
0010
0100
1000
0001
0000
2000
0000
3000
0000
M020
0000
,
0030
02M0
0300
0M02
0003
200M
3100
0020
,
0031
0000
2000
0000
3010
0100
0001
1000
0001
0000
0MM0
0000
0000
0000
0000
0000
;
