#TITLE:The world is Ending;
#SUBTITLE:;
#ARTIST:g-r4ve;
#TITLETRANSLIT:;
#SUBTITLETRANSLIT:;
#ARTISTTRANSLIT:;
#GENRE:;
#CREDIT:;
#BANNER:theworldisending-bn.png;
#BACKGROUND:theworldisending-bg.png;
#LYRICSPATH:;
#CDTITLE:;
#MUSIC:g-r4ve - The world is Ending.ogg;
#OFFSET:-0.030;
#SAMPLESTART:33.090;
#SAMPLELENGTH:12.000;
#SELECTABLE:YES;
#BPMS:0.000=145.000;
#STOPS:;
#BGCHANGES:;
#KEYSOUNDS:;

//---------------dance-single - C.Sanabria----------------
#NOTES:
     dance-single:
     C.Sanabria:
     Challenge:
     11:
     1.000,0.966,0.017,0.568,1.000:
0000
0000
0000
0000
,
0000
0000
0000
0000
,
0000
0000
0000
0000
,
0000
0000
0000
0000
,
0020
0000
2030
0000
3002
0000
0203
0000
0300
0M00
0200
0000
0302
0000
2003
0000
,
3002
0023
0230
2300
3000
0002
0023
0230
,
2300
3020
0230
0302
0003
0200
0320
2030
,
3002
2003
3020
0230
0300
0002
0023
0230
,
1300
0000
0010
2000
0000
0000
3200
0000
0000
0320
0000
0000
0031
0000
1000
0000
,
0020
0000
0230
0000
0302
0000
2003
0000
3000
M000
2000
0000
3002
0000
0203
0000
,
0310
0000
1000
0200
0000
0000
0320
0000
0000
0032
0000
0000
1003
0000
0010
0000
,
0200
0000
0302
0000
2003
0000
3200
0000
0300
0M00
0200
0000
2300
0000
3002
0000
,
1003
0000
0010
1000
0000
0000
0001
0000
0000
0100
0000
0000
0010
0000
1000
0000
,
0001
0000
0000
0010
0000
0000
0100
0000
0000
1000
0000
0000
0001
0000
0001
0000
,
1000
0000
0010
1000
0000
0000
0001
0000
0000
0010
0000
0000
0100
0000
1000
0000
,
0001
0000
0000
0100
0000
0000
0010
0000
0000
1000
0000
0000
0100
0000
0010
0000
,
0001
0000
0010
0001
0000
0000
1000
0000
0000
0100
0000
0000
0010
0000
0001
0000
,
1000
0000
0000
0010
0000
0000
0100
0000
0000
0001
0000
0000
1000
0000
1000
0000
,
0001
0000
0010
0001
0000
0000
1000
0000
0000
0010
0000
0000
0100
0000
0001
0000
,
1000
0000
0000
0000
0000
0000
0000
0000
0000
0100
0000
0000
0000
0000
0000
0000
0000
0000
0010
0000
0000
0000
0000
0000
0004
0000
4000
0000
0000
0000
0000
0000
0000
0000
0000
0000
0000
0000
0000
0000
0000
0000
3003
0000
0000
0MM0
0000
0000
,
0001
0100
0010
1000
0001
0100
0010
1000
0001
0100
0010
1000
0001
0010
0100
1000
,
0001
0100
0001
0010
0001
1000
0010
0100
0001
0010
0100
0010
0100
1000
0001
1000
,
0010
0100
0001
0100
0010
1000
0001
0100
0010
1000
0001
0100
0001
0010
0100
1000
,
0001
0010
0001
1000
0001
0100
0010
1000
0001
0100
0001
1000
0001
0010
0100
1000
,
0001
0100
0010
1000
0001
0100
0010
1000
0001
0100
0010
1000
0001
0010
0100
1000
,
0001
0100
0001
0010
0001
1000
0010
0100
0001
0010
0100
0010
0100
1000
0001
1000
,
0010
0100
0001
0100
0010
1000
0001
0100
0010
1000
0001
0100
0001
0010
0100
1000
,
0001
0010
0001
1000
0001
0100
0010
1000
0001
0100
0001
1000
0001
0010
0100
1000
,
0001
0100
0010
1000
0M00
1000
0010
0100
000M
0100
0001
1000
0M00
1000
0001
0100
,
0010
1000
0001
0010
0M00
0010
0001
1000
00M0
1000
0010
0100
000M
0100
0001
1000
,
0001
0010
0001
0010
0100
0010
0100
0010
0100
1000
0100
1000
0001
1000
0001
1000
,
0001
0100
0010
2000
0000
3100
0020
0000
,
0031
0100
0010
1000
0M00
1000
0010
0100
000M
0100
0001
1000
0M00
1000
0001
0100
,
0010
1000
0001
1000
0M00
1000
0100
0010
000M
0010
0001
1000
0M00
1000
0010
0100
,
0001
1000
0100
0010
000M
0010
0001
1000
0M00
1000
0010
0100
000M
0100
0001
1000
,
0001
0010
0100
1000
0001
0010
0100
1000
0001
0100
0010
1000
0001
0100
0010
1000
,
0001
0100
0010
0100
0001
1000
0100
0010
0004
0010
0000
0103
0010
1000
0001
0010
,
0001
0100
0010
1000
0001
1000
0100
0010
0004
0100
0000
0013
0100
1000
0001
1000
,
0001
0010
0100
1000
0010
1000
0001
0100
0040
1000
0000
0130
0001
0010
0100
1000
,
0001
0010
0100
0010
0001
1000
0001
0010
0400
1000
0000
0310
0001
1000
0010
0100
,
0002
0103
0010
1000
0100
1000
0020
0130
,
0002
1003
0100
0010
0100
1000
0020
0130
,
0002
0013
0100
1000
0010
0100
0002
0013
,
0200
1300
0010
0100
0001
0100
0020
1030
,
0200
0000
2300
0000
3001
0010
0001
0000
0001
0100
0010
1000
0000
1000
0020
0000
,
0130
0001
1000
0000
1000
0100
0020
0000
0130
1000
0001
1000
0000
1000
0020
0000
,
0130
0001
1000
0000
0100
0010
0002
0000
1003
0010
1000
0001
0000
0001
0200
0000
,
0340
0000
0000
0000
0000
0000
4030
0000
0000
0000
0000
0000
3001
0100
0010
1000
0001
1000
0001
0100
0010
1000
0001
1000
,
0001
0010
0100
1000
0000
1000
0010
0100
0001
1000
0001
0100
0010
1000
0001
1000
,
0001
0010
0100
1000
0001
0100
0010
1000
0001
0010
0100
0010
0001
1000
0010
1000
,
0001
0100
0010
1000
0000
1000
0100
0010
0001
0100
0010
1000
0001
0100
0010
1000
,
0001
0010
0100
1000
0001
1000
0100
0010
0001
0100
0001
0100
0010
1000
0001
1000
,
0010
0100
0001
1000
0100
0010
0001
1000
0000
1000
0100
0010
0100
1000
0010
1000
,
0001
0100
0010
1000
0001
0100
0010
0100
0001
1000
0100
0010
0001
1000
0010
0100
,
0001
0010
0001
1000
0000
1000
0100
0010
0001
0100
0010
1000
0010
1000
0001
0100
,
0010
1000
0001
1000
0001
0010
0100
1000
0000
1000
0010
0100
0001
0010
0100
1000
,
0001
0100
0010
0100
0000
0100
0001
1000
0100
0010
0001
1000
0010
1000
0001
0100
,
0001
0010
0100
1000
0001
0010
0100
1000
0000
1000
0010
0100
0001
1000
0001
0100
,
0010
1000
0100
1000
0000
0001
0010
0001
1000
0010
0100
0001
1000
0100
0010
0001
,
1000
0010
0100
0010
1000
0001
0010
0100
0000
0100
0010
0001
1000
0010
0100
0001
,
1000
0100
1000
0001
0100
0001
1000
0001
1000
0010
1000
0001
0010
0001
1000
0001
,
1000
0100
1000
0001
0010
0001
0100
0010
1000
0100
1000
0001
0010
0001
0100
0010
,
1000
0100
1000
0001
0010
0001
0100
0010
1000
0001
1000
0010
0100
0010
1000
0001
,
1000
0100
1000
0001
0010
0001
1000
0010
0100
0001
0100
0010
1000
0010
0100
0001
,
1000
0100
1000
0001
0100
0001
1000
0001
1000
0010
1000
0001
0010
0001
1000
0001
,
1000
0100
1000
0001
0010
0001
0100
0010
1000
0100
1000
0001
0010
0001
0100
0010
,
1000
0100
1000
0001
0010
0001
0100
0010
1000
0001
1000
0010
0100
0010
1000
0001
,
1000
0100
1000
0001
0010
0001
1000
0010
0100
0001
0100
0010
1000
0010
0100
0001
,
1000
0100
1100
1000
0001
0100
0101
0001
,
0M20
0000
0000
M000
0000
0000
0000
0000
0000
0000
000M
0000
0000
0000
0000
0000
,
0M30
0000
0000
00M0
0000
0000
0000
0000
0000
0000
0000
0000
0000
0000
0000
0000
;
