#TITLE:The Time Has Come;
#SUBTITLE:;
#ARTIST:Brisk & Vagabond;
#TITLETRANSLIT:;
#SUBTITLETRANSLIT:;
#ARTISTTRANSLIT:;
#GENRE:;
#CREDIT:;
#BANNER:thetimehascome-bn.png;
#BACKGROUND:thetimehascome-bg.png;
#LYRICSPATH:;
#CDTITLE:;
#DISPLAYBPM:150.000:173.000;
#MUSIC:Brisk & Vagabond - The Time Has Come.mp3;
#OFFSET:-1.780;
#SAMPLESTART:182.070;
#SAMPLELENGTH:12.000;
#SELECTABLE:YES;
#BPMS:0.000=173.000,646.000=130.000,666.000=150.000,757.250=77.750,760.000=173.000;
#STOPS:;
#BGCHANGES:;
#KEYSOUNDS:;

//---------------dance-single - C.Sanabria----------------
#NOTES:
     dance-single:
     C.Sanabria:
     Challenge:
     13:
     0.868,1.000,0.119,0.579,0.685:
0000
0000
0000
0000
,
0000
0000
0000
0000
,
0000
0000
0000
0000
,
0000
0000
0000
0000
,
0000
0000
0000
0000
,
0000
0000
0000
0000
,
0000
0000
0000
0000
,
0000
0000
0000
0000
,
2002
3003
0000
0000
0000
1000
0000
0010
,
0000
0000
0000
0000
0000
0100
0100
0002
,
0000
0003
0000
0000
0000
0001
0000
0010
,
0000
0000
0000
0000
0000
0100
0100
2000
,
0000
3000
0000
0000
0000
0010
0000
0100
,
0000
0000
0000
0000
0000
0001
1000
0002
,
0000
0003
0000
0000
0000
0010
0000
0100
,
0000
0000
0000
0000
20M2
3003
2M02
3003
,
20M2
3003
0000
1000
0000
0010
0000
0100
,
0000
0001
0000
1000
0000
0010
0000
0100
,
0000
0001
0000
1000
0000
0100
0000
0010
,
0000
0001
0000
1000
0000
0100
0000
0010
,
0000
0001
0000
1000
0000
0010
0000
0100
,
0000
0001
0000
1000
0000
0100
0000
0010
,
0000
0001
0000
1000
0000
0010
0000
0100
,
0000
0001
0000
1000
202M
3030
M202
0303
,
1000
1000
0010
0010
0100
0100
0001
0001
,
1000
1000
0100
0100
0010
0010
0001
0001
,
1001
1000
0010
0010
0100
0100
0001
0001
,
1000
1000
0100
0100
0010
0010
2002
3003
,
1000
0100
1000
0100
0010
0001
0010
0001
1000
0010
1000
0010
0100
0001
0100
0001
,
1000
0100
0010
0100
0010
0001
1000
0001
0100
0010
1000
0001
1000
0001
0010
0100
,
1000
0100
0010
0001
1000
0100
0010
0001
1000
0010
0100
0001
1000
0010
0100
0001
,
2000
0000
0000
0000
0000
0000
3000
0MM0
,
0001
0100
0010
1000
0100
1000
0100
1000
,
0010
0100
0001
1000
0001
0010
0100
2000
,
3001
0100
0010
1000
0100
1000
0100
1000
,
0010
0100
0001
1000
0001
0100
0010
2000
,
3001
0010
0100
0010
0001
1000
0001
1000
,
0010
0100
0001
0100
0010
1000
0001
0020
,
0130
1000
0010
1000
0001
0100
0001
0010
,
0001
1000
0010
0100
0001
1000
0010
2000
,
3001
0010
0100
1000
0010
1000
0010
1000
,
0100
0010
0001
1000
0001
0100
0010
2000
,
3001
0010
0100
1000
0010
1000
0010
1000
,
0100
0010
0001
1000
0001
0010
0100
2000
,
3001
0100
0010
0100
0001
1000
0001
1000
,
0100
0010
0001
0010
0100
1000
0001
0200
,
0310
1000
0100
1000
0001
0010
0001
0100
,
0001
2000
3000
0200
0300
0020
0030
0002
,
1003
0000
0100
0000
0010
0100
1000
0001
1000
0001
0100
0000
0010
0000
0100
0000
,
0001
0010
0001
0010
0100
1000
0001
1001
,
1000
0010
0100
0001
0100
0001
0010
0100
,
1000
0010
0100
0001
0100
0001
1000
0100
,
0010
0000
0001
0000
1000
0010
0100
0001
1000
0001
1000
0000
0100
0000
0010
0000
,
0001
0100
0010
1000
0010
0100
0001
1001
,
1000
0100
0010
0001
0100
0001
0100
0010
,
1000
0100
0010
0100
1000
0001
1000
0001
,
0100
0000
0010
0000
1000
0100
0010
0001
1000
0001
1000
0000
0010
0000
0100
0000
,
0001
0010
0100
0010
0001
1000
0010
1010
,
1000
0010
0100
0001
1000
0020
1030
0020
,
0130
0001
1000
0100
0010
0100
1000
0001
,
1000
1000
0010
0100
0001
0001
0010
0100
,
1000
1000
0001
0100
0010
0010
1000
0100
,
0010
0010
0001
0100
0010
1000
0001
1000
,
0100
0010
0001
0100
0010
1000
2MM2
3003
,
1000
0100
0010
0000
0001
0000
1000
0010
1000
0000
0001
0000
0100
0000
0010
0000
,
1000
0001
1000
0000
0100
0000
0010
0100
1000
0000
0001
0000
0100
0000
0010
0000
,
1000
0001
1000
0000
0100
0000
0010
0001
1000
0000
0010
0000
0100
0000
0001
0000
,
1000
0010
1000
0000
0001
0000
1000
0010
0100
0000
0001
0000
1000
0000
0100
0000
,
0010
0001
1000
0000
0010
0000
0100
0001
1000
0000
0100
0000
0010
0000
0001
0000
,
1000
0010
0100
0000
0001
0000
1000
0100
0010
0000
0001
0000
0100
0000
0010
0000
,
1000
0001
0100
0000
0010
0000
1000
0100
0010
0000
0001
0000
1000
0000
0010
0000
,
0100
0001
1000
0000
0100
0000
0010
0001
1000
0010
1000
0000
0001
0100
0001
0000
,
1000
0100
0010
0000
0001
0000
1000
0010
1000
0000
0001
0000
0100
0000
0010
0000
,
1000
0001
1000
0000
0100
0000
0010
0100
1000
0000
0001
0000
0100
0000
0010
0000
,
1000
0001
1000
0000
0100
0000
0010
0001
1000
0000
0010
0000
0100
0000
0001
0000
,
1000
0010
1000
0000
0001
0100
0001
0000
1000
0100
1000
0000
0001
0010
0001
0000
,
1000
0100
0010
0000
0001
0000
1000
0001
1000
0000
0010
0000
0100
0001
1000
0000
,
0001
0100
0010
0000
1000
0000
0001
1000
0001
0000
0010
0000
0100
1000
0001
0000
,
1000
0010
0100
0000
0001
0000
1000
0100
0010
0000
0001
0000
1000
0010
1000
0000
,
0001
0100
0010
0000
1000
0000
0001
1000
0002
0000
0000
0000
0000
0000
0000
0000
,
2003
0000
0000
0000
,
3200
0000
0000
0000
,
0320
0000
0000
0000
,
0000
0000
0000
0000
,
0032
0000
0000
0000
,
0203
0000
0000
0000
,
0320
0000
0000
0000
,
0000
0000
0000
0000
,
2030
0000
0000
0000
,
3002
0000
0000
0000
,
0023
0000
0000
0000
,
0000
0000
0000
0000
,
0230
0000
0000
0000
,
0320
0000
0000
0000
,
0032
0000
0000
0000
,
0000
0000
0000
0000
,
2003
0000
0000
3010
0200
0000
0301
0020
,
0000
0000
0000
0000
0000
0000
0000
0130
,
2000
0000
3020
0000
0130
0002
0000
0023
,
0000
0000
0000
0000
,
0230
0000
0000
2300
,
3002
0000
0103
0020
0000
2030
0000
0000
,
3200
0000
0000
0320
,
0000
0032
0000
0000
,
2003
0000
0000
3010
0200
0000
0301
0020
,
0000
0000
0000
0000
0000
0000
0000
0130
,
2000
0000
3020
0000
0130
0002
0000
0000
,
0023
0000
0000
0000
,
0230
0000
0000
2300
,
3020
0000
0130
0002
0000
0023
0000
0000
,
0230
0000
0000
0000
,
0000
0000
0000
0000
,
1300
0000
1000
0000
0010
0000
0010
0100
,
0000
0100
0000
0001
0000
0001
0010
0100
,
1000
0000
1000
0000
1000
0000
1000
0010
,
0000
0010
0000
0000
0100
0000
0100
0000
,
0001
0000
0001
0000
0010
0000
0010
0100
,
0000
0100
0000
0000
1000
0000
1000
0000
,
0010
0100
0010
1000
,
0001
0000
0000
1000
0000
0000
0001
0000
,
0010
0000
0010
0000
0100
0000
0100
1000
,
0000
1000
0000
0001
0000
0001
0100
0010
,
1000
0000
1000
0000
1000
0000
1000
0100
,
0000
0100
0000
0100
0010
0000
0001
0000
,
1000
0000
1000
0000
0010
0000
0010
0100
,
0000
0100
0000
0001
0000
1000
0100
0010
,
0002
0000
0000
0000
,
0000
0000
0000
0000
,
1003
0000
0010
0100
0010
0000
1000
0001
,
1000
0000
0001
0000
0010
0100
1000
0000
,
0001
0100
0010
0100
0001
1000
0001
1000
0100
0010
0100
1000
0001
0100
0010
1000
,
0001
0010
0001
0010
0100
1000
0001
1000
0001
0100
0010
0100
0010
1000
0001
1000
,
0001
0010
0100
1000
0001
1000
0001
0100
0010
1000
0001
1000
0010
0100
0001
1000
,
0001
0010
0100
1000
0001
0100
0010
0100
0001
1000
0100
0010
0001
1000
0001
0100
,
0010
1000
0001
1000
0010
0100
0001
1000
0001
0010
0100
1000
0001
0100
0010
1000
,
0001
1000
0010
0100
0001
1000
0001
0010
0100
0010
0001
1000
0010
0100
0010
1000
,
0001
0100
0010
1000
0001
1000
0001
1000
0001
0100
0010
1000
0001
1000
0001
1000
,
0001
0100
0010
1000
0010
0100
0001
1000
0100
0010
0100
1000
0001
0100
0010
1000
,
0001
0100
0010
0100
0001
1000
0001
1000
0100
0010
0100
1000
0001
0100
0010
1000
,
0001
0010
0001
0010
0100
1000
0001
1000
0001
0100
0010
0100
0010
1000
0001
1000
,
0001
0010
0100
1000
0001
1000
0001
0100
0010
1000
0001
1000
0010
0100
0001
1000
,
0001
0010
0100
1000
0001
0100
0010
0100
0001
1000
0100
0010
0001
1000
0001
0100
,
0010
1000
0001
1000
0100
0010
0100
1000
0001
0100
0010
0100
0001
1000
0010
0100
,
0001
1000
0100
0010
0001
1000
0001
0010
0100
1000
0001
1000
0010
0100
0001
1000
,
0001
0100
0010
1000
0001
0010
0001
0010
0001
1000
0010
0100
0001
1000
0001
1000
,
0001
0010
0100
1000
0001
0100
0001
0100
0001
1000
0100
0000
0020
0000
0000
0000
,
0031
0010
0100
0010
0001
1000
0001
1000
0010
0100
0010
1000
0001
0010
0100
1000
,
0001
0100
0001
0100
0010
1000
0001
1000
0001
0010
0100
0010
0100
1000
0001
1000
,
0001
0100
0010
1000
0001
1000
0001
0010
0100
1000
0001
1000
0100
0010
0001
1000
,
0001
0100
0010
1000
0001
0010
0100
0010
0001
1000
0010
0100
0001
1000
0001
0010
,
0100
1000
0001
1000
0100
0010
0001
1000
0001
0100
0010
1000
0001
0010
0100
1000
,
0001
1000
0100
0010
0001
1000
0001
0100
0010
0100
0001
1000
0100
0010
0100
1000
,
0001
0010
0100
1000
0001
1000
0001
1000
0001
0010
0100
1000
0001
1000
0001
1000
,
0001
0010
0100
1000
0100
0010
0001
1000
0010
0100
0010
1000
0001
0010
0100
1000
,
0001
0010
0100
0010
0001
1000
0001
1000
0010
0100
0010
1000
0001
0010
0100
1000
,
0001
0100
0001
0100
0010
1000
0001
1000
0001
0010
0100
0010
0100
1000
0001
1000
,
0001
0100
0010
1000
0001
1000
0001
0010
0100
1000
0001
1000
0100
0010
0001
1000
,
0001
0100
0010
1000
0001
0010
0100
0010
0001
1000
0010
0100
0001
1000
0001
0010
,
0100
1000
0001
1000
0010
0100
0010
1000
0001
0010
0100
0010
0001
1000
0100
0010
,
0001
1000
0010
0100
0001
1000
0001
0100
0010
1000
0001
1000
0100
0010
0001
1000
,
0001
0001
1000
1000
0010
0010
0100
0100
,
0001
0001
1000
1000
2002
0000
0000
0000
,
0000
0000
0000
0000
,
0000
0000
0000
0000
,
0000
0000
0000
0000
,
0000
0000
0000
0000
,
0000
0000
3003
0000
1000
0100
1000
0100
,
1000
0100
0020
0000
0031
0100
0001
0100
,
0001
0100
0020
0000
1030
0100
0010
0001
,
0010
0100
2000
0000
3010
0100
0102
0000
,
1003
1000
1100
1100
0002
0103
0002
0103
,
0002
0103
0020
0000
2030
3100
2000
3100
,
2000
0000
3100
0000
0020
0000
0031
1000
0002
0000
0103
0000
0020
0000
1030
0000
,
0020
0130
0002
0000
2003
3100
0020
0031
,
1000
1010
1010
0010
0200
0301
2000
3100
,
2000
3010
0200
0000
0302
1003
0200
0310
,
0200
0000
1300
0000
0020
0000
1030
0001
2000
0000
3010
0000
0200
0000
0301
0000
,
2000
3001
0200
0000
0320
1030
0002
0103
,
0001
0000
0100
0000
0010
0000
1000
0000
0001
0000
1000
0000
0010
0000
0100
0000
0001
0000
1000
0000
0001
0000
1000
0000
0001
0000
0000
0010
0000
0000
0000
0000
0000
0100
0000
0000
0000
0000
0000
1000
0000
0000
0002
0000
0000
0000
0000
0000
,
1003
0010
0000
0100
0000
0001
2000
0000
3001
0010
0000
0100
0000
1000
0020
0000
,
0430
0000
M000
0000
0304
0000
00M0
0000
1003
0100
0000
0010
0000
0001
2000
0000
,
3010
0100
0000
0001
0000
1000
0200
0000
0310
0001
0000
1000
0000
0001
0020
0000
,
0430
0000
000M
0000
4300
0000
00M0
0000
3001
0100
0000
0010
0000
1000
0200
0000
,
1300
0010
0000
0100
0000
0001
2000
0000
3001
0010
0000
0100
0000
1000
0020
0000
,
0430
0000
M000
0000
0304
0000
00M0
0000
1003
0100
0000
1000
0000
0001
0020
0000
,
0130
0010
0000
0001
0000
1000
0002
0000
0103
0000
0000
0100
0000
0000
0100
0000
,
0101
0000
0000
0101
0000
0000
0101
0000
1000
0000
0000
1000
0000
0000
1000
0000
,
0000
1100
0000
0000
1100
0000
0000
1100
0000
0000
0010
0000
0000
0010
0000
0000
,
0010
0000
0000
0011
0000
0000
0011
0000
0000
0011
0000
0000
1000
0000
0000
1000
,
0000
0000
1000
0000
0000
2002
00M0
0000
0M00
0000
00M0
0000
0M00
0000
3003
0000
,
1000
0100
1000
0100
1000
0100
0020
0000
,
0031
0100
0001
0100
0001
0100
0020
0000
,
1030
0100
0010
0001
0010
0100
2000
0000
,
3001
0100
0001
0001
0100
0001
0011
0011
,
1000
0100
1000
0100
1000
0100
0020
0000
,
0031
0100
0001
0100
0001
0100
0020
0000
,
1030
0100
0010
0001
0100
0001
2000
0000
,
3001
0000
0001
0000
1000
0000
0010
0100
0001
0000
0001
0000
0011
0000
0011
0000
,
1000
0100
1000
0100
1000
0100
0020
0000
,
0031
0100
0001
0100
0001
0100
0020
0000
,
1030
0001
0010
0100
0010
0001
2000
0000
,
3010
0100
0001
1000
0001
0100
1010
1010
,
1000
0100
0010
0001
0100
0001
0020
0000
,
0031
0100
0010
1000
0001
1000
0200
0000
,
1300
0010
0100
0001
0100
0010
2000
0000
,
3100
0000
0100
0000
0010
0000
0010
0001
1000
0000
1000
0000
1001
0000
1001
0000
,
0001
0001
0100
0100
0010
0010
1000
1000
,
0001
0001
0010
0010
0200
000M
2300
00M0
,
3001
0001
0100
0100
0010
0010
1000
1000
,
0100
0100
0010
0010
0001
0001
000M
0001
,
1000
1000
0010
0100
0001
0001
0010
0100
,
1000
1000
0001
0100
0020
000M
2030
3001
,
0100
0100
0001
1000
0100
0100
0010
0001
,
1000
1000
1100
1100
2002
3003
0101
0101
,
1000
1000
0010
0100
0001
0001
1000
0100
,
0010
0010
0001
0100
0010
M000
2010
0000
,
3001
0001
0100
0010
1000
1000
0001
0010
,
0100
0100
1000
0001
M200
0301
2M20
3030
,
0001
0001
0100
0010
1000
0100
22MM
3300
,
1000
1000
0100
0010
0001
0100
M2M2
0303
,
1000
0100
220M
3300
0001
0100
M202
0303
,
20M2
0M00
00M0
0M00
,
00M0
0M00
00M0
0M00
,
00M0
0M00
0000
3003
,
0002
0000
0000
0103
0020
0000
1030
0200
,
0000
0000
0000
0000
0000
0000
0000
0310
,
0002
0000
0203
0000
0310
2000
0000
3200
,
0000
0000
0000
0000
,
0320
0000
0000
0032
,
2003
0000
3010
0200
0000
0302
0000
0000
,
0023
0000
0000
0230
,
0000
2300
0000
0000
,
3002
0000
0000
0103
0020
0000
1030
0200
,
0000
0000
0000
0000
0000
0000
0000
0310
,
0002
0000
0203
0000
0310
2000
0000
0000
,
3200
0000
0000
0000
,
0320
0000
0000
0032
,
0203
0000
0310
2000
0000
3200
0000
0300
,
4000
0004
0000
0000
00M0
0000
0M00
0000
00M0
0000
0000
0000
0M00
0000
00M0
0000
,
0M00
0000
00M0
0M00
00M0
0000
3003
0000
,
1000
0010
0100
0010
1000
0001
1000
0001
0010
0100
0010
0001
1000
0010
0100
0001
,
1000
0100
1000
0100
0010
0001
1000
0001
1000
0010
0100
0010
0100
0001
1000
0001
,
1000
0100
0010
0001
1000
0001
1000
0010
0100
0001
1000
0001
0100
0010
1000
0001
,
1000
0100
0010
0001
1000
0010
0100
0010
1000
0001
0010
0100
1000
0001
1000
0010
,
0100
0001
1000
0001
0100
0010
1000
0001
1000
0100
0010
0001
1000
0010
0100
0001
,
1000
0001
0100
0010
1000
0001
1000
0100
0010
0100
1000
0001
0100
0010
0100
0001
,
1000
0010
0100
0001
1000
0001
1000
0001
1000
0010
0100
0001
1000
0001
1000
0001
,
1000
0010
0100
0001
0100
0010
1000
0001
0010
0100
0010
0001
1000
0010
0100
0001
,
1000
0010
0100
0010
1000
0001
1000
0001
0010
0100
0010
0001
1000
0010
0100
0001
,
1000
0100
1000
0100
0010
0001
1000
0001
1000
0010
0100
0010
0100
0001
1000
0001
,
1000
0100
0010
0001
1000
0001
1000
0010
0100
0001
1000
0001
0100
0010
1000
0001
,
1000
0100
0010
0001
1000
0010
0100
0010
1000
0001
0010
0100
1000
0001
1000
0010
,
0100
0001
1000
0001
0010
0100
0010
0001
1000
0010
0100
0010
1000
0001
0100
0010
,
1000
0001
0010
0100
1000
0001
1000
0100
0010
0001
1000
0001
0100
0010
1000
0001
,
1000
0010
0100
0001
1000
0100
1000
0100
1000
0001
0100
0010
1000
0001
1000
0001
,
1000
0100
0010
0001
1000
0010
1000
0010
1000
0001
0010
0000
0200
0000
0000
0000
,
1300
0100
0010
0100
1000
0001
1000
0001
0100
0010
0100
0001
1000
0100
0010
0001
,
1000
0010
1000
0010
0100
0001
1000
0001
1000
0100
0010
0100
0010
0001
1000
0001
,
1000
0010
0100
0001
1000
0001
1000
0100
0010
0001
1000
0001
0010
0100
1000
0001
,
1000
0010
0100
0001
1000
0100
0010
0100
1000
0001
0100
0010
1000
0001
1000
0100
,
0010
0001
1000
0001
0010
0100
1000
0001
1000
0010
0100
0001
1000
0100
0010
0001
,
1000
0001
0010
0100
1000
0001
1000
0010
0100
0010
1000
0001
0010
0100
0010
0001
,
1000
0100
0010
0001
1000
0001
1000
0001
1000
0100
0010
0001
1000
0001
1000
0001
,
1000
0100
0010
0001
0010
0100
1000
0001
0100
0010
0100
0001
1000
0100
0010
0001
,
1000
0100
0010
0100
1000
0001
1000
0001
0100
0010
0100
0001
1000
0100
0010
0001
,
1000
0010
1000
0010
0100
0001
1000
0001
1000
0100
0010
0100
0010
0001
1000
0001
,
1000
0010
0100
0001
1000
0001
1000
0100
0010
0001
1000
0001
0010
0100
1000
0001
,
1000
0010
0100
0001
1000
0100
0010
0100
1000
0001
0100
0010
1000
0001
1000
0100
,
0010
0001
1000
0001
0100
0010
0100
0001
1000
0100
0010
0100
1000
0001
0010
0100
,
1000
0001
0100
0010
1000
0001
1000
0010
0100
0001
1000
0001
0010
0100
1000
0001
,
1000
0010
0100
0001
1000
0001
0100
0010
1000
0100
1000
0001
0010
0100
1000
0010
,
1000
1000
0010
0100
0002
0003
2000
3000
,
0001
0100
0010
1000
0100
1000
0100
1000
,
0010
0100
0001
1000
0001
0010
0100
2000
,
3001
0100
0010
1000
0100
1000
0100
1000
,
0010
0100
0001
1000
0001
0100
0010
2000
,
3001
0010
0100
0010
0001
1000
0001
1000
,
0010
0100
0001
0100
0010
1000
0001
0020
,
0130
1000
0010
1000
0001
0100
0001
0010
,
0001
1000
0010
0100
0001
1000
0010
2000
,
3001
0010
0100
1000
0010
1000
0010
1000
,
0100
0010
0001
1000
0001
0100
0010
2000
,
3001
0010
0100
1000
0010
1000
0010
1000
,
0100
0010
0001
1000
0001
0010
0100
2000
,
3001
0100
0010
0100
0001
1000
0001
1000
,
0100
0010
0001
0010
0100
1000
0001
0200
,
0310
1000
0100
1000
0001
0010
0001
0100
,
0001
1000
0010
0100
0202
0303
2020
3030
,
1000
0000
0100
0000
0010
0100
1000
0001
1000
0001
0200
0300
0010
0000
0200
0300
,
0001
0010
0001
0010
0100
1000
0001
1001
,
1000
0000
0010
0000
0100
0000
0001
0000
0100
0000
0002
0003
0010
0000
0200
0300
,
1000
0010
0100
0001
0100
0001
1000
0200
,
0310
0000
0001
0000
1000
0010
0100
0001
1000
0001
2000
3000
0100
0000
0020
0030
,
0001
0100
0010
1000
0010
0100
0001
1001
,
1000
0000
0100
0000
0010
0000
0001
0000
0100
0000
0002
0003
0100
0000
0020
0030
,
1000
0100
0010
0100
1000
0001
1000
0002
,
0103
0000
0010
0000
1000
0100
0010
0001
1000
0001
2000
3000
0010
0000
0200
0300
,
0001
0010
0100
0010
0001
1000
0010
1010
,
1000
0000
0010
0000
0100
0000
0001
0000
1000
0000
0020
0030
1000
0000
0020
0030
,
0100
0001
1000
0100
0010
0100
1000
0002
,
1003
0000
0100
0000
0010
0100
1000
0001
1000
0001
0200
0300
0010
0000
0200
0300
,
0001
0010
0001
0010
0100
1000
0001
1001
,
1000
0000
0010
0000
0100
0000
0001
0000
0100
0000
0002
0003
0010
0000
0200
0300
,
1000
0010
0100
0001
0100
0001
1000
M000
,
0002
0003
0200
0300
0020
0030
2000
3000
,
0002
0003
0200
0300
0020
1030
2000
3000
,
0002
0003
0020
0030
0200
0300
2000
3000
,
0002
0003
0020
0030
0200
1300
2000
3001
,
0002
0003
0200
0300
0020
0030
2000
3000
,
0200
0300
0020
0030
0002
1003
2000
3000
,
0002
0003
0200
0300
0020
0030
2000
3000
,
0002
0003
2000
3000
0020
0130
0200
0301
,
0001
0000
2000
3000
0000
0000
0020
0030
,
0000
0000
0200
0300
0000
0001
0002
0003
,
0000
0000
2000
3000
0000
0000
0200
0300
,
0000
0000
0020
0030
0000
0001
0002
1003
,
0000
0000
2000
3000
0000
0000
0200
0300
,
0000
0000
0020
0030
0000
0001
0002
0003
,
0000
0000
0200
0300
0000
0000
0020
0030
,
0000
0000
2000
3000
0000
0001
2000
3001
,
0MM0
0000
0000
0000
;
