#TITLE:The Story;
#SUBTITLE:;
#ARTIST:DJ A.H.;
#TITLETRANSLIT:;
#SUBTITLETRANSLIT:;
#ARTISTTRANSLIT:;
#GENRE:;
#CREDIT:;
#BANNER:thestory-bn.png;
#BACKGROUND:thestory-bg.png;
#LYRICSPATH:;
#CDTITLE:;
#MUSIC:DJ A H - The Story.ogg;
#OFFSET:-0.040;
#SAMPLESTART:88.470;
#SAMPLELENGTH:12.000;
#SELECTABLE:YES;
#BPMS:0.000=141.000;
#STOPS:;
#BGCHANGES:;
#KEYSOUNDS:;

//---------------dance-single - C.Sanabria----------------
#NOTES:
     dance-single:
     C.Sanabria:
     Challenge:
     9:
     0.619,0.646,0.045,0.399,0.419:
0000
0000
0000
0000
,
0000
0000
0000
0000
,
0000
0000
0000
0000
,
0000
0000
0000
0000
,
2000
0010
3002
0010
,
2003
0100
3002
0100
,
1003
0MM0
1001
0000
1000
0010
0100
0002
,
0000
0023
0000
0230
0000
2300
0000
3000
,
0001
0100
1000
0100
0001
0100
1000
0100
,
0001
0000
0010
0000
0100
0000
0010
0000
0001
0000
1000
0000
0100
0000
0000
0100
,
0010
0001
0100
0001
1000
0010
1000
0100
,
1000
0000
0010
0000
0100
0000
0001
0000
1000
0000
0001
0000
0010
0000
0000
0010
,
0100
1000
0001
1000
0010
0200
0000
0302
,
0000
0000
2003
0000
0000
0000
3200
0000
0000
0000
0310
0000
0100
0000
0000
1000
,
0001
0000
0100
0000
0010
0000
0000
0010
1000
0000
0001
0000
1000
0000
0000
0100
,
0010
0000
0001
0000
0100
0000
0010
0000
1000
0001
1000
0001
1000
0001
1000
0001
,
2000
00M0
0M00
000M
,
0M00
00M0
0M00
000M
,
0M00
00M0
0M00
000M
,
0M00
00M0
0M00
300M
,
0001
0000
0010
0000
0000
0100
0000
0000
1000
0000
0000
0001
0000
0000
1000
0000
,
0001
0000
0100
0000
0000
0010
0000
0000
1000
0000
0000
0001
0000
0000
1000
0000
,
0010
0000
0100
0000
0000
0001
0000
0000
0010
0000
0000
0001
0000
0000
1000
0000
,
0100
0000
0010
0000
0000
0100
0000
0000
1000
0000
0000
0001
0000
0000
1000
0000
,
0010
0000
0100
0000
0000
0001
0000
0000
1000
0000
0000
0001
0000
0000
1000
0000
,
0100
0000
0010
0000
0000
0001
0000
0000
1000
0000
0000
0001
0000
0000
1000
0000
,
0010
0000
0100
0000
0000
0001
0000
0000
0010
0000
0000
0100
0000
0000
1000
0000
,
0001
0000
0100
0000
0000
0001
0000
0000
0010
0000
0000
0100
0000
0000
1000
0000
,
0020
0030
0020
0030
0020
0030
0020
0030
,
0200
0000
0300
0000
0200
0000
0300
0000
0200
0000
0300
0000
0200
0000
0300
0100
,
0002
0003
0002
0003
0002
0003
0002
0003
,
2000
0000
3000
0000
2000
0000
3000
0000
2000
0000
3000
0000
2000
0000
3000
1000
,
0002
0000
0003
0000
0020
0000
0030
0000
0200
0000
0300
0000
2000
0000
3000
0001
,
2000
0000
3000
0000
0020
0000
0030
0000
0200
0000
0300
0000
0002
0000
0003
1000
,
0200
0000
0300
0000
0020
0000
0030
0001
0200
0000
0300
0000
0020
0000
0030
1000
,
0001
0000
0010
0000
0100
0000
1000
0000
0001
1000
0001
1000
0001
1000
0001
1000
,
0001
0000
0100
0000
0010
0000
1000
0000
0010
0000
0100
0001
0000
0001
0100
0000
,
0010
0000
1000
0000
0001
0000
1000
0000
0100
0000
0010
0001
0000
0001
0010
0000
,
0100
0000
1000
0000
0001
0000
1000
0000
0010
0000
0100
0001
0000
0001
1000
0000
,
0001
0000
0010
0000
0100
0000
1000
0000
0010
0000
0000
0100
0000
0000
0001
0000
,
1000
0000
0100
0000
0010
0000
0100
0000
1000
0000
0010
0100
0000
0100
0001
0000
,
0010
0000
0100
0000
1000
0000
0100
0000
0010
0000
0001
0100
0000
0010
0100
0000
,
0001
0000
0100
0000
1000
0000
0100
0000
0001
0000
0010
0100
0000
0100
1000
0000
,
0001
0000
0100
0000
0010
0000
1000
0000
0001
0000
0000
0100
0000
0000
0010
0000
,
1000
0000
0100
0000
0010
0000
0001
0000
0010
0000
0100
1000
00M0
1000
0100
0000
,
0010
0000
0001
0000
1000
0000
0001
0000
0100
0000
0010
1000
0M00
1000
0010
0000
,
0100
0000
0001
0000
1000
0000
0001
0000
0010
0000
0100
1000
0000
1000
0001
0000
,
1000
0000
0010
0000
0100
0000
0001
0000
0010
0000
0000
0100
0000
0000
1000
0000
,
0001
0000
0100
0000
0010
0000
0100
0000
0001
0000
0010
0100
0000
0100
1000
0000
,
0010
0000
0100
0000
0001
0000
0100
0000
0010
0000
1000
0100
0000
0010
0100
0000
,
1000
0000
0100
0000
0001
0000
0100
0000
1000
0000
0010
0100
0000
0100
0001
0000
,
1000
0000
0100
0000
0010
0000
0001
0000
1000
0000
0000
0100
0000
0000
0010
0000
,
0001
0100
0001
0000
1000
0010
0000
0100
0010
0000
1000
0010
0000
0100
0010
0000
,
1000
0001
1000
0000
0100
0010
0000
0100
1000
0000
0001
0100
0000
0100
0001
0000
,
0010
0100
1000
0000
0001
0100
0000
0010
0100
0000
0010
1000
0000
0001
1000
0000
,
0100
1000
0100
0000
1000
0001
0000
1000
0010
0000
0000
0100
0000
0000
0001
0000
,
1000
0100
1000
0000
0001
0010
0000
0100
0010
0000
0001
0010
0000
0100
0010
0000
,
0001
1000
0001
0000
0100
0010
0000
0100
0001
0000
1000
0100
0000
0100
1000
0000
,
0010
0100
0001
0000
1000
0100
0000
0010
0100
0000
0010
0001
0000
1000
0001
0000
,
0100
0001
0100
0000
0001
1000
0000
0001
0010
0000
0000
0100
0000
0000
1000
0000
,
0001
0100
0001
0000
1000
0100
0000
0100
0010
0000
0010
0001
0000
0001
1000
0000
,
0001
0010
0100
0000
0100
1000
0000
1000
0001
0000
0001
1000
0000
1000
0010
0000
,
0010
0100
0010
0000
0010
1000
0000
1000
0100
0000
0100
1000
0000
1000
0001
0000
,
0100
0010
1000
0000
1000
0001
0000
0001
0010
0000
0010
0100
0000
0100
1000
0000
,
0001
0100
0001
0000
1000
0100
0000
0100
0010
0000
0010
0001
0000
0001
1000
0000
,
0001
0010
0100
0000
0100
1000
0000
1000
0001
0000
0001
1000
0000
1000
0010
0000
,
0010
0100
0010
0000
0010
1000
0000
1000
0100
0000
0100
1000
0000
1000
0001
0000
,
0100
0010
1000
0000
1000
0001
0000
0001
0010
0000
0010
0100
0000
0100
1000
0000
,
0002
0000
0000
0000
,
1003
0100
1000
0001
0100
0001
1000
0100
1000
0001
0100
0001
1000
0100
0010
0001
,
2000
0000
3010
M000
0010
0100
0001
1000
,
0002
0000
0013
000M
0010
0100
1000
0001
,
2000
0000
3100
M000
1000
0010
0100
0001
,
1000
0100
1100
1000
0001
0100
0101
0001
,
0020
0000
0130
00M0
0010
0001
0100
0010
,
2000
0000
3100
M000
1000
0010
0100
0001
,
0020
0000
0031
00M0
0010
0100
1000
0001
,
1000
0010
1010
1000
0001
0010
0011
0001
,
1000
0010
0100
0001
1000
0010
0100
0001
,
1000
0100
0010
0001
1000
0100
0010
0001
,
1000
0100
0010
0100
0001
0100
0010
0100
,
1000
2000
0010
3020
0100
0230
0001
0301
,
1000
0000
1100
0000
0100
0010
0001
1000
,
0001
0000
0101
0000
0100
0010
1000
0001
,
1000
0000
1001
0000
0010
0100
1000
0001
,
1000
0010
1000
0000
0001
0100
0001
0000
,
2000
0000
0000
0000
,
0200
0000
0000
3000
,
0002
0000
0000
0300
,
0200
0000
0000
0003
,
1300
0010
0100
0010
1000
0010
0100
0001
,
1000
0100
0010
0100
1000
0100
0010
0001
,
0100
0010
1000
0001
1000
0010
0100
0001
,
1000
0100
0001
0100
1000
0100
0001
0100
,
1000
0010
0100
0001
0020
0000
0130
2000
,
0000
3020
0000
0230
0000
0302
0000
2003
,
0000
3000
0001
0010
0100
2000
0000
3020
,
0000
0230
0000
0302
0000
2003
0000
3000
,
0001
0100
0010
1000
0001
0100
0010
1000
,
0001
0010
0100
1000
0001
0010
0100
1000
,
0010
0100
0001
1000
0001
0100
0010
2000
,
0000
3200
0000
0320
0000
0032
0000
2000
,
0000
0000
0000
0000
,
0000
0000
0000
0000
,
0000
0000
3003
0000
;
