#TITLE:The Falling Mysts;
#SUBTITLE:;
#ARTIST:Dimrain47;
#TITLETRANSLIT:;
#SUBTITLETRANSLIT:;
#ARTISTTRANSLIT:;
#GENRE:;
#CREDIT:;
#BANNER:thefallingmysts-bn.png;
#BACKGROUND:thefallingmysts-bg.png;
#LYRICSPATH:;
#CDTITLE:;
#MUSIC:Dimrain47 - The Falling Mysts.ogg;
#OFFSET:-0.040;
#SAMPLESTART:74.570;
#SAMPLELENGTH:12.000;
#SELECTABLE:YES;
#BPMS:0.000=132.000,268.000=66.000,300.000=132.000;
#STOPS:;
#BGCHANGES:;
#KEYSOUNDS:;

//---------------dance-single - C.Sanabria----------------
#NOTES:
     dance-single:
     C.Sanabria:
     Challenge:
     11:
     0.951,1.000,0.038,0.972,1.000:
0000
0000
0000
0000
,
0000
0000
0000
0000
,
0000
0000
0000
0000
,
0000
0000
0000
0000
,
1000
0010
1000
0010
0100
0001
0010
0001
,
1000
0100
0010
0100
1000
0100
0010
0100
,
1000
0010
0100
0001
1000
0100
0010
0001
,
2000
0010
0010
3010
0100
0001
1000
0001
,
1000
0100
0010
0001
1000
0001
1000
0001
,
0100
0010
0100
0010
1000
0100
1000
0100
,
0010
0100
1000
0001
1000
0010
0100
0001
,
0010
0100
0010
0100
1000
0001
1000
0001
,
0100
0001
0100
0001
0100
0010
0100
0010
,
1000
0010
1000
0010
0100
0001
0100
0001
,
1000
0100
0010
0001
0100
0001
0010
0100
,
2000
0100
0100
3100
0010
0001
1000
0001
,
1000
0000
0010
1000
0010
1000
0001
0000
0100
0001
0100
0001
1000
0000
0001
0010
,
0001
0000
0000
0100
0000
0000
0010
0000
0000
0000
2000
0000
0000
0000
0000
0000
,
3001
0010
0100
2000
0000
3020
0000
0000
,
0130
0000
0000
0001
0000
0000
1001
0000
0000
0000
2200
0000
0000
0000
3300
0000
,
1000
0000
0000
0010
0000
0000
0100
0000
0001
0000
0000
0000
2000
0000
3001
0000
,
1000
0100
0010
0002
1003
0001
0010
0200
,
0000
2300
0000
3001
0100
0002
0000
1003
,
0010
0000
0000
0100
0000
0000
0002
0000
0000
0000
0000
0000
2003
0000
0000
0000
,
3100
0000
0000
0010
0000
0000
0001
0000
1000
0000
0000
0000
0010
0000
0100
0000
,
0001
0000
0001
0010
0000
0000
0100
0000
1000
0001
0000
1000
0001
0000
1000
0010
,
1000
0000
0000
0000
0000
0000
0001
0000
0100
0000
0001
0000
0100
0000
0000
0000
0000
0000
0010
0000
0000
0000
0000
0000
1000
0000
0000
0100
0000
0000
0000
0000
0000
1000
0000
0000
0100
0000
0000
0000
0000
0000
0010
0000
0000
0000
0000
0000
,
0001
0000
0100
0000
0010
0000
1000
0000
0001
0010
0000
0001
0010
0000
0100
0000
,
1000
0000
0000
0000
0000
0000
0001
0000
0100
0000
0001
0000
0100
0000
0000
0000
0000
0000
0010
0000
0000
0000
0000
0000
1000
0000
0000
0100
0000
0000
0000
0000
0000
1000
0000
0000
0001
0000
0000
0000
0000
0000
1000
0000
0000
0010
0000
0000
,
0100
0002
0023
0230
2300
3020
0230
0302
,
2003
0000
0000
0000
0000
0000
3001
0000
0100
0000
0001
0000
0100
0000
0000
0000
0000
0000
0020
0000
0000
0000
0000
0000
0000
0000
0000
0000
0000
0000
1030
0000
0000
0000
0000
0000
0000
0000
0000
0001
0000
0000
0000
0000
0000
0000
0000
0000
,
0100
0020
2030
3002
2003
3020
0230
0302
,
2003
3200
0320
0032
2003
3200
0320
0032
,
1003
0100
0010
0001
1000
0100
0010
0001
1000
0100
0010
0001
1000
0100
0010
0001
,
1000
0010
0100
0010
1000
0001
1000
0001
0010
0100
1000
0100
0010
0001
1000
0001
,
1000
0010
0100
0001
1000
0010
0100
0001
1000
0010
0100
0001
1000
0010
0100
0001
,
1000
0010
0100
0001
1000
0100
0010
0001
1000
0010
0100
0001
1000
0100
0010
0100
,
1000
0001
0100
0010
1000
0001
0010
0100
1000
0001
0100
0010
1000
0001
0010
0100
,
1000
0010
0100
0010
1000
0001
0010
0100
1000
0001
0010
0100
0010
0001
1000
0001
,
1000
0010
0100
0001
1000
0001
0010
0100
1000
0010
1000
0001
0100
0010
1000
0001
,
1000
0100
0010
0100
1000
0010
0100
0001
1000
0100
0010
0100
1000
0001
0100
0010
,
1000
0100
1000
0000
0010
0000
0100
0001
0000
0100
0000
0010
1000
0000
0010
0000
,
0100
0001
1000
0000
0100
0000
0010
0100
0000
1000
0000
0001
1000
0000
0010
0000
,
0100
0001
1000
0000
0100
0000
1000
0010
0000
1000
0000
0100
0010
0000
0001
0000
,
0100
0001
1000
0000
0010
0000
0100
0001
0000
0100
0000
0010
0100
0000
0001
0000
,
2000
3200
0320
0230
2300
3002
2003
3002
,
2003
3020
0230
0320
2030
3200
0320
0032
,
2003
3020
0230
0320
2030
3002
2003
3020
,
0230
0302
0023
0032
2003
3200
0320
0230
,
1300
0100
0010
0001
1000
0001
1000
0100
0010
0001
1000
0001
1000
0010
0100
0001
,
1000
0001
1000
0010
0100
0001
1000
0001
1000
0100
0010
0001
0100
0010
1000
0001
,
2000
0000
0000
0000
3020
0000
0000
0000
0230
0000
0000
0301
0010
0100
1000
0001
,
2000
0000
0000
0000
3020
0000
0000
0000
1030
0001
0010
0100
0010
0001
1000
0001
,
0200
0010
0001
0320
,
2030
0000
0000
0000
0010
0000
0000
0000
0001
0000
0000
3100
0010
0001
1000
0010
,
1000
0100
0010
0001
1000
0010
0100
0001
1000
0100
0010
0100
1000
0001
0100
0010
,
1000
0000
0001
0000
1000
0000
0001
0000
0000
0010
0000
0000
0100
0000
0000
0010
0000
0000
0001
0000
0000
1000
0000
0000
0010
0000
0000
0100
0000
0000
0001
0000
0000
1000
0000
0000
0100
0000
0000
0010
0000
0000
0001
0000
0000
1000
0000
0000
,
0001
1000
0010
1000
0001
0010
0001
1000
0100
1000
0001
0100
0001
0010
0100
1000
,
0001
0100
0010
1000
0001
0010
0100
1000
0100
0010
0001
1000
0010
0100
0001
1000
,
0100
0000
0010
0000
0001
0000
1000
0000
0001
0000
1000
0000
0100
0000
0010
0000
0001
0000
1000
0000
0001
0000
1000
0000
0001
0000
0000
0010
0000
0000
0100
0000
0000
1000
0000
0000
0001
0000
0000
1000
0000
0000
0001
0000
0000
0100
0000
0000
,
0010
0000
0000
1000
0000
0000
0001
0000
0000
1000
0000
0000
0100
0000
0000
0010
0000
0000
0001
0000
0000
1000
0000
0000
0001
0000
0100
0000
0010
0000
1000
0000
0001
0000
1000
0000
0001
0000
0000
0010
0000
0000
0100
0000
0000
1000
0000
0000
,
0002
0000
0203
0000
0320
2030
0000
3200
,
0000
0320
0000
0032
0000
2003
0000
3020
,
0000
1030
0100
1000
0001
0010
0001
1000
0001
0100
0010
1000
0001
0010
0100
1000
,
0001
0100
0010
0100
0001
1000
0001
0010
0100
0010
0001
1000
0001
1000
0010
0100
,
0002
0000
0000
0000
0010
0000
0000
0000
1000
0000
0000
0103
0010
0000
0000
0010
,
2000
000M
3100
0000
0012
0M00
1003
0000
,
1010
1000
0100
0010
0002
1003
0200
1300
1100
2000
3001
0020
0130
1000
0002
0103
,
0101
0200
0310
1000
2000
3001
0010
0001
0011
0200
1300
0002
0103
0020
2030
3001
,
1001
2000
3100
0010
0020
0031
1000
0010
2010
3001
0020
0130
1001
2000
3200
0320
,
0032
1003
0010
1000
2000
3001
0020
0031
0011
2000
3010
0200
0301
2000
3010
0200
,
0301
0002
0000
0103
0200
0000
0310
0020
0000
2030
0000
3002
0000
0013
0100
1000
,
0001
0002
0000
0013
0020
0000
0130
0200
0000
2300
0000
3002
0000
1003
0010
0100
,
0001
0002
0000
0013
0020
0000
0130
0200
0000
2300
0000
3002
0000
1003
0100
0010
,
0200
1300
0010
0100
0002
0103
0010
1000
0200
1300
0010
0100
0002
0013
0200
1300
,
0001
0100
0010
1000
0001
0100
0010
1000
0001
0100
0010
1000
0001
0100
0010
1000
,
0001
0010
0100
0010
0001
1000
0001
1000
0010
0100
0001
1000
0001
0100
0010
1000
,
0001
0010
0100
1000
0001
0010
0100
1000
0001
0010
0100
1000
0001
0010
0100
1000
,
0001
0100
0010
0100
0001
1000
0010
0100
0001
0100
0010
1000
0001
0010
0100
0010
,
0001
1000
0010
0100
0001
1000
0100
0010
0001
1000
0010
0100
0001
1000
0100
0010
,
0001
1000
0010
0100
0010
1000
0001
0010
0001
1000
0100
0010
0001
0010
0100
1000
,
0001
0100
0010
1000
0001
0010
0100
1000
0001
0100
0010
1000
0001
0010
0100
1000
,
0100
0010
0001
1000
0001
0100
0010
1000
0010
0100
0001
1000
0001
1000
0010
0100
,
0001
0010
0001
0000
0100
0000
0010
1000
0000
0010
0000
0100
0001
0000
0100
0000
,
0010
1000
0001
0000
0010
0000
0100
0010
0000
0001
0000
1000
0001
0000
0100
0000
,
0010
1000
0001
0000
0010
0000
0001
0100
0000
0001
0000
0010
0100
0000
1000
0000
,
0010
1000
0001
0000
0100
0000
0010
1000
0000
0010
0000
0100
0010
0000
1000
0000
,
0002
0023
0230
0320
0032
2003
3002
2003
,
3002
0203
0320
0230
0302
0023
0230
2300
,
3002
0203
0320
0230
0302
2003
3002
0203
,
0320
2030
3200
2300
3002
0023
0230
0320
,
0032
0000
0000
0003
,
0200
0000
0000
0300
,
2000
0000
0000
3000
,
00M0
0M00
000M
0000
M000
0000
000M
00M0
0000
0M00
0000
M000
000M
0000
M000
0000
,
2000
0000
0000
3000
,
0200
0000
0000
0300
,
0002
0000
0000
0003
,
M000
0M00
00M0
0000
000M
0000
0M00
00M0
0000
M000
0000
000M
0M00
0000
00M0
0000
,
1000
0100
0010
0000
0001
0000
0010
0100
0000
1000
0000
0100
0010
0000
0001
0000
,
1000
0010
1000
0000
0001
0000
0100
0010
0000
0100
0000
0001
1000
0000
0001
0000
,
0010
0100
1000
0000
0001
0000
1000
0100
0000
0010
0000
0001
0100
0000
0001
0000
,
0010
0100
1000
0000
0001
0000
1000
0100
0000
0010
0000
0001
1000
0000
0010
0000
,
1000
0010
0100
0000
0001
0000
0100
0010
0000
1000
0000
0010
0100
0000
0001
0000
,
1000
0100
1000
0000
0001
0000
0010
0100
0000
0010
0000
0001
1000
0000
0001
0000
,
0100
0010
1000
0000
0001
0000
1000
0010
0000
0100
0000
0001
0010
0000
0001
0000
,
0100
0010
1000
0000
0001
0000
1000
0010
0000
0100
0000
0001
1000
0000
0100
0000
,
1000
0100
0010
0001
0020
0000
0130
1000
0000
0001
0000
1000
0100
0010
0001
0000
,
1000
0010
0100
0001
2000
0000
3010
0100
0000
0001
0000
0100
0010
0000
1000
0000
,
0001
0010
0100
1000
0002
0000
1003
0010
0000
0100
0000
0010
1000
0000
0001
0010
,
0001
1000
0010
0000
0100
0000
0001
0010
0000
0001
0000
0100
0010
1000
0001
0000
,
1000
0010
0100
0001
0200
0000
0310
1000
0000
0001
0000
1000
0010
0100
0001
0000
,
1000
0100
0010
0001
2000
0000
3100
0010
0000
0001
0000
0010
0100
0000
1000
0000
,
0001
0100
0010
1000
0002
0000
1003
0100
0000
0010
0000
0100
1000
0000
0001
0100
,
0001
1000
0100
0000
0010
0000
0001
0100
0001
0010
0100
1000
0001
0100
0001
1000
,
0020
0000
1030
0100
0010
0001
1000
0000
0001
0100
0010
1000
0001
1000
0001
0010
,
0200
0000
1300
0010
0100
0001
1000
0000
1000
0010
0100
0001
0010
0001
1000
0100
,
0020
0000
0031
0010
0100
1000
0001
0000
1000
0010
0100
0001
0100
0010
1000
0100
,
2000
0000
3001
0010
0100
1000
0001
0000
0001
0100
0001
1000
0100
0010
0001
1000
,
0001
0000
0100
0010
0000
1000
0200
0000
0310
0100
0000
1000
0001
1000
0010
0100
,
0010
0000
1000
0002
0000
0013
0100
0000
0010
0001
0000
1000
0010
0100
0001
1000
,
0001
0000
1000
0200
0000
0310
0100
0000
1000
0010
0000
0100
0001
1000
0010
1000
,
0002
0000
1003
0010
0100
0001
0100
0010
1000
0001
1000
0001
0010
0000
0100
1000
,
0002
0000
1003
0010
0100
0001
1000
0000
1000
0001
0100
0010
2000
3200
0320
0032
,
2003
0000
3010
1000
0001
1000
0001
0000
0001
0010
0100
1000
0002
0203
0320
0230
,
0302
0000
1003
0010
0100
0001
0100
0000
0100
0010
1000
0001
1000
0100
0010
0001
,
1000
0000
0020
2030
3002
0203
0320
0030
0020
0230
0302
2003
3200
0320
0032
2003
,
3002
0000
2003
3200
0320
0032
1003
0000
1000
0001
0010
0100
2000
3010
0200
0301
,
1000
0000
0200
2300
3002
2003
3001
0000
0002
0203
0320
2030
3001
0010
0100
0010
,
0001
0000
2000
3200
0320
0032
0013
0000
0020
0230
2300
3002
2003
3020
0230
0302
,
2003
0000
3200
2300
3002
0023
0230
0300
0200
0320
0032
2003
3020
0230
0302
2003
,
3002
0000
0203
0000
0320
0000
0230
0000
0302
0000
0203
0000
0310
1000
0001
0100
,
0020
0000
2030
0000
3200
0000
2300
0000
3020
0000
2030
0000
3100
0010
0001
1000
,
0002
0023
0230
0320
0032
0023
0230
2300
,
3002
0000
1003
0010
0100
0001
1000
0000
1000
0001
1000
0010
0100
0001
1000
0001
,
1000
0100
0010
0001
1000
0001
0010
0001
1000
0010
0100
0001
1000
0100
0010
0100
,
1000
0001
0100
0001
1000
0010
0100
0001
1000
0001
0010
0001
1000
0100
0010
0001
,
2000
0000
3010
0100
0001
1000
0002
0000
0013
0100
1000
0100
0010
0001
1000
0001
,
0200
0000
0310
1000
0001
1000
0020
0000
0130
0000
0100
0000
0001
1000
0001
1000
,
0001
0010
0100
1000
0010
1000
0001
0010
0100
1000
0010
1000
0001
0010
0100
1000
,
0010
0000
0000
1000
0000
0000
0001
0000
0000
0010
0000
0000
0100
0000
0000
1000
0000
0000
0010
0000
0000
1000
0000
0000
0001
0000
0000
0100
0000
0000
0010
0000
0000
1000
0000
0000
0001
0000
0100
0000
0001
0000
0100
0000
0000
0010
0000
0000
,
1000
0100
0010
0001
0100
0001
1000
0100
0010
0001
0100
0001
1000
0100
0010
0001
,
0100
0001
1000
0100
0010
0001
0100
0001
1000
0100
0010
0001
0100
0001
1000
0001
,
1000
0010
0100
0001
1000
0001
1000
0010
0100
0001
0010
0001
1000
0010
0100
0001
,
1000
0100
0010
0001
1000
0010
0100
0001
0010
0001
1000
0010
0100
0001
1000
0001
,
1000
0100
0010
0100
1000
0001
1000
0100
0010
0100
1000
0010
1000
0100
0010
0001
,
1000
0010
0100
0001
1000
0001
1000
0010
0100
0010
1000
0001
1000
0100
0010
0001
,
1000
0010
1000
0010
1000
0001
0100
0010
0100
0010
0100
0001
1000
0100
1000
0100
,
1000
0001
0010
0100
0010
0100
0010
0001
1000
0010
0100
0001
0010
0100
1000
0001
,
2000
0000
0000
3000
0000
0000
0000
0000
0000
0000
0000
0000
0000
0000
0000
0000
;
