#TITLE:Super Sound Surround;
#SUBTITLE:;
#ARTIST:Buffering...Inc.;
#TITLETRANSLIT:;
#SUBTITLETRANSLIT:;
#ARTISTTRANSLIT:;
#GENRE:;
#CREDIT:;
#BANNER:supersoundsurround-bn.png;
#BACKGROUND:supersoundsurround-bg.png;
#LYRICSPATH:;
#CDTITLE:;
#MUSIC:Buffering Inc - Super Sound Surround.ogg;
#OFFSET:-0.030;
#SAMPLESTART:198.748;
#SAMPLELENGTH:12.000;
#SELECTABLE:YES;
#DISPLAYBPM:128.000;
#BPMS:0.000=128.000,126.000=256.000,127.000=128.000,145.000=256.000,146.000=128.000,147.000=128.000,148.000=256.000,149.000=128.000,153.000=256.000,154.000=128.000,157.000=256.000,161.000=128.000,162.000=256.000,163.000=128.000,193.000=256.000,195.000=128.000,198.000=256.000,199.000=128.000,201.000=256.000,203.000=128.000,204.000=256.000,205.500=128.000,206.500=256.000,207.500=128.000,208.500=256.000,209.000=128.000,210.000=256.000,211.000=128.000,214.000=256.000,215.000=128.000,217.000=256.000,218.000=128.000,219.000=256.000,220.000=128.000,221.000=128.000,222.500=256.000,223.000=64.000,223.750=320.000,225.000=128.000,226.000=256.000,227.000=128.000,229.000=256.000,229.500=128.000,230.000=256.000,230.500=128.000,231.000=256.000,231.500=128.000,232.000=256.000,233.000=128.000,242.000=256.000,243.000=128.000,245.000=256.000,245.500=128.000,246.000=256.000,247.500=128.000,248.000=256.000,249.000=128.000,260.000=256.000,261.000=128.000,262.000=256.000,263.000=128.000,264.000=256.000,265.000=128.000,273.000=128.000,274.000=256.000,275.000=128.000,277.000=256.000,278.000=128.000,282.000=256.000,283.000=128.000,284.000=256.000,285.000=128.000,349.000=64.000,350.000=256.000,352.000=256.000,354.000=128.000,357.000=256.000,358.000=128.000,359.000=256.000,360.000=128.000,366.000=256.000,367.000=128.000,368.000=256.000,370.000=128.000,375.000=256.000,376.000=128.000,384.000=256.000,386.000=64.000,387.000=256.000,389.000=128.000,399.000=256.000,401.000=64.000,402.000=256.000,404.000=128.000,414.000=64.000,416.000=256.000,416.500=128.000,417.000=256.000,417.500=128.000,418.000=256.000,418.500=128.000,419.000=256.000,419.500=128.000,420.000=256.000,420.500=128.000,421.000=256.000,421.500=128.000,422.000=256.000,422.500=128.000,423.000=256.000,423.500=128.000,424.000=256.000,424.500=128.000,425.000=256.000,425.500=128.000,426.000=256.000,426.500=128.000,427.000=256.000,427.500=128.000,428.000=256.000,428.500=128.000,429.000=256.000,429.500=128.000,430.000=256.000,430.500=128.000,431.000=256.000,431.500=128.000,432.000=256.000,432.500=128.000,433.000=256.000,433.500=128.000,434.000=256.000,434.500=128.000,435.000=256.000,435.500=128.000,436.000=256.000,436.500=128.000,437.000=256.000,437.500=128.000,438.000=256.000,438.500=128.000,439.000=256.000,439.500=128.000,440.000=256.000,444.000=128.000,476.000=64.000,477.000=256.000,479.000=128.000,510.000=256.000,511.000=128.000,513.000=256.000,514.000=128.000,518.000=256.000,519.000=128.000,522.000=256.000,528.000=128.000,529.000=256.000,530.000=128.000,534.000=256.000,535.000=128.000,538.000=256.000,542.000=128.000;
#STOPS:110.000=0.470
,126.000=0.118
,126.500=0.117
,143.000=0.939
,145.000=0.117
,145.500=0.118
,148.000=0.117
,148.500=0.117
,153.000=0.059
,153.250=0.058
,153.500=0.059
,153.750=0.058
,157.000=0.118
,157.500=0.117
,158.000=0.117
,158.500=0.118
,159.000=0.117
,159.500=0.117
,160.000=0.118
,160.500=0.117
,162.000=0.117
,162.500=0.118
,193.000=0.117
,193.500=0.117
,194.000=0.118
,194.500=0.117
,198.000=0.117
,198.500=0.118
,201.000=0.117
,201.500=0.117
,202.000=0.118
,202.500=0.117
,204.000=0.117
,204.500=0.118
,205.000=0.117
,206.500=0.117
,207.000=0.118
,208.500=0.059
,208.750=0.058
,210.000=0.118
,210.500=0.117
,214.000=0.117
,214.500=0.118
,217.000=0.117
,217.500=0.117
,219.000=0.118
,219.500=0.117
,222.500=0.059
,222.750=0.058
,226.000=0.117
,226.500=0.118
,229.000=0.117
,230.000=0.117
,231.000=0.118
,232.000=0.117
,232.500=0.117
,242.000=0.118
,242.500=0.117
,245.000=0.117
,246.000=0.118
,246.500=0.117
,247.000=0.117
,248.000=0.118
,248.500=0.117
,260.000=0.059
,260.250=0.058
,260.500=0.059
,260.750=0.058
,262.000=0.117
,262.500=0.118
,264.000=0.117
,264.500=0.117
,274.000=0.118
,274.500=0.117
,277.000=0.117
,277.500=0.118
,282.000=0.117
,282.500=0.117
,284.000=0.118
,284.500=0.117
,350.000=0.059
,350.250=0.058
,350.500=0.059
,350.750=0.058
,351.000=0.059
,351.250=0.058
,351.500=0.059
,351.750=0.058
,352.000=0.117
,352.500=0.118
,353.000=0.117
,353.500=0.117
,357.000=0.118
,357.500=0.117
,359.000=0.117
,359.500=0.118
,366.000=0.117
,366.500=0.117
,368.000=0.118
,368.500=0.117
,369.000=0.117
,369.500=0.118
,375.000=0.059
,375.250=0.058
,375.500=0.059
,375.750=0.058
,384.000=0.117
,384.500=0.117
,385.000=0.118
,385.500=0.117
,387.000=0.117
,387.500=0.118
,388.000=0.117
,388.500=0.117
,399.000=0.118
,399.500=0.117
,400.000=0.117
,400.500=0.118
,402.000=0.117
,402.500=0.117
,403.000=0.118
,403.500=0.117
,416.000=0.117
,417.000=0.118
,418.000=0.117
,419.000=0.117
,420.000=0.118
,421.000=0.117
,422.000=0.117
,423.000=0.118
,424.000=0.117
,425.000=0.117
,426.000=0.118
,427.000=0.117
,428.000=0.117
,429.000=0.118
,430.000=0.117
,431.000=0.117
,432.000=0.118
,433.000=0.117
,434.000=0.117
,435.000=0.118
,436.000=0.117
,437.000=0.117
,438.000=0.118
,439.000=0.117
,440.000=0.117
,440.500=0.118
,441.000=0.117
,441.500=0.117
,442.000=0.118
,442.500=0.117
,443.000=0.117
,443.500=0.118
,477.000=0.059
,477.250=0.058
,477.500=0.059
,477.750=0.058
,478.000=0.059
,478.250=0.058
,478.500=0.059
,478.750=0.058
,509.000=0.472
,510.000=0.117
,510.500=0.117
,513.000=0.118
,513.500=0.117
,518.000=0.059
,518.250=0.058
,518.500=0.059
,518.750=0.058
,522.000=0.117
,522.500=0.118
,523.000=0.117
,523.500=0.117
,524.000=0.118
,524.500=0.117
,525.000=0.117
,525.500=0.118
,526.000=0.117
,526.500=0.117
,527.000=0.118
,527.500=0.117
,529.000=0.117
,529.500=0.118
,534.000=0.059
,534.250=0.058
,534.500=0.059
,534.750=0.058
,538.000=0.117
,538.500=0.117
,539.000=0.118
,539.500=0.117
,540.000=0.117
,540.500=0.118
,541.000=0.117
,541.500=0.117
;
#BGCHANGES:18.000=Buffering Inc - Super Sound Surround.avi=1.000=1=0=1===CrossFade==,
542.000=supersoundsurround-bg.png=1.000=0=0=1=Centered====,
99999=-nosongbg-=1.000=0=0=0 // don't automatically add -songbackground-
;
#KEYSOUNDS:;

//---------------dance-single - C.Sanabria----------------
#NOTES:
     dance-single:
     C.Sanabria:
     Challenge:
     11:
     0.794,1.000,0.108,0.943,0.645:
0000
0000
0000
0000
,
0000
0000
0000
0000
,
0000
0000
0000
0000
,
0000
0000
0000
0000
,
2001
000M
3100
0000
1002
M000
0103
0000
,
2001
000M
3010
0000
1002
M000
0013
0000
,
1200
M000
0310
0000
0201
000M
0310
0000
,
2100
0M00
3010
0000
0102
0M00
0013
0000
,
2000
0000
3010
0100
0001
0000
0010
0000
0002
0000
0103
0010
1000
0000
0100
0000
,
2000
0000
3100
0010
0001
0000
0100
0000
0002
0000
0013
0100
1000
0000
0010
0000
,
0200
0000
0301
0010
0100
0000
1000
0000
0020
0000
1030
0010
0100
0000
0001
0000
,
2000
0000
3010
1000
0100
0000
0010
0000
0002
0000
0103
0001
0010
0000
0100
0000
,
1000
0010
1000
0010
0100
0001
0100
0001
1000
0100
1000
0100
0010
0001
0010
0001
,
1000
0010
0100
0010
1000
0001
1000
0001
0010
0100
0010
0001
1000
0001
1000
0001
,
1000
0100
0010
0001
0100
0001
0100
0010
0100
0001
0010
0100
1000
0010
1000
0001
,
1000
0010
0100
0001
1000
0001
0100
0010
1000
0001
1000
0010
0100
0001
1000
0001
0010
0100
1000
0001
1000
0100
0010
0001
,
2000
0010
0010
0010
,
3002
0100
0100
0100
,
2003
0010
0001
0100
,
3002
0010
1000
0103
,
2010
00M0
0001
000M
0100
0M00
3010
0000
,
0102
0M00
0010
00M0
1000
M000
0103
0000
,
2000
00M0
3020
0M00
0230
000M
0302
00M0
,
0023
0M00
0000
0M00
0230
00M0
0000
00M0
,
1300
0010
0100
0010
1000
0010
0100
0010
1000
0001
1000
0001
0010
0100
0010
0100
,
1000
0010
0100
0001
0100
0010
1000
0001
1000
0100
0010
0001
0100
0010
1000
0001
,
1000
0100
0010
0001
0100
0001
0010
0100
1000
0010
0100
0001
0100
0010
1000
0001
,
1000
0100
0010
0001
0100
0010
1000
0001
1000
0000
M00M
0000
0101
0000
0000
0010
,
1000
0000
0001
0000
1100
0000
0000
0100
1000
0000
0010
0000
0101
0000
0000
0100
,
0010
0000
1000
0000
0002
0000
0023
0000
0230
0000
2300
0000
3001
0000
0000
1000
,
0100
0000
0010
0000
1100
0000
0000
0001
0010
0000
0100
0000
1001
0000
0000
1000
,
0010
0000
0100
0000
0002
0000
0023
0000
0230
0000
2300
0000
3010
0000
0100
0001
,
00M0
0001
0200
0000
0310
0000
1000
0002
0M00
0000
0013
0000
0100
0000
1000
0010
,
0M00
0010
2000
0000
3200
0000
0320
0000
0032
0000
0203
0000
0310
0000
1000
0100
,
00M0
0100
2000
0000
3010
0000
0100
0002
M000
0000
0013
0000
0100
0000
1000
0010
,
000M
0010
0100
0000
0002
0000
0023
0000
0230
0000
2300
0000
3001
0000
M00M
0000
,
0220
0330
4000
0000
3010
00M0
0002
0000
,
0103
0000
0010
0000
0200
0000
0000
0000
0301
0010
0100
1000
0001
0100
0010
1000
,
0010
0100
0001
1000
0004
0000
0000
0000
0203
0000
0000
0000
0310
0000
0100
0000
,
0010
1000
0002
0010
2003
0010
3002
0100
,
2003
0100
3002
0000
0403
0000
0320
0000
,
1030
0000
0001
0000
1000
0100
0010
0100
1000
0010
1000
0010
1000
0100
0010
0001
,
0100
0010
0100
0010
1000
0001
1000
0100
0010
0001
0100
0010
1000
0001
0010
0100
,
1000
0000
0000
0001
0000
0000
0100
0000
0000
0010
0000
0000
1000
0000
0100
0000
1000
0000
0001
0000
0010
0000
0001
0000
1000
0000
0010
0000
1000
0000
0001
0000
0100
0000
0001
0000
1000
0000
0100
0000
0010
0000
0001
0000
1000
0000
0001
0000
,
0010
0100
1000
0001
1000
0010
0200
0000
0000
0000
0000
0000
0010
0000
0000
0000
0000
0000
0010
0000
0000
0000
0000
0000
,
0010
0000
0320
0000
2030
00M0
3002
M000
,
0203
000M
0320
0M00
2030
00M0
3002
M000
,
2003
000M
0001
000M
3002
M000
1000
M000
,
1003
0000
0000
0000
0000
0000
0020
0000
0000
0000
0000
0000
0430
0000
0000
0000
0000
0000
0301
0010
0100
1000
0001
1000
,
0100
0010
0001
1000
0001
0100
0020
0000
0000
0000
0000
0000
4030
0000
0000
0000
0000
0000
3002
0000
0000
0023
0000
0000
,
0230
2300
3040
0000
0430
0000
0302
0000
,
4003
0000
3001
0020
0000
0130
1000
0002
,
0000
0000
0000
0000
0000
0000
1003
0000
0000
0100
0000
0000
0020
0000
0000
0000
0000
0000
0000
0000
0000
0000
0000
0000
0034
0000
0000
0000
0000
0000
0000
0000
0000
0000
0000
0000
1003
0000
0010
0000
0100
0000
0001
0000
1000
0000
0001
0000
,
0010
0000
0100
0000
1000
0000
0001
0000
1000
0000
0010
0000
0200
0000
0000
0000
0000
0000
0000
0000
0000
0000
0000
0000
0304
0000
0000
0000
0000
0000
0000
0000
0000
0000
0000
0000
1003
0000
0000
0100
0000
0000
1000
0000
0000
0100
0000
0000
,
0020
0000
0000
0000
0000
0000
0000
0000
0000
0000
0000
0000
0000
0000
0000
0000
0000
0000
0000
0000
0000
0000
0000
0000
0000
0000
0000
0000
0000
0000
0000
0000
0000
0000
0000
0000
0000
0000
0000
0000
0000
0000
0000
0000
0000
0000
0000
0000
0032
0000
0000
0000
0000
0000
0000
0000
0000
0000
0000
0000
0000
0000
0000
0000
0000
0000
0000
0000
0000
0000
0000
0003
0002
0000
0000
0000
0000
0000
0000
0000
0000
0000
0000
0000
0000
0000
0000
0000
0000
0000
0000
0000
0000
0000
0000
0000
0403
0000
0000
0000
0000
0000
0000
0000
0000
0000
0000
0000
0000
0000
0000
0000
0000
0000
0000
0000
0000
0000
0000
0000
0000
0000
0000
0000
0000
0000
0000
0000
0000
0000
0000
0000
0000
0000
0000
0000
0000
0000
0000
0000
0000
0000
0000
0000
0320
0000
0000
0000
0000
0000
0000
0000
0000
0000
0000
0000
0000
0000
0000
0000
0000
0000
0000
0000
0000
0000
0000
0030
0020
0000
0000
0000
0000
0000
0000
0000
0000
0000
0000
0000
0000
0000
0000
0000
0000
0000
0000
0000
0000
0000
0000
0000
,
4030
0000
0000
0000
3002
0000
0000
0000
0023
0000
0130
2000
0002
3003
0000
0000
,
0000
0000
0000
M00M
0000
0000
2000
0000
0000
0000
0000
0000
3040
0000
0000
0000
0000
0000
0130
0001
1000
0001
0100
0010
,
1000
0001
1000
0001
0100
0010
2000
0000
0000
3200
0000
0000
0320
0000
0000
0032
0000
0000
0203
0000
0000
0320
0000
0000
,
4030
0000
0000
0000
3001
0000
0010
0001
0010
0000
0001
0100
0001
0000
1000
0010
,
1000
0000
0100
1000
0100
0000
0010
0001
0010
0000
0001
1000
0001
0000
1000
0200
,
0000
0000
0000
0310
0000
0000
1002
0000
0000
0000
0000
0000
0403
0000
0000
0000
0000
0000
0310
1000
0001
1000
0001
0100
,
0010
1000
0001
1000
0001
0010
0200
0000
0000
2300
0000
0000
3004
0000
0000
0000
0000
0000
0203
0000
0000
0320
0000
0000
,
4030
0000
0000
0000
3001
0000
0010
0100
1000
0000
0001
0100
0001
0000
0100
0010
,
1000
0000
0001
0010
0001
0000
1000
0100
1000
0000
0001
0000
0200
0000
0000
0310
,
0100
0001
2000
0000
3200
0000
0310
0100
,
0010
0000
0000
0000
0000
0000
0000
0000
0000
0000
0000
0000
0001
0000
0000
0000
0000
0000
0000
0000
0000
0000
0000
0000
1000
0000
0000
0000
0000
0000
0000
0000
0000
0000
0000
0000
0010
0000
0000
0000
0000
0000
0000
0000
0000
0000
0000
0000
0400
0000
0000
0000
0000
0000
0000
0000
0000
0000
0000
0000
0000
0000
0000
0000
0000
0000
0000
0000
0000
0000
0000
0000
0000
0000
0000
0000
0000
0000
0000
0000
0000
0000
0000
0000
0000
0000
0000
0000
0000
0000
0000
0000
0000
0000
0000
0000
0302
0000
0000
0000
0000
0000
0000
0000
0000
0000
0000
0000
0000
0000
0000
0000
0000
0000
0000
0000
0000
0000
0000
0003
0002
0000
0000
0000
0000
0000
0000
0000
0000
0000
0000
0000
0000
0000
0000
0000
0000
0000
0000
0000
0000
0000
0000
0000
4003
0000
0000
0000
0000
0000
0000
0000
0000
0000
0000
0000
0000
0000
0000
0000
0000
0000
0000
0000
0000
0000
0000
0000
0000
0000
0000
0000
0000
0000
0000
0000
0000
0000
0000
0000
0000
0000
0000
0000
0000
0000
0000
0000
0000
0000
0000
0000
,
3200
0000
0000
0000
0000
0000
0000
0000
0000
0000
0000
0000
0000
0000
0000
0000
0000
0000
0000
0000
0000
0000
0000
0300
0200
0000
0000
0000
0000
0000
0000
0000
0000
0000
0000
0000
0000
0000
0000
0000
0000
0000
0000
0000
0000
0000
0000
0000
0310
0000
0000
0000
0000
0000
0000
0000
0000
0000
0000
0000
0000
0000
0000
0000
0000
0000
0000
0000
0000
0000
0000
0000
0001
0000
0000
0000
0000
0000
0000
0000
0000
0000
0000
0000
0100
0000
0000
0000
0000
0000
0000
0000
0000
0000
0000
0000
0010
0000
0000
0000
0000
0000
0000
0000
0000
0000
0000
0000
0000
0000
0000
0000
0000
0000
0000
0000
0000
0000
0000
0000
1000
0000
0000
0000
0000
0000
0000
0000
0000
0000
0000
0000
0100
0000
0000
0000
0000
0000
0000
0000
0000
0000
0000
0000
1000
0000
0000
0000
0000
0000
0000
0000
0000
0000
0000
0000
0000
0000
0000
0000
0000
0000
0000
0000
0000
0000
0000
0000
0100
0000
0000
0000
0000
0000
0000
0000
0000
0000
0000
0000
0010
0000
0000
0000
0000
0000
0000
0000
0000
0000
0000
0000
,
0001
0000
0100
0001
0100
0000
0010
1000
0010
0000
0100
0000
0002
0000
0000
2003
,
0000
0000
0000
3200
0000
0000
0320
0000
0000
0000
0000
0000
0034
0000
0000
0000
0000
0000
1003
0010
1000
0001
0100
0001
,
1000
0000
0100
0000
0010
0000
0001
0000
1000
0000
0001
0000
4000
0000
0000
0000
0000
0000
0000
0000
0000
0000
0000
0000
3010
0000
0000
0000
0000
0000
1000
0000
0000
0100
0000
0000
1000
0000
0000
0000
0000
0000
0100
0000
0000
0010
0000
0000
,
0100
0000
0000
0000
0000
0000
0000
0000
0000
0000
0000
0000
0000
0000
0000
0000
0000
0000
0000
0000
0000
0000
0000
0000
0010
0000
0000
0000
0000
0000
0000
0000
0000
0000
0000
0000
0001
0000
0000
0000
0000
0000
0000
0000
0000
0000
0000
0000
0040
0000
0000
0000
0000
0000
0000
0000
0000
0000
0000
0000
0000
0000
0000
0000
0000
0000
0000
0000
0000
0000
0000
0000
0000
0000
0000
0000
0000
0000
0000
0000
0000
0000
0000
0000
0000
0000
0000
0000
0000
0000
0000
0000
0000
0000
0000
0000
0032
0000
0000
0000
0000
0000
0000
0000
0000
0000
0000
0000
0000
0000
0000
0000
0000
0000
0000
0000
0000
0000
0000
0003
0002
0000
0000
0000
0000
0000
0000
0000
0000
0000
0000
0000
0000
0000
0000
0000
0000
0000
0000
0000
0000
0000
0000
0000
4003
0000
0000
0000
0000
0000
0000
0000
0000
0000
0000
0000
0000
0000
0000
0000
0000
0000
0000
0000
0000
0000
0000
0000
0000
0000
0000
0000
0000
0000
0000
0000
0000
0000
0000
0000
0000
0000
0000
0000
0000
0000
0000
0000
0000
0000
0000
0000
,
3020
0000
0000
0000
0000
0000
0000
0000
0000
0000
0000
0000
0000
0000
0000
0000
0000
0000
0000
0000
0000
0000
0000
0030
0020
0000
0000
0000
0000
0000
0000
0000
0000
0000
0000
0000
0000
0000
0000
0000
0000
0000
0000
0000
0000
0000
0000
0000
0130
0000
0000
0000
0000
0000
0000
0000
0000
0000
0000
0000
0000
0000
0000
0000
0000
0000
0000
0000
0000
0000
0000
0000
0010
0000
0000
0000
0000
0000
0000
0000
0000
0000
0000
0000
0100
0000
0000
0000
0000
0000
0000
0000
0000
0000
0000
0000
0001
0000
0000
0000
0000
0000
0000
0000
0000
0000
0000
0000
0000
0000
0000
0000
0000
0000
0000
0000
0000
0000
0000
0000
1000
0000
0000
0000
0000
0000
0000
0000
0000
0000
0000
0000
0100
0000
0000
0000
0000
0000
0000
0000
0000
0000
0000
0000
0010
0000
0000
0000
0000
0000
0000
0000
0000
0000
0000
0000
0000
0000
0000
0000
0000
0000
0000
0000
0000
0000
0000
0000
0001
0000
0000
0000
0000
0000
0000
0000
0000
0000
0000
0000
1000
0000
0000
0000
0000
0000
0000
0000
0000
0000
0000
0000
,
0001
0010
0100
0000
0100
0000
0100
0000
,
0100
1000
1000
1000
,
1000
0001
0001
0001
,
0001
0100
0100
0100
,
0100
0000
0000
0000
0020
0000
2000
0030
0020
3000
2000
0030
0002
3000
0200
0003
,
0002
0300
0200
0003
0020
0300
2000
0030
0002
3000
2000
0003
0200
3000
0020
0300
,
0002
0030
0200
0003
0020
0300
2000
0030
0020
3000
2000
0030
0002
3000
2000
0003
,
0002
3000
2000
0003
0200
3000
0020
0300
0200
0030
0020
0300
0002
0030
0200
0003
,
0020
0300
2000
0030
3001
0000
0010
0000
0001
0000
0100
0000
0010
0000
2000
0000
,
0100
000M
3100
0000
1000
0000
0010
0000
1000
0000
0100
0000
0010
0000
0002
0000
,
0100
M000
0103
0000
0001
0000
0010
0000
0001
0000
1000
0000
0001
0000
0100
0000
,
0001
1000
0001
0010
0001
0010
0100
1000
,
0100
0000
1000
0000
0001
0100
0010
0100
0001
1000
0010
0100
0010
1000
0001
0010
,
0100
0010
0001
1000
0100
0010
0100
1000
0001
0100
0010
1000
0100
1000
0010
0100
,
0001
1000
0001
0010
0100
1000
0001
0100
0010
1000
0100
1000
0010
0100
0001
1000
,
0100
0010
0001
0100
00M0
000M
M000
0M00
0002
0203
0320
2030
3002
0023
0230
2300
,
3004
0000
0000
0000
0000
0000
0000
0000
0000
0000
0000
0000
0000
0000
0000
0000
0000
0000
0000
0000
0000
0000
0000
0000
0000
0000
0000
0000
0000
0000
0000
0000
0000
0000
0000
0000
0000
0000
0000
0000
0000
0000
0000
0000
0000
0000
0000
0000
0203
0000
0000
0000
0000
0000
0000
0000
0000
0000
0000
0000
0000
0000
0000
0000
0000
0000
0000
0000
0000
0000
0000
0300
0200
0000
0000
0000
0000
0000
0000
0000
0000
0000
0000
0000
0000
0000
0000
0000
0000
0000
0000
0000
0000
0000
0000
0000
0310
0000
0000
0000
0000
0000
0000
0000
1000
0000
0000
0000
0000
0000
0000
0000
0001
0000
0000
0000
0000
0000
0000
0000
1000
0000
0000
0000
0000
0000
0000
0000
0001
0000
0000
0000
0000
0000
0000
0000
0100
0000
0000
0000
0000
0000
0000
0000
0010
0000
0000
0000
0000
0000
0000
0000
1000
0000
0000
0000
0000
0000
0000
0000
0001
0000
0000
0000
0000
0000
0000
0000
1000
0000
0000
0000
0000
0000
0000
0000
0010
0000
0000
0000
0000
0000
0000
0000
0100
0000
0000
0000
0000
0000
0000
0000
,
0004
0000
0000
0000
0000
0000
0000
0000
0000
0000
0000
0000
0000
0000
0000
0000
0000
0000
0000
0000
0000
0000
0000
0000
0000
0000
0000
0000
0000
0000
0000
0000
0000
0000
0000
0000
0000
0000
0000
0000
0000
0000
0000
0000
0000
0000
0000
0000
0023
0000
0000
0000
0000
0000
0000
0000
0000
0000
0000
0000
0000
0000
0000
0000
0000
0000
0000
0000
0000
0000
0000
0030
0020
0000
0000
0000
0000
0000
0000
0000
0000
0000
0000
0000
0000
0000
0000
0000
0000
0000
0000
0000
0000
0000
0000
0000
0430
0000
0000
0000
0000
0000
0000
0000
0000
0000
0000
0000
0000
0000
0000
0000
0000
0000
0000
0000
0000
0000
0000
0000
0000
0000
0000
0000
0000
0000
0000
0000
0000
0000
0000
0000
0000
0000
0000
0000
0000
0000
0000
0000
0000
0000
0000
0000
2300
0000
0000
0000
0000
0000
0000
0000
0000
0000
0000
0000
0000
0000
0000
0000
0000
0000
0000
0000
0000
0000
0000
3000
2000
0000
0000
0000
0000
0000
0000
0000
0000
0000
0000
0000
0000
0000
0000
0000
0000
0000
0000
0000
0000
0000
0000
0000
,
3001
0100
0010
1000
0100
1000
0010
0100
,
0004
0000
0000
0000
0000
0000
0000
0000
0000
0000
0000
0000
0000
0000
0000
0000
0000
0000
0000
0000
0000
0000
0000
0000
0000
0000
0000
0000
0000
0000
0000
0000
0000
0000
0000
0000
0000
0000
0000
0000
0000
0000
0000
0000
0000
0000
0000
0000
0043
0000
0000
0000
0000
0000
0000
0000
0000
0000
0000
0000
0000
0000
0000
0000
0000
0000
0000
0000
0000
0000
0000
0000
0000
0000
0000
0000
0000
0000
0000
0000
0000
0000
0000
0000
0000
0000
0000
0000
0000
0000
0000
0000
0000
0000
0000
0000
0230
0000
0000
0000
0000
0000
0000
0000
0000
0000
0000
0000
0000
0000
0000
0000
0000
0000
0000
0000
0000
0000
0000
0300
0200
0000
0000
0000
0000
0000
0000
0000
0000
0000
0000
0000
0000
0000
0000
0000
0000
0000
0000
0000
0000
0000
0000
0000
1300
0000
0000
0000
0000
0000
0000
0000
0000
0000
0000
0000
0000
0000
0000
0000
0000
0000
0000
0000
0000
0000
0000
0000
0010
0000
0000
0000
0000
0000
0000
0000
0000
0000
0000
0000
1000
0000
0000
0000
0000
0000
0000
0000
0000
0000
0000
0000
,
0001
0001
0100
0100
0020
0000
1030
0001
,
1000
0100
0010
0001
0100
0001
0010
0100
1000
0010
1000
0010
0200
0000
0000
0000
,
0301
0000
0020
0000
0000
0000
0130
0000
1000
0001
1000
0000
0020
0000
0000
1030
,
0100
0010
0001
0000
0200
0000
0000
0000
0000
0310
1000
0000
0002
0000
0000
0000
,
1003
0000
1000
0000
0100
0000
0100
0000
0020
000M
0M00
M000
0031
0000
0100
0000
,
0010
0000
1000
0000
0400
0000
0000
0000
0340
0000
0000
0000
0031
0100
0010
1000
,
0100
0000
0100
1000
0001
1000
0001
0200
0000
0000
0000
0000
0310
0000
0010
0000
,
1000
0000
1000
0000
1100
0000
0000
0011
0000
0000
1001
0000
1000
0000
0010
0000
,
0100
0000
0001
0000
0020
000M
0M00
M000
0031
0000
0001
0000
0100
0000
0010
0000
,
4000
0000
0000
0000
3400
0000
0000
0000
0310
0001
0100
0001
1000
0000
1000
0100
,
0010
0001
0100
0002
0000
0000
0000
0000
1003
0000
1000
0000
0010
0000
0010
0000
,
0101
0000
0000
0110
0000
0000
1001
0000
0000
0000
0000
0000
0000
0000
0000
0000
,
2000
3010
2000
3010
0200
0301
0200
0301
,
2000
3100
2000
3100
0020
0031
0020
0031
,
2000
3010
0200
0301
2000
3010
0200
0301
,
2000
3100
0020
0031
2000
3100
0020
0031
,
4000
3020
0430
0302
0043
0230
4300
3020
,
4030
3200
0340
0032
0403
0320
4030
3002
,
1003
0100
0010
0100
0001
0100
0010
0100
,
1000
0010
0100
0010
0001
0010
0100
0010
,
1000
0100
0010
0010
0002
0000
1003
0MM0
,
0001
0100
0010
0010
2000
0000
3001
0MM0
,
1000
0010
0400
0000
0301
1000
0004
0000
,
0013
0100
1000
1000
0001
0001
0200
0000
,
0310
1000
0001
1000
0100
0010
0100
0010
0001
0100
0010
1000
0001
0010
0001
0010
,
0100
1000
0100
1000
0001
0100
0010
1000
0100
1000
0010
0100
0001
1000
0001
0100
,
0010
1000
0001
0100
0001
1000
0010
1000
0001
0010
0001
1000
0100
1000
0001
0100
0010
1000
0001
1000
0001
0100
0010
1000
,
0001
0000
0000
0000
2000
3002
0203
0302
2003
3002
0023
0230
1300
0000
0000
0001
,
0010
0000
0001
0000
0101
0000
0000
0100
0001
0000
0010
0000
1100
0000
0000
0100
,
0010
0000
0001
0000
2000
0000
3020
0000
0230
0000
0302
0000
1003
0000
0000
0001
,
0100
0000
0010
0000
0101
0000
0000
1000
0010
0000
0100
0000
1001
0000
0000
0001
,
0010
0000
0100
0000
2000
0000
3020
0000
0230
0000
0302
0000
0013
0000
0100
1000
,
00M0
1000
0200
0000
0310
0000
0001
2000
0000
0000
3010
0000
0100
0000
0001
0010
,
0M00
0010
0002
0000
0203
0000
0320
0000
2030
0000
3200
0000
0310
0000
0001
0100
,
00M0
0100
0002
0000
0013
0000
0100
2000
0000
0000
3010
0000
0100
0000
0001
0010
,
M000
0010
0100
0000
1001
0000
0000
0000
4000
0000
0000
0000
3010
0000
00M0
0000
,
0002
0000
0000
0000
0103
0000
0010
0000
0200
0000
0000
0000
0301
0010
0100
1000
,
0010
0000
0000
1000
0000
0001
0000
1000
0000
0001
0000
0000
0010
0000
0000
0100
0000
0000
1000
0000
0000
0001
0000
0000
4000
0000
0000
0000
0000
0000
0000
0000
0000
0000
0000
0000
3200
0000
0000
0000
0000
0000
0000
0000
0000
0000
0000
0000
,
0310
0100
0010
0001
2000
0010
3002
0010
,
2003
0100
3002
0100
4003
0000
3010
00M0
,
0002
0000
0000
0000
0103
0000
0010
0000
0200
0000
0000
0000
0301
0010
0100
1000
,
0010
1000
0001
0010
0100
1000
0001
0100
0004
0000
0000
0000
0203
0000
0000
0000
,
0310
0100
0010
1000
0002
0010
2003
0010
,
3002
0100
2003
0100
3001
0000
0000
0000
;
