#TITLE:Summer Tide;
#SUBTITLE:(Rozza Remix);
#ARTIST:Dan Stone & Phil Young;
#TITLETRANSLIT:;
#SUBTITLETRANSLIT:;
#ARTISTTRANSLIT:;
#GENRE:;
#CREDIT:;
#BANNER:summertiderozza-bn.png;
#BACKGROUND:summertiderozza-bg.png;
#LYRICSPATH:;
#CDTITLE:;
#MUSIC:Dan Stone & Phil Young - Summer Tide (Rozza Remix).ogg;
#OFFSET:-0.240;
#SAMPLESTART:97.530;
#SAMPLELENGTH:12.000;
#SELECTABLE:YES;
#DISPLAYBPM:138.000;
#BPMS:0.000=138.000,638.750=276.000,640.000=138.000,830.750=276.000,832.000=138.000;
#STOPS:638.750=0.055
,639.000=0.055
,639.250=0.055
,639.500=0.055
,639.750=0.055
,830.750=0.055
,831.000=0.055
,831.250=0.055
,831.500=0.055
,831.750=0.055
;
#BGCHANGES:;
#KEYSOUNDS:;

//---------------dance-single - C.Sanabria----------------
#NOTES:
     dance-single:
     C.Sanabria:
     Challenge:
     12:
     0.953,0.948,0.000,0.443,1.000:
0000
0000
0000
0000
,
0000
0000
0000
0000
,
0000
0000
0000
0000
,
0000
0000
0000
0000
,
1000
0000
0000
0010
0100
0000
0000
0000
0001
0000
0000
0010
0100
0000
0000
0000
,
0010
0000
0000
0001
0100
0000
0010
0000
1000
0000
0000
0100
0010
0000
0000
0000
,
0001
0000
0000
0100
0010
0000
0000
0000
1000
0000
0000
0100
0010
0000
0000
0000
,
0001
0000
0000
0000
0000
0000
0000
0000
0000
1000
0000
0000
0010
0000
0000
0000
0000
0000
0100
0000
0000
0000
0000
0000
0001
0000
0000
0000
0000
0000
0000
0000
0000
0010
0000
0000
0100
0000
0000
1000
0000
0000
0001
0000
1000
0000
0001
0000
,
1000
0010
0100
0001
0010
0001
0100
0010
,
1000
0100
0010
0100
1000
0010
0100
0001
,
1000
0100
1000
0100
0010
0001
0100
0010
,
1000
0100
0010
0100
1000
0001
0100
0010
,
1000
0010
0100
0001
0010
0001
0100
0010
,
1000
0100
0010
0100
1000
0010
0100
0001
,
1000
0100
1000
0100
0010
0001
0100
0010
,
0M00
0000
0000
0000
0000
0000
M000
0000
0000
0000
0000
0000
000M
0000
0000
0000
0000
0000
0M00
0000
0000
0000
0000
0000
00M0
0000
0000
0000
0000
0000
M000
0000
0000
0000
0000
0000
0010
0000
0000
1000
0000
0000
0001
0000
1000
0000
0001
0000
,
1000
0100
0010
0100
1000
0001
0100
0010
1000
0001
1000
0001
0010
0100
1000
0001
,
1000
0100
0010
0001
1000
0010
0100
0010
1000
0100
0010
0001
1000
0010
0100
0001
,
1000
0100
0010
0100
1000
0001
0100
0010
1000
0001
1000
0001
0010
0100
1000
0001
,
1000
0100
0010
0001
1000
0010
0100
0010
1000
0100
0010
0001
1000
0010
0100
0001
,
1000
0010
0100
0010
1000
0001
0010
0100
1000
0001
1000
0001
0100
0010
1000
0001
,
1000
0010
0100
0001
1000
0100
0010
0100
1000
0010
0100
0001
1000
0100
0010
0001
,
1000
0010
0100
0010
1000
0001
0010
0100
1000
0001
1000
0001
0100
0010
1000
0001
,
1000
0010
0100
0001
1000
0100
0010
0100
1000
0010
0100
0001
1000
0100
0010
0001
,
1000
0100
0010
0001
0100
0001
1000
0010
1000
0001
0010
0100
0010
0001
1000
0010
,
0100
0001
1000
0100
0010
0001
1000
0001
0010
0100
1000
0010
1000
0001
0100
0010
,
1000
0100
0010
0001
1000
0010
1000
0010
0100
0001
1000
0100
0010
0001
0010
0001
,
1000
0010
0100
0010
1000
0001
1000
0001
0010
0100
1000
0001
1000
0010
0100
0001
,
1000
0010
0100
0001
0010
0001
1000
0100
1000
0001
0100
0010
0100
0001
1000
0100
,
0010
0001
1000
0010
0100
0001
1000
0001
0100
0010
1000
0100
1000
0001
0010
0100
,
1000
0010
0100
0001
1000
0100
1000
0100
0010
0001
1000
0010
0100
0001
0100
0001
,
1000
0000
0000
0100
0000
0000
1000
0000
0000
0001
0000
0000
0100
0000
0000
0001
0000
0000
1000
0000
0000
0010
0000
0000
1000
0000
0000
0001
0000
0000
0010
0000
0000
0001
0000
0000
1000
0000
0000
0010
0000
0000
1000
0000
0001
0000
1000
0000
,
0001
0100
0001
0100
0010
0100
0010
0100
,
1000
0100
1000
0100
0010
0100
0010
0100
,
0001
0010
0100
1000
0010
0100
0001
0010
,
0001
0100
0010
1000
0100
0010
0001
0001
,
0001
0100
0010
0100
1000
0100
0010
0100
,
0001
0010
0100
1000
0010
1000
0100
0010
,
0002
0000
0000
M000
0000
0000
0203
0000
0000
00M0
0000
0000
0320
0000
0000
000M
0000
0000
2030
0000
0000
0M00
0000
0000
3100
0000
0000
0000
0010
0000
0000
0000
,
0001
0000
0000
0100
0000
0000
0001
0000
0000
1000
0000
0000
0100
0000
0000
1000
0000
0000
0001
0000
0000
0010
0000
0000
0001
0000
0000
1000
0000
0000
0010
0000
0000
1000
0000
0000
0001
0000
0000
0010
0000
0000
0001
0000
1000
0000
0001
0000
,
1000
0000
0010
0000
0100
0000
0001
0010
0000
0001
0010
0000
0001
0000
0100
0010
,
0000
1000
0010
0000
0100
0000
0001
0010
0000
0001
1000
0000
0010
0000
1000
0100
,
0000
1000
0001
0000
0100
0000
0010
1000
0000
0001
1000
0000
0100
0000
0010
0001
,
0000
1000
0001
0000
0100
0000
0010
1000
0000
0100
0010
0000
0001
0000
0100
0000
,
0020
2030
3200
0320
0032
0203
0320
2030
,
3100
0000
0010
0000
0001
0000
1000
0010
0000
0100
0010
0000
1000
0000
0001
0010
,
0000
0100
0010
0000
0001
0000
1000
0100
0000
0010
0100
0000
1000
0000
0001
0100
,
0001
1000
0010
1000
0001
0010
0001
1000
0100
1000
0001
0100
0001
1000
0010
1000
,
0002
0203
0320
2030
3200
0320
0032
0203
,
0310
0000
1000
0100
0000
1000
0010
0000
0100
0000
0001
0010
0000
0001
0100
0000
,
0001
0010
0100
1000
0000
0001
0100
0010
1000
0010
0100
0001
0000
1000
0100
0010
,
0001
0010
0100
1000
0000
0010
1000
0001
1000
0100
0010
0001
0000
0100
0010
1000
,
0002
0023
0230
2300
3020
0230
0302
0023
,
0130
0000
1000
0010
0000
1000
0100
0000
0010
0000
0001
0100
0000
0001
0010
0000
,
0100
1000
0001
1000
0000
0010
0100
0001
1000
0001
0010
0100
0000
0010
0001
1000
,
0001
0100
0001
1000
0010
1000
0001
0010
0001
1000
0100
1000
0001
0100
0001
1000
,
0100
0010
0001
1000
0001
0100
0010
1000
0100
1000
0001
0010
0100
0010
0001
1000
,
0010
0100
0001
0100
0010
1000
0100
1000
0001
0010
0001
0100
0010
1000
0100
1000
,
0100
0010
0001
1000
0001
0100
0010
1000
0100
1000
0001
0010
0100
0010
0001
1000
,
0010
0100
0001
0100
0010
1000
0100
1000
0001
0010
0001
0100
0010
1000
0100
1000
,
0010
0100
0001
1000
0001
0010
0100
1000
0010
1000
0001
0100
0010
0100
0001
1000
,
0100
0010
0001
0010
0100
1000
0010
1000
0001
0100
0001
0010
0100
1000
0010
1000
,
0010
0100
0001
1000
0001
0010
0100
1000
0010
1000
0001
0100
0010
0100
0001
1000
,
0100
0010
0100
0010
0100
0010
0100
0010
0001
1000
0001
1000
0001
1000
0001
1000
,
0001
0100
0010
1000
0100
1000
0001
0010
0100
0010
0001
1000
0010
0100
0001
1000
,
0001
0010
0100
0010
0001
1000
0010
0100
0001
1000
0100
0010
0100
1000
0001
0100
,
0001
0100
0010
1000
0100
1000
0001
0010
0100
0010
0001
1000
0010
0100
0001
1000
,
0001
0010
0100
0010
0001
1000
0010
0100
0001
1000
0100
0010
0100
1000
0001
0100
,
0001
0010
0100
1000
0010
1000
0001
0100
0010
0100
0001
1000
0100
0010
0001
1000
,
0001
0100
0010
0100
0001
1000
0100
0010
0001
1000
0010
0100
0010
1000
0001
0010
,
0001
0010
0100
1000
0010
1000
0001
0100
0010
0100
0001
1000
0100
0010
0001
1000
,
0001
0100
0010
0100
0001
1000
0100
0010
0001
1000
0010
0100
0010
1000
0001
0010
,
0001
0100
0010
1000
0100
1000
0001
0100
0010
1000
0100
1000
0001
0010
0100
1000
,
0001
0100
0010
1000
0001
1000
0010
0100
0001
0010
0001
1000
0100
0010
0001
0100
,
0001
1000
0100
0010
0001
0100
0001
0010
0100
1000
0001
0100
0010
1000
0100
1000
,
0001
0010
0100
1000
0010
0100
0010
1000
0001
0100
0010
1000
0100
0010
0100
1000
,
0001
0010
0100
1000
0010
0100
0001
0100
0010
1000
0001
1000
0100
0010
0001
1000
,
0001
0100
0010
1000
0001
0010
0001
1000
0010
0100
0001
1000
0010
1000
0001
0010
,
0100
1000
0001
1000
0010
0100
0001
0010
0001
1000
0010
0100
0001
0010
0001
1000
,
0001
0100
0001
1000
0010
0100
0001
0010
0001
1000
0010
1000
0100
0010
0001
1000
,
0001
0010
0100
1000
0010
1000
0001
0010
0100
1000
0010
1000
0001
0100
0010
1000
,
0001
0010
0100
1000
0001
1000
0100
0010
0001
0100
0001
1000
0010
0100
0001
0010
,
0001
1000
0010
0100
0001
0010
0001
0100
0010
1000
0001
0010
0100
1000
0010
1000
,
0001
0100
0010
1000
0100
0010
0100
1000
0001
0010
0100
1000
0010
0100
0010
1000
,
0001
0100
0010
1000
0100
0010
0001
0010
0100
1000
0001
1000
0010
0100
0001
1000
,
0001
0010
0100
1000
0001
0100
0001
1000
0100
0010
0001
1000
0100
1000
0001
0100
,
0010
1000
0001
1000
0100
0010
0001
0100
0001
1000
0100
0010
0001
0100
0001
1000
,
0001
0010
0001
1000
0100
0010
0001
0100
0001
1000
0100
1000
0010
0000
0000
1000
,
0001
0010
0100
1000
0010
1000
0001
0010
0100
1000
0010
1000
0001
0100
0010
1000
,
0001
0010
0100
1000
0001
1000
0100
0010
0001
0100
0001
1000
0010
0100
0001
0010
,
0001
1000
0010
0100
0001
0010
0001
0100
0010
1000
0001
0010
0100
1000
0010
1000
,
0001
0100
0010
1000
0100
0010
0100
1000
0001
0010
0100
1000
0010
0100
0010
1000
,
0001
0100
0010
1000
0100
0010
0001
0010
0100
1000
0001
1000
0010
0100
0001
1000
,
0001
0010
0100
1000
0001
0100
0001
1000
0100
0010
0001
1000
0100
1000
0001
0100
,
0010
1000
0001
1000
0100
0010
0001
0100
0001
1000
0100
0010
0001
0100
0001
1000
,
0010
0100
0010
0100
0010
0100
0010
0100
0001
1000
0001
1000
0001
1000
0001
1000
,
0002
0023
0032
2003
3020
2030
3200
0320
,
0032
0203
0302
2003
3200
2300
3020
0230
,
0302
0023
0230
2300
3020
0230
0302
2003
,
3002
0023
0230
2300
3020
0230
0302
2003
,
3001
0100
0001
1000
0100
1000
0001
0010
,
0100
1000
0001
0100
0001
1000
0100
0010
,
0001
0100
0001
1000
0010
1000
0001
0010
,
0100
1000
0001
0100
0010
1000
0001
0010
,
0002
0000
0000
0000
,
0000
0000
0000
0000
,
2003
0000
0000
0000
,
0000
0000
0000
0000
,
3020
0000
0000
0000
,
0000
0000
0000
0000
,
0230
0000
0000
0000
,
0000
0000
0000
0000
,
0300
M000
0001
00M0
M000
0010
000M
0M00
,
0100
000M
00M0
1000
0M00
0010
000M
M000
,
0200
0000
0000
0000
,
0000
0000
0000
0000
,
0300
00M0
0001
M000
00M0
0010
0M00
000M
,
0100
M000
000M
1000
0M00
0010
000M
M000
,
0200
0000
0000
0000
,
0000
0000
0000
0000
,
0301
0010
0200
1300
00M0
0002
0103
0010
,
2000
3100
0010
0M02
M003
2000
3010
0100
,
0002
0013
0100
20M0
3000
00M2
0003
20M0
,
3100
0010
0001
1000
0000
0010
0000
0100
,
0001
0010
0001
0200
0000
0000
0000
0000
,
0310
1000
0001
0020
0000
0000
0000
0000
,
0130
1000
0010
0200
0000
0000
0000
0000
,
0301
0010
0001
2000
0000
0000
0000
0000
,
3001
0100
0020
1030
0M00
0002
0013
0100
,
2000
3010
0100
00M2
M003
2000
3100
0010
,
0002
0103
0010
2M00
300M
0M02
0003
2M00
,
3010
0100
0001
1000
0000
0100
0000
0010
,
0001
0100
0001
0020
0000
0000
0000
0000
,
0130
1000
0001
0200
0000
0000
0000
0000
,
0310
1000
0100
0020
0000
0000
0000
0000
,
0031
0100
0001
2000
0000
0000
0000
0000
,
3001
0100
0020
1030
0100
0020
0130
1000
,
0002
0103
0010
2000
3100
0020
0130
1000
,
0002
0013
0100
2000
3010
2000
3001
0200
,
0301
0010
0100
1000
0010
1000
0001
0100
,
0002
0000
0000
0023
0000
0000
0230
0000
,
2300
0000
0000
3020
0000
0000
0230
0000
,
0302
0000
0000
0023
0000
0000
0032
0000
,
2003
0000
0000
3020
0000
0000
0230
0000
,
0301
0010
0200
1300
0010
0200
0310
1000
,
0001
0010
0200
1300
0010
0200
0310
1000
,
0001
0100
0020
1030
0100
2000
3001
0010
,
0001
0100
0020
1030
0100
2000
3001
0010
,
0001
0100
0001
1000
0100
2000
0010
3010
,
1000
0100
0010
0001
0100
0020
1000
1030
,
0100
0010
0001
1000
0010
2000
0001
3001
,
0100
0010
1000
0001
0010
0002
0100
0103
,
0001
0100
0001
0100
0001
0100
0001
0100
0001
0100
0001
0100
0001
0100
0001
0100
,
0010
1000
0010
1000
0010
1000
0010
1000
0010
1000
0010
1000
0010
1000
0010
1000
,
0001
0010
0001
0010
0001
0010
0001
0010
0001
0010
0001
0010
0001
0010
0001
0010
,
0100
1000
0100
1000
0100
1000
0100
1000
0100
1000
0100
1000
0100
1000
0100
1000
,
0001
0100
0010
1000
0001
0100
0010
1000
0001
0010
0100
1000
0001
0010
0100
1000
,
0001
0100
0001
0100
0010
1000
0010
1000
0001
0010
0001
0010
0100
1000
0100
1000
,
0001
0100
0010
1000
0001
0010
0100
1000
0001
0100
0010
1000
0001
0010
0100
1000
,
0001
0000
0000
0100
0000
0000
0010
0000
0000
1000
0000
0000
0004
0000
4000
0000
0000
0000
0000
0000
0000
0000
0000
0000
0000
0000
0000
3003
0000
0000
0000
0000
0000
0002
0000
0000
0203
0000
0000
0320
0000
0000
2030
0000
0000
3002
0000
0000
,
1003
0100
0010
0100
1000
0001
0100
0010
1000
0100
1000
0001
0010
0001
1000
0010
,
0100
0001
1000
0001
0010
0100
1000
0001
1000
0100
0010
0001
0100
0001
1000
0010
,
1000
0100
0010
0001
1000
0100
0010
0001
1000
0010
0100
0001
1000
0010
0100
0001
,
1000
0100
1000
0100
0010
0001
0010
0001
1000
0010
0100
0001
1000
0100
0010
0001
,
1000
0010
1000
0100
0010
0001
0100
0010
1000
0001
1000
0010
0100
0001
1000
0001
,
1000
0100
0010
0100
1000
0001
0100
0010
1000
0001
1000
0001
0010
0100
1000
0001
,
1000
0100
0010
0100
1000
0001
0100
0010
1000
0010
0100
0001
1000
0001
0010
0100
,
1000
0100
0010
0100
1000
0001
0100
0010
1000
0100
1000
0001
0010
0001
0100
0010
,
1000
0100
0010
0100
1000
0001
0100
0010
1000
0100
1000
0001
0010
0001
1000
0010
,
0100
0001
1000
0001
0010
0100
1000
0001
1000
0100
0010
0001
0100
0001
1000
0010
,
1000
0100
0010
0001
1000
0100
0010
0001
1000
0010
0100
0001
1000
0010
0100
0001
,
1000
0100
1000
0100
0010
0001
0010
0001
1000
0010
0100
0001
1000
0100
0010
0001
,
1000
0010
1000
0100
0010
0001
0100
0010
1000
0001
1000
0010
0100
0001
1000
0001
,
1000
0100
0010
0100
1000
0001
0100
0010
1000
0001
1000
0001
0010
0100
1000
0001
,
1000
0100
0010
0100
1000
0001
0100
0010
1000
0010
0100
0001
1000
0001
0010
0100
,
1000
0001
1000
0001
1000
0001
1000
0001
0010
0100
0010
0100
0010
0100
0010
0100
,
1000
0010
0100
0010
1000
0001
0010
0100
1000
0010
1000
0001
0100
0001
1000
0100
,
0010
0001
1000
0001
0100
0010
1000
0001
1000
0010
0100
0001
0010
0001
1000
0100
,
1000
0010
0100
0001
1000
0010
0100
0001
1000
0100
0010
0001
1000
0100
0010
0001
,
1000
0010
1000
0010
0100
0001
0100
0001
1000
0100
0010
0001
1000
0010
0100
0001
,
1000
0100
1000
0010
0100
0001
0010
0100
1000
0001
1000
0100
0010
0001
1000
0001
,
1000
0010
0100
0010
1000
0001
0010
0100
1000
0001
1000
0001
0100
0010
1000
0001
,
1000
0010
0100
0010
1000
0001
0010
0100
1000
0100
0010
0001
1000
0001
0100
0010
,
1000
0010
0100
0010
1000
0001
0010
0100
1000
0010
1000
0001
0100
0001
0010
0100
,
1000
0010
0100
0010
1000
0001
0010
0100
1000
0010
1000
0001
0100
0001
1000
0100
,
0010
0001
1000
0001
0100
0010
1000
0001
1000
0010
0100
0001
0010
0001
1000
0100
,
1000
0010
0100
0001
1000
0010
0100
0001
1000
0100
0010
0001
1000
0100
0010
0001
,
1000
0010
1000
0010
0100
0001
0100
0001
1000
0100
0010
0001
1000
0010
0100
0001
,
1000
0100
1000
0010
0100
0001
0010
0100
1000
0001
1000
0100
0010
0001
1000
0001
,
1000
0010
0100
0010
1000
0001
0010
0100
1000
0001
1000
0001
0100
0010
1000
0001
,
1000
0010
0100
0010
1000
0001
0010
0100
1000
0100
0010
0001
1000
0001
0100
0010
,
1000
0001
1000
0010
0100
0001
1000
0001
0010
0100
1000
0001
0100
0010
0100
0001
,
1000
0100
0020
0031
0100
0020
0130
0001
,
1000
0100
0020
0031
0100
0020
0130
0001
,
1000
0010
0200
0301
0010
0002
1003
0100
,
1000
0010
0200
0301
0010
0002
1003
0100
,
1000
0010
2000
3001
0010
0002
0100
0103
,
0002
0013
0100
2000
3010
0200
0001
0301
,
0020
0130
1000
0002
0103
0002
1000
2003
,
3010
0100
0001
1000
0100
2000
0010
3010
,
1000
0100
0020
0031
000M
0002
0103
0010
,
1000
0100
0020
0031
000M
0002
0103
0010
,
1000
0100
0020
0130
0M00
0200
1300
0010
,
0100
0001
0020
0130
0M00
0200
0310
0001
,
2000
3020
2030
3002
0023
0032
0203
0320
,
2030
3200
2300
3002
0203
0302
0013
0100
,
1000
0001
1000
0001
0100
0010
1000
0001
1000
0100
1000
0100
0010
0001
0010
0002
,
2000
0000
0000
0000
0000
0000
0000
0000
0000
3003
0000
2000
3200
0320
0032
2003
,
3001
0010
0100
0010
0001
1000
0010
0100
0001
0010
0001
1000
0100
1000
0001
0100
,
0010
1000
0001
1000
0100
0010
0001
1000
0001
0010
0100
1000
0010
1000
0001
0100
,
0001
0010
0100
1000
0001
0010
0100
1000
0001
0100
0010
1000
0001
0100
0010
1000
,
0100
0010
0001
0010
0100
1000
0010
1000
0001
0100
0010
1000
0001
0010
0100
1000
,
0001
0100
0001
0010
0100
1000
0010
0100
0001
1000
0001
0100
0010
1000
0001
1000
,
0001
0010
0100
0010
0001
1000
0010
0100
0001
1000
0001
1000
0100
0010
0001
1000
,
0001
0010
0100
0010
0001
1000
0010
0100
0001
0100
0010
1000
0001
1000
0100
0010
,
0001
0010
0100
0010
0001
1000
0010
0100
0001
0010
0001
1000
0100
1000
0010
0100
,
0001
0010
0100
0010
0001
1000
0010
0100
0001
0010
0001
1000
0100
1000
0001
0100
,
0010
1000
0001
1000
0100
0010
0001
1000
0001
0010
0100
1000
0010
1000
0001
0100
,
0001
0010
0100
1000
0001
0100
0010
1000
0001
0100
0010
1000
0001
0100
0010
1000
,
0001
0010
0100
0010
0001
1000
0010
1000
0001
0100
0010
1000
0001
0010
0100
1000
,
0001
0100
0001
0010
0100
1000
0010
0100
0001
1000
0001
0100
0010
1000
0001
1000
,
0001
0010
0100
0010
0001
1000
0010
0100
0001
1000
0001
1000
0100
0010
0001
1000
,
0001
0010
0100
0010
0001
1000
0010
0100
0001
0100
0010
1000
0001
1000
0100
0010
,
0001
0100
0001
1000
0010
1000
0001
1000
0100
0010
0001
0100
0010
1000
0100
0010
,
0001
0100
0010
0100
0001
1000
0100
0010
0001
0100
0001
1000
0010
1000
0001
0010
,
0100
1000
0001
1000
0010
0100
0001
1000
0001
0100
0010
1000
0100
1000
0001
0010
,
0001
0100
0010
1000
0001
0100
0010
1000
0001
0010
0100
1000
0001
0100
0010
1000
,
0001
0100
0010
0100
0010
1000
0100
1000
0001
0010
0100
1000
0001
0100
0010
1000
,
0001
0010
0001
0100
0010
1000
0100
0010
0001
1000
0001
0010
0100
1000
0010
1000
,
0001
0100
0010
0100
0001
1000
0010
0100
0001
1000
0100
1000
0010
0100
0001
1000
,
0001
0001
0100
0100
0010
0010
1000
1000
,
0001
0100
0010
0100
0001
1000
0100
0010
0001
0100
0001
1000
0010
1000
0100
0010
,
0001
0100
0010
1000
0100
0010
0001
1000
,
0001
0100
0020
1030
0100
0020
0031
1000
,
0001
0010
0200
1300
0001
2000
3100
0010
,
0001
0100
0020
1030
0001
2000
3010
0100
,
0001
0010
0200
0310
0001
2000
3001
0100
,
0020
1030
0001
2000
3010
0200
0301
0010
,
0002
0103
0010
2000
3001
2000
3100
0020
,
0031
0100
0010
1000
0001
1000
0010
0100
,
0002
0010
1003
0002
0010
1003
0001
0100
,
0020
1000
0130
0020
1000
0130
0001
0010
,
0200
1000
0310
0200
1000
0310
0001
0100
,
0002
0100
1003
0002
0100
1003
0001
0010
,
0200
1000
0310
0200
1000
0310
0001
0100
,
0020
1000
0130
0020
1000
0130
0001
1000
,
0002
0010
1003
0002
0010
1003
0100
0010
,
0002
0100
1003
0002
0100
1003
0001
0100
,
0020
1000
1030
0002
1000
1003
0100
1000
,
0002
0010
0013
0002
1000
1003
0010
0100
,
0002
0010
0013
0200
1000
1300
0010
0100
,
0002
0100
0103
0020
1000
1030
0001
0010
,
0200
1000
1300
0020
0100
0130
0001
0010
,
0002
0100
0103
0020
1000
1030
0100
0010
,
0002
0000
0100
0000
0000
1000
0000
0000
,
2003
0000
0010
0000
0000
0001
0000
0000
,
3001
0000
0100
0000
0010
0000
1000
0100
1000
0000
0010
0000
0100
0000
0001
0010
,
0001
0000
0010
0000
0100
0000
1000
0010
1000
0000
0001
0000
0100
0000
0010
1000
,
0010
0000
0100
0000
0001
0000
0010
0100
0010
0000
0001
0000
1000
0000
0001
0010
,
0001
0000
0100
0000
0010
0000
1000
0100
1000
0000
0001
0000
0010
0000
0001
1000
,
0001
0000
0010
0000
0100
0000
1000
0010
1000
0000
0100
0000
0010
0000
0001
0100
,
0001
0000
0100
0000
0010
0000
1000
0100
1000
0000
0001
0000
0010
0000
0100
1000
,
0100
0000
0010
0000
0001
0000
0100
0010
0100
0000
0001
0000
1000
0000
0001
0100
,
0001
0000
0010
0100
1000
0001
1000
0010
0000
0100
0001
1000
0001
0010
0100
1000
,
0001
0000
0100
0000
0010
0000
1000
0100
0000
0010
0100
0000
1000
0000
0010
0100
,
0000
0001
0100
0000
0001
0000
0010
0100
0000
0010
0001
0000
1000
0000
0001
0100
,
0000
0010
0100
0000
0001
0000
1000
0100
0000
0010
0100
0000
1000
0000
0010
0100
,
0000
0001
1000
0000
0100
0000
0010
0100
0000
1000
0001
0000
0100
0000
0010
1000
,
0000
0001
1000
0000
0100
0000
0010
0001
0000
1000
0001
0000
0100
0000
0010
1000
,
0000
0100
0010
0000
0001
0000
0100
0001
0000
0010
0100
0000
1000
0000
0010
0100
,
0000
0001
0100
0000
0001
0000
0010
0100
0000
1000
0100
0000
0010
0000
0001
0100
,
0000
0010
0100
0000
0010
0000
1000
0100
0000
0010
0100
1000
0001
1000
0010
0000
,
1000
0100
0010
0001
0100
0001
0010
0100
,
1000
0010
1000
0010
0100
0001
0100
0001
,
1000
0100
0010
0001
0100
0001
1000
0010
,
1000
0100
0010
0001
0100
0001
1000
0010
,
1000
0100
0010
0001
0100
0001
0010
0100
,
1000
0010
0100
0001
1000
0100
0010
0001
,
1000
0010
0100
0010
1000
0001
0010
0100
,
0010
0001
1000
0010
0100
0001
1000
0100
,
1000
0010
0100
0001
0010
0001
0100
0010
,
1000
0100
1000
0100
0010
0001
0010
0001
,
1000
0010
0100
0001
0010
0001
1000
0100
,
1000
0010
0100
0001
0010
0001
1000
0100
,
1000
0010
0100
0001
0010
0001
0100
0010
,
1000
0100
0010
0001
1000
0010
0100
0001
,
1000
0100
0010
0100
1000
0001
0100
0010
,
0100
0001
1000
0100
0010
0001
1000
0010
,
0100
0000
0000
0000
;
