#TITLE:Summer Tide;
#SUBTITLE:(Original Mix);
#ARTIST:Dan Stone & Phil Young;
#TITLETRANSLIT:;
#SUBTITLETRANSLIT:;
#ARTISTTRANSLIT:;
#GENRE:;
#CREDIT:;
#BANNER:;
#BACKGROUND:;
#LYRICSPATH:;
#CDTITLE:;
#MUSIC:Dan Stone And Phil Young - Summer Tide (Original Mix).mp3;
#OFFSET:-0.220;
#SAMPLESTART:113.130;
#SAMPLELENGTH:12.000;
#SELECTABLE:YES;
#BPMS:0.000=136.000;
#STOPS:;
#BGCHANGES:;
#KEYSOUNDS:;

//---------------dance-single - C.Sanabria----------------
#NOTES:
     dance-single:
     C.Sanabria:
     Challenge:
     11:
     0.705,0.968,0.002,0.350,0.893:
0000
0000
0000
0000
,
0000
0000
0000
0000
,
0000
0000
0000
0000
,
0000
0000
0000
0000
,
1000
0010
0100
0001
,
1000
0010
0100
0001
,
1000
0100
0010
0001
,
1000
0000
0100
00M0
0000
000M
0000
M000
,
0001
0100
0020
1030
0100
0010
0002
0103
,
0010
1000
0200
1300
0010
0100
0002
0013
,
0100
1000
0020
0130
0001
0010
0002
0103
,
0010
1000
0200
0310
0001
1000
0020
0130
,
0001
1000
0200
0310
0001
0100
0020
1030
,
0001
1000
0020
0130
0001
0010
0200
1300
,
0001
0100
0020
1030
0001
0010
0200
1300
,
00M0
0000
000M
0000
M000
0000
0M00
0000
000M
0000
0010
0000
1000
0100
1000
0001
,
0010
0100
0010
0001
2000
0000
3010
0000
0100
0000
0001
0000
0020
0000
0031
0000
,
0100
0010
2000
3100
1000
0010
0200
0301
,
0010
0001
2000
3100
0010
0001
0200
0301
,
0010
0100
2000
3010
0100
0001
0200
0310
,
1000
0001
0020
0130
1000
0010
0200
0301
,
0010
0001
2000
3010
0100
0001
0020
0031
,
1000
0100
0020
0031
0100
0010
2000
3001
,
0010
0000
0100
0000
2000
0000
3010
0000
0100
0000
0001
0000
1000
0010
1000
0001
,
0010
0001
1000
0100
0020
0000
0031
0000
0100
0000
0010
0000
2000
0000
3001
0000
,
1000
0010
0200
0301
0010
0001
2000
3100
,
0010
0001
0200
0310
1000
0001
0020
0031
,
1000
0010
0200
0301
0010
0100
2000
3010
,
0100
0001
0200
0310
1000
0001
0020
0130
,
1000
0010
0200
0301
0100
0010
2000
3100
,
0010
0000
0001
0000
0200
0000
0310
0000
1000
0000
0001
0000
1000
0100
1000
0001
,
0100
0001
1000
0020
0200
0000
0000
0000
0000
0000
0000
0000
0000
0000
0330
0000
,
0001
0100
0001
1000
0000
0010
1000
0000
0010
0100
0010
1000
0000
0001
0010
0000
,
0001
0100
0001
1000
0000
0100
0010
0000
0100
1000
0100
0010
0000
0001
0100
0000
,
0001
1000
0010
1000
0000
0001
0100
0000
0010
1000
0001
1000
0000
0100
0010
0000
,
0100
1000
0001
1000
0000
0001
0100
0000
0010
1000
0001
0100
0000
0010
1000
0000
,
0001
0010
0100
0010
0000
0001
0100
0000
0001
1000
0100
1000
0000
0001
0010
0000
,
0100
1000
0100
0010
0000
0100
1000
0000
0001
0100
0010
1000
0000
0001
0010
0000
,
0100
1000
0001
0100
0000
0010
0100
0000
0010
1000
0001
0010
0000
0100
0010
0000
,
0001
1000
0010
0100
0000
0001
0020
0000
0000
0030
0100
1000
0000
0001
0100
0000
,
0010
1000
0001
1000
0010
0100
0001
1000
0001
0010
0200
1300
0002
0023
0230
2300
,
3002
0203
0302
2003
3010
1000
0001
0010
0100
1000
0001
0100
0010
1000
0001
0010
,
0001
0100
0010
1000
0001
1000
0001
0010
0100
1000
0001
1000
0010
0100
0010
0100
,
0001
1000
0100
0010
0001
0100
0001
1000
0010
0100
0001
1000
0001
0010
0100
1000
,
0100
1000
0001
1000
0100
0010
0001
1000
0001
0100
0020
1030
0002
0203
0320
2030
,
3002
0023
0032
2003
3100
1000
0001
0100
0010
1000
0001
0010
0100
1000
0001
0100
,
0001
0010
0100
1000
0001
1000
0001
0100
0010
1000
0001
1000
0100
0010
0100
0010
,
0001
1000
0010
0100
0001
0010
0002
0000
0000
0000
1003
0100
0000
0010
0100
0000
,
1000
0100
1000
0010
0100
0001
0100
0001
1000
0100
0010
0100
1000
0001
0100
0010
,
1000
0100
1000
0100
0010
0001
1000
0001
0100
0010
1000
0010
0100
0001
0010
0001
,
1000
0100
1000
0010
0100
0001
0100
0001
1000
0100
0010
0100
1000
0001
0100
0010
,
1000
0100
1000
0100
0010
0001
1000
0001
0100
0010
1000
0010
0100
0001
0010
0001
,
1000
0010
1000
0100
0010
0001
0010
0001
1000
0010
0100
0010
1000
0001
0010
0100
,
1000
0010
1000
0010
0100
0001
1000
0001
0010
0100
1000
0100
0010
0001
0100
0001
,
1000
0010
1000
0100
0010
0001
0010
0001
1000
0010
0100
0010
1000
0001
0010
0100
,
1000
0010
1000
0010
0100
0001
1000
0001
0010
0100
1000
0100
0010
0001
0100
0001
,
1000
0000
0100
0010
0000
0001
2000
0000
0000
0000
3100
0010
0000
0001
2000
0000
,
0000
0000
3010
0100
0000
0001
0200
0000
0000
0000
0310
0100
0000
0001
0200
0000
,
0000
0000
0310
1000
0000
0001
2000
0000
0000
0000
3010
1000
0000
0001
2000
0000
,
0000
0000
3100
0010
0000
0001
0200
0000
0000
0000
0301
0010
0000
0100
0020
0000
,
0000
0000
0130
0010
0000
0001
2000
0000
0000
0000
3100
0010
0000
0001
2000
0000
,
0000
0000
3010
0100
0000
0001
0200
0000
0000
0000
0310
0100
0000
0001
0200
0000
,
0000
0000
0310
1000
0000
0001
2000
0000
0000
0000
3010
1000
0000
0001
2000
0000
,
00M0
0M00
000M
00M0
000M
0M00
00M0
000M
,
3M01
0010
0100
0010
0001
1000
0001
1000
0010
0100
0001
0100
0010
1000
0001
1000
,
0001
0010
0100
1000
0001
1000
0001
0100
0010
1000
0001
1000
0100
0010
0001
1000
,
0001
0010
0100
1000
0010
1000
0001
1000
0001
0100
0010
1000
0100
1000
0001
1000
,
0001
0100
0010
1000
0010
0100
0001
1000
0001
0010
0100
1000
0010
1000
0001
0100
,
0010
1000
0100
1000
0001
0010
0001
0100
0010
1000
0001
1000
0010
0100
0001
0010
,
0001
0100
0010
1000
0001
0100
0010
0100
0001
0010
0100
1000
0001
0010
0100
0010
,
0001
0100
0010
1000
0001
0100
0010
1000
0001
0010
0001
0010
0100
1000
0001
1000
,
0001
0100
0010
1000
0100
1000
0001
0010
0001
0100
0010
1000
0001
1000
0010
0100
,
0001
0010
0100
0010
0001
1000
0001
1000
0010
0100
0001
0100
0010
1000
0001
1000
,
0001
0010
0100
1000
0001
1000
0001
0100
0010
1000
0001
1000
0100
0010
0001
1000
,
0001
0010
0100
1000
0010
1000
0001
1000
0001
0100
0010
1000
0100
1000
0001
1000
,
0001
0100
0010
1000
0010
0100
0001
1000
0001
0010
0100
1000
0010
1000
0001
0000
,
0000
0000
1000
0100
0000
0010
0200
0000
0000
0000
1300
0001
0000
0100
0020
0000
,
0000
0000
1030
0010
0000
0100
0020
0000
0000
0000
1030
0100
0000
0010
0200
0000
,
0000
0000
1300
0010
0000
0100
0002
0000
0000
0000
1003
0010
0000
0100
0020
0000
,
0000
0000
1030
0100
0000
0010
0002
0000
0000
0000
1003
0100
0000
0010
0100
0000
,
2000
0000
0000
0000
,
0020
0000
0000
3000
,
0200
0000
0000
0030
,
0002
0000
0000
0300
,
2000
0000
0000
0003
,
0200
0000
0000
3000
,
0020
0000
0000
0300
,
0002
0000
0000
0030
,
1003
0100
0010
0001
0100
0010
0100
0010
,
1000
0100
0010
0001
1000
0010
1000
0010
,
1000
0100
0010
0001
0100
0010
0100
0001
,
1000
0100
0010
0001
1000
0010
0100
0010
,
1000
0100
0010
0001
0100
0010
0100
1000
,
0100
0001
0010
0100
1000
0001
1000
0001
,
0100
0010
1000
0100
0001
0100
0001
0100
,
1000
0010
0100
0001
1000
0100
0010
0100
,
1001
00M0
0M00
00M2
M000
0M20
M003
M200
,
003M
M000
000M
20M0
030M
002M
3M00
020M
,
M030
000M
M000
00M2
M300
20M0
0M03
0M20
,
000M
0M00
300M
0M30
M000
000M
0M00
00M0
,
M000
000M
0M00
20M0
000M
0M20
300M
020M
,
M030
000M
M000
00M2
M300
02M0
M003
M020
,
030M
M000
0M00
200M
0M30
0M02
30M0
0M20
,
M003
0M00
000M
M000
000M
0M00
M030
000M
,
0M00
M000
000M
00M2
M000
0M20
M003
M200
,
003M
M000
000M
20M0
030M
002M
3M00
020M
,
M030
000M
M000
00M2
M300
20M0
0M03
0M20
,
000M
0M00
300M
0M30
M000
000M
0M00
00M0
,
M000
000M
0M00
20M0
000M
0M20
300M
020M
,
M030
000M
M000
00M2
M300
02M0
M003
M020
,
030M
M000
0M00
200M
0M30
0M02
30M0
0M20
,
M003
0M00
000M
M000
000M
0M00
M030
0000
,
0002
0000
0000
0000
,
0200
0000
0000
0003
,
0020
0000
0000
0300
,
2000
0000
0000
0030
,
0002
0000
0000
3000
,
0020
0000
0000
0003
,
0200
0000
0000
0030
,
2000
0000
0000
0300
,
3001
0100
0010
1000
0000
0001
0100
0001
0000
1000
0100
0000
1000
0010
1000
0000
,
0001
0010
0100
1000
0000
0001
0100
0001
0000
1000
0100
0000
1000
0001
1000
0000
,
0010
0100
0001
1000
0000
0001
0010
0001
0000
1000
0010
0000
0100
0001
0100
0000
,
0010
1000
0001
1000
0000
0100
0010
0100
0000
1000
0010
0000
0100
0001
0100
0000
,
0001
0010
0100
1000
0000
0001
0100
0010
0000
1000
0100
0000
1000
0010
0100
0000
,
0001
0010
0100
1000
0000
0001
0100
0010
0000
0100
0001
0000
1000
0100
0010
0000
,
0004
4000
0000
0000
0000
0000
0000
0000
0000
0000
0000
0000
0000
0000
0000
0000
0000
0000
0000
0000
0000
0000
0000
0000
,
3003
00M0
0M00
000M
M000
00M0
0M00
000M
,
0001
0100
0001
0010
0100
1000
0001
1000
0100
0010
0001
0100
0001
1000
0010
1000
,
0001
0010
0001
0010
0100
1000
0100
1000
0001
0100
0010
1000
0001
0100
0001
0100
,
0010
1000
0001
1000
0100
0010
0100
0010
0001
1000
0010
0100
0001
1000
0001
1000
,
0100
0010
0001
1000
0001
0010
0100
1000
0010
0100
0001
1000
0001
0100
0010
1000
,
0001
0100
0001
0100
0010
1000
0001
1000
0100
0010
0100
0010
0001
1000
0001
0100
,
0010
1000
0100
1000
0001
0010
0100
1000
0010
1000
0001
0100
0010
1000
0100
1000
,
0001
0010
0001
0010
0100
1000
0001
1000
0010
0100
0001
0010
0001
1000
0010
1000
,
0001
0010
0100
1000
0001
0010
0100
0010
0001
1000
0100
0010
0100
1000
0010
1000
,
0001
0010
0001
0100
0010
1000
0001
1000
0010
0100
0001
0010
0001
1000
0100
1000
,
0001
0100
0001
0100
0010
1000
0010
1000
0001
0010
0100
1000
0001
0010
0001
0010
,
0100
1000
0001
1000
0010
0100
0010
0100
0001
1000
0100
0010
0001
1000
0001
1000
,
0010
0100
0001
1000
0001
0100
0010
1000
0100
0010
0001
1000
0001
0010
0100
1000
,
0001
0010
0001
0010
0100
1000
0001
1000
0010
0100
0010
0100
0001
1000
0001
0010
,
0100
1000
0010
1000
0001
0100
0010
1000
0100
1000
0001
0010
0100
1000
0010
1000
,
0001
0100
0001
0100
0010
1000
0001
1000
0100
0010
0001
0100
0001
1000
0100
1000
,
0001
0100
0010
1000
0001
0100
0010
0100
0001
1000
0010
0100
0010
1000
0100
1000
,
0001
0010
0100
0010
0001
0100
0001
1000
0001
0100
0010
0100
0001
0010
0001
1000
,
0100
0010
0001
1000
0001
0100
0010
1000
0001
0010
0100
1000
0001
0100
0010
0100
,
0001
0010
0001
0010
0100
1000
0001
1000
0010
0100
0010
0100
0001
1000
0001
0010
,
0100
1000
0100
1000
0001
0100
0010
1000
0100
1000
0010
1000
0001
0100
0001
0010
,
0001
1000
0010
0100
0010
1000
0001
1000
0100
0010
0100
1000
0001
0100
0010
1000
,
0001
0010
0100
1000
0010
1000
0001
0100
0001
0010
0100
1000
0010
1000
0001
0100
,
0010
1000
0001
1000
0010
0100
0001
0010
0001
1000
0100
0010
0001
0100
0001
1000
,
0100
0010
0001
1000
0001
0100
0010
1000
0001
0010
0001
0100
0010
1000
0100
0010
,
0001
0100
0010
0100
0001
0010
0001
1000
0001
0010
0100
0010
0001
0100
0001
1000
,
0010
0100
0001
1000
0001
0010
0100
1000
0001
0100
0010
1000
0001
0010
0100
0010
,
0001
0100
0001
0100
0010
1000
0001
1000
0100
0010
0100
0010
0001
1000
0001
0100
,
0010
1000
0010
1000
0001
0010
0100
1000
0010
1000
0100
1000
0001
0010
0001
0100
,
0001
1000
0100
0010
0100
1000
0001
1000
0010
0100
0010
1000
0001
0010
0100
1000
,
0001
0100
0010
1000
0100
1000
0001
0010
0001
0100
0010
1000
0100
1000
0001
0010
,
0100
1000
0001
1000
0100
0010
0001
0100
0001
1000
0010
0100
0001
0010
0001
1000
,
0010
0100
0001
1000
0001
0010
0100
1000
0001
0100
0001
0010
0100
1000
0010
0100
,
0002
0000
0000
0000
2003
0000
0000
0000
3010
0000
0100
0000
0001
0010
0001
1000
,
0100
1000
0001
0100
0000
0010
1000
0000
0001
0000
1000
0000
0010
0100
0001
1000
,
0001
0010
0100
1000
0000
0001
0100
0000
0001
0000
1000
0000
0001
0010
0100
1000
,
0001
1000
0010
0100
0000
0010
1000
0000
0001
1000
0001
0000
0010
0000
0100
0000
,
1000
0100
1000
0001
0000
0100
0010
0000
1000
0000
0001
0000
1000
0100
0010
0001
,
1000
0001
0010
0100
0000
1000
0010
0000
1000
0000
0001
0000
1000
0100
0010
0001
,
1000
0001
0100
0010
0000
1000
0100
0000
1000
0000
0001
0000
1000
0010
0100
0001
,
1000
0001
0010
0100
0000
1000
0010
0000
1000
0000
0100
0000
0010
0000
0001
0000
,
1000
0000
0010
0000
0100
0000
0001
0000
0010
0000
0100
0000
1000
0010
1000
0001
,
0100
0001
1000
0100
0000
0010
0001
0000
1000
0000
0001
0000
0010
0100
1000
0001
,
1000
0010
0100
0001
0000
1000
0100
0000
1000
0000
0001
0000
1000
0010
0100
0001
,
1000
0001
0010
0100
0000
0010
0001
0000
1000
0001
1000
0000
0010
0000
0100
0000
,
0001
0100
0001
1000
0000
0100
0010
0000
0001
0000
1000
0000
0001
0100
0010
1000
,
0001
1000
0010
0100
0000
0001
0010
0000
0001
0000
1000
0000
0001
0100
0010
1000
,
0001
1000
0100
0010
0000
0001
0100
0000
0001
0000
1000
0000
0001
0010
0100
1000
,
0001
1000
0010
0100
0000
0001
0010
0000
0001
0000
0100
0000
0010
0000
1000
0000
,
0001
0010
0200
1300
0001
0020
0130
1000
,
0002
0013
0100
2000
3010
0200
0301
0010
,
0200
0310
0001
2000
3010
0200
0301
0020
,
0130
1000
0001
1000
0000
0010
0100
0000
0010
1000
0001
1000
0000
0100
0010
0000
,
0001
0100
0020
1030
0100
0002
0103
1000
,
0020
0130
0001
2000
3100
0020
0031
0100
,
0020
1030
0001
2000
3010
0200
0301
0020
,
0130
1000
0001
1000
0000
0001
0100
0000
0010
1000
0001
1000
0000
0100
0010
0000
,
0001
0100
0020
1030
0001
0200
0310
1000
,
0002
0103
0010
2000
3100
0020
0031
0100
,
0020
0130
0001
2000
3100
0020
0031
0200
,
0310
1000
0001
1000
0000
0100
0010
0000
0100
1000
0001
1000
0000
0010
0100
0000
,
0001
0010
0200
1300
0010
0002
0013
1000
,
0200
0310
0001
2000
3010
0200
0301
0010
,
0200
1300
0001
2000
3100
0020
0031
0200
,
0310
1000
0001
1000
0000
0100
0010
0001
1000
0001
0100
0010
1000
0001
1000
0010
,
2000
0000
0000
0000
,
0020
0000
0000
3000
,
0200
0000
0000
0030
,
0002
0000
0000
0300
,
2000
0000
0000
0003
,
0200
0000
0000
3000
,
0020
0000
0000
0300
,
0002
0000
0000
0030
,
1003
0000
0100
0010
0000
0001
0100
0000
0001
0000
0010
0100
0000
1000
0010
0000
,
1000
0000
0001
0100
0000
0010
0100
0000
0001
0000
1000
0100
0000
0010
0100
0000
,
1000
0000
0010
0100
0000
0001
0010
0000
0001
0000
0010
0100
0000
1000
0010
0000
,
0100
0000
0001
1000
0000
0100
0010
0000
0001
0000
1000
0001
0000
0010
0100
0000
,
1000
0000
0010
0100
0000
0001
0010
0000
0100
0000
0010
0001
0000
0100
0010
0000
,
1000
0000
0100
0010
0000
0001
0100
0000
0010
0000
1000
0100
0000
1000
0010
0000
,
0100
0000
0001
0010
0000
0100
1000
0000
0010
0000
0100
0001
0000
0010
0100
0000
,
1000
0000
0010
0100
0000
0001
0100
0000
0010
0000
1000
0100
0000
0010
0100
0000
,
1000
0100
0010
0001
1000
0010
0100
0010
,
1000
0100
0010
0001
0100
0010
0100
0001
,
1000
0100
0010
0001
0100
0010
1000
0100
,
1000
0010
0100
0001
1000
0010
0100
0001
,
1000
0100
0010
0001
0100
0001
0010
0100
,
1000
0010
0100
0001
0010
0100
1000
0010
,
1000
0100
0010
0001
1000
0010
0100
0001
,
1000
0000
0100
0010
0000
0001
0200
0000
0000
0000
0310
1000
0000
0100
0010
0000
,
0001
0100
0001
1000
0000
0010
1000
0000
0010
0100
0010
1000
0000
0001
0010
0000
,
0001
0100
0001
1000
0000
0100
0010
0000
0100
1000
0100
0010
0000
0001
0100
0000
,
0001
1000
0010
1000
0000
0001
0100
0000
0010
1000
0001
1000
0000
0100
0010
0000
,
0100
1000
0001
1000
0000
0001
0100
0000
0010
1000
0001
0000
0010
0100
1000
0001
,
1000
0010
0100
0010
0000
1000
0100
0000
1000
0001
0100
0001
0000
1000
0010
0000
,
0100
0001
0100
0010
0000
0100
0001
0000
1000
0100
0010
0001
0000
1000
0010
0000
,
0100
0001
1000
0100
0000
0010
0100
0000
0010
0001
1000
0010
0000
0100
0010
0000
,
1000
0001
0010
0100
0000
0010
0001
0000
0100
0001
1000
0000
0010
0100
0001
1000
,
0001
0010
0100
1000
0000
0001
0100
0000
0010
1000
0001
1000
0000
0100
0010
0000
,
0001
0100
0001
1000
0000
0010
0100
0000
0010
1000
0001
1000
0000
0100
0010
0000
,
0001
0100
0001
1000
0000
0100
0010
0000
0001
0100
0001
1000
0000
0100
0010
0000
,
0001
0100
0001
1000
0000
0010
0100
0000
0010
1000
0001
0000
0100
0010
1000
0001
,
1000
0100
0010
0001
0000
1000
0010
0000
1000
0100
0010
0001
0000
0100
0010
0000
,
0100
0001
1000
0100
0000
0010
0001
0000
1000
0100
0010
0001
0000
1000
0010
0000
,
0100
0001
1000
0100
0000
0010
0001
0000
1000
0010
1000
0001
0000
0100
0010
0000
,
0100
0001
0100
0010
0000
1000
0100
0000
0000
0000
0010
0000
0001
0100
0010
1000
,
0001
1000
0100
0010
0000
0100
1000
0000
0001
0100
0010
1000
0000
0001
0010
0000
,
0001
0100
0010
1000
0000
0100
0010
0000
0100
1000
0001
0100
0000
0010
0100
0000
,
0001
0010
0100
1000
0000
0001
0100
0000
0010
1000
0001
0010
0000
0100
1000
0000
,
0001
0100
0010
1000
0000
0100
0010
0000
0001
0100
0010
1000
0000
0001
0010
0000
,
0100
1000
0001
1000
0000
0010
0100
0000
0010
1000
0001
1000
0000
0100
0010
0000
,
0001
0100
0001
1000
0000
0100
0010
0000
0100
1000
0001
1000
0000
0010
1000
0000
,
0001
0100
0010
1000
0000
0100
0010
0000
0100
1000
0001
1000
0000
0001
0100
0000
,
0010
0100
0001
1000
0000
0001
0010
0000
0001
1000
0010
0000
1000
0100
0010
0001
,
1000
0001
0100
0010
0000
0100
0001
0000
1000
0100
0010
0001
0000
1000
0010
0000
,
1000
0100
0010
0001
0000
0100
0010
0000
0100
0001
1000
0100
0000
0010
0100
0000
,
1000
0010
0100
0001
0000
1000
0100
0000
0010
0001
1000
0010
0000
0100
0001
0000
,
1000
0100
0010
0001
0000
0100
0010
0000
1000
0100
0010
0001
0000
1000
0010
0000
,
0100
0001
1000
0001
0000
0010
0100
0000
0010
0001
1000
0001
0000
0100
0010
0000
,
1000
0100
1000
0001
0000
0100
0010
0000
0100
0001
1000
0001
0000
0010
0001
0000
,
1000
0100
0010
0001
0000
0100
0010
0000
0100
0001
1000
0001
0000
1000
0100
0000
,
0010
0100
1000
0001
0000
1000
0010
0000
1000
0001
0010
0000
0001
0100
0010
1000
,
0001
0100
0010
1000
0001
0000
0000
0000
0000
0000
0000
0000
0000
0000
0000
0000
;
