#TITLE:Spirits;
#SUBTITLE:;
#ARTIST:EliteFerrex;
#TITLETRANSLIT:;
#SUBTITLETRANSLIT:;
#ARTISTTRANSLIT:;
#GENRE:;
#CREDIT:;
#BANNER:spirits-bn.png;
#BACKGROUND:spirits-bg.png;
#LYRICSPATH:;
#CDTITLE:;
#MUSIC:EliteFerrex - Spirits.ogg;
#OFFSET:-0.040;
#SAMPLESTART:21.330;
#SAMPLELENGTH:12.000;
#SELECTABLE:YES;
#BPMS:0.000=180.000;
#STOPS:;
#BGCHANGES:;
#KEYSOUNDS:;

//---------------dance-single - C.Sanabria----------------
#NOTES:
     dance-single:
     C.Sanabria:
     Challenge:
     13:
     1.000,1.000,0.222,1.000,1.000:
M000
0000
0000
00M0
0000
0000
0000
0000
,
0M00
0000
0000
000M
0000
0000
0000
0000
,
000M
0000
0000
00M0
0000
0000
0000
0000
,
0M00
0000
0000
M000
0000
0000
0000
0000
,
1000
0000
0000
M000
0000
0000
0010
0000
0000
00M0
0000
0000
M000
0000
0000
0000
,
0100
0000
0000
0M00
0000
0000
0001
0000
0000
000M
0000
0000
0M00
0000
0000
0000
,
0001
0000
0000
000M
0000
0000
0010
0000
0000
00M0
0000
0000
M000
0000
0000
0000
,
0100
0000
0000
0M00
0000
0000
1000
0000
0000
M000
0000
0000
000M
0000
0000
0000
,
0002
0100
0103
0020
1000
1030
0200
0010
,
0310
0002
0100
0103
0010
1000
0001
0010
,
0200
1000
1300
0020
0100
0130
0002
0010
,
0013
0200
1000
1300
0010
0100
0001
1000
,
0M01
0010
0001
10M0
0010
1000
0M01
0010
,
0001
10M0
0010
1000
0M01
0100
0010
1000
,
0M01
0000
0010
0000
0001
0000
10M0
0000
0010
0000
1000
0M01
1000
0000
0010
0000
,
0100
0001
1000
0010
0100
0001
1000
0010
0100
0001
1000
0001
0010
0100
1000
0001
,
1000
0000
0000
0000
0000
M000
0000
0000
0200
0000
0000
0000
0302
0000
0000
0000
0023
0000
0000
0000
0230
0000
0000
0000
2300
0000
0000
0000
3020
0000
0000
0000
,
2030
3200
0320
0032
0000
2003
0000
3010
,
0200
0000
0302
0000
2003
0000
3200
0000
0000
0000
0310
0001
0010
0000
0001
0100
,
0001
0000
1000
0010
1000
0000
0001
0010
0001
0000
1000
0M01
1000
0000
0010
0000
,
2000
3200
0320
0230
0302
0203
0320
0230
,
2300
3020
0230
0302
0023
0032
2003
3020
,
0230
0000
0302
0000
0023
0000
0032
0000
0000
0000
1003
0100
1000
0000
0010
1000
,
0010
0000
0100
0001
0100
0000
0001
0010
0001
0000
1000
0M01
1000
0000
0010
0000
,
M202
0303
0000
022M
0330
0000
2M20
3030
,
0001
0100
0001
1000
0010
0000
1000
0100
1000
0100
0010
0000
0100
1000
0001
0000
,
02M2
0303
0000
M220
0330
0000
202M
3030
,
1000
0100
1000
0100
0010
0000
0100
1000
0100
1000
0001
0000
0100
0001
1000
0000
,
22M0
3300
0000
022M
0330
0000
M022
0033
,
1000
0100
1000
0001
0010
0000
0001
0100
0001
0100
0010
0000
1000
0100
1000
0000
,
220M
3300
0000
M220
0330
0000
0M22
0033
,
0000
0000
2MM2
0000
0000
0000
3003
0000
1000
0010
0100
0001
1000
0100
0010
0001
,
2000
3020
0230
0302
0000
0023
0000
0230
,
0320
0032
2003
3020
0000
0000
0000
0000
,
1030
0100
1000
0001
0010
0001
0100
0001
1000
0010
1000
0001
0100
0001
1000
0000
,
1100
0000
0000
0110
0000
0000
0011
0000
0000
0000
1000
0000
0010
0000
0100
0000
,
0002
0000
0013
0100
0010
0100
1000
0001
2000
0000
3010
0100
0010
0100
0001
1000
,
0002
0000
0013
0100
1000
0001
1000
0010
0100
0001
0100
0010
1000
0001
1000
0100
,
0010
0001
0100
0001
1000
0010
1000
0100
0010
0001
1000
0001
0100
0010
1000
0010
,
0100
0001
1000
0010
0100
0001
1000
0010
0100
0001
1000
0100
0010
0001
1000
0100
,
1000
0010
0100
0001
1000
0001
0100
0010
1000
0010
0100
0001
1000
0001
0100
0010
,
1000
0100
0010
0001
1000
0001
0010
0100
1000
0001
1000
0001
0100
0010
1000
0001
,
2000
3020
0000
0230
0302
0023
0032
2003
,
0000
0000
3001
0100
0010
1000
0001
1000
0010
0100
0001
1000
0010
1000
0001
0010
,
0200
0000
0000
0000
0000
0000
0000
0000
0000
0000
0310
0001
1000
0010
0100
0001
,
2000
0000
0000
0000
0000
0000
0000
0000
0000
0000
3001
0010
0100
1000
0001
1000
,
0002
0000
0000
0203
0320
2030
3200
0320
,
0032
0000
0000
0203
0000
0000
0320
0000
,
1030
0100
0010
0001
1000
0100
0010
0001
1000
0010
0100
0001
1000
0001
0100
0010
,
1000
0100
0010
0001
1000
0100
0010
0001
1000
0010
0100
0001
1000
0001
0100
0010
,
1000
0100
0010
0001
1000
0001
0010
0100
1000
0010
1000
0100
0010
0001
1000
0001
,
1000
0010
0100
0001
1000
0001
0100
0010
1000
0001
0010
0100
1000
0010
1000
0001
,
0100
0010
1000
0001
1000
0001
0100
0010
1000
0010
0100
0001
1000
0001
1000
0010
,
0100
0010
1000
0001
0010
0001
0100
0010
1000
0010
0100
0001
0100
0001
1000
0010
,
1000
0100
0010
0001
1000
0001
0100
0010
1000
0100
0010
0001
0010
0100
1000
0001
,
2000
0000
3000
0202
0000
0303
0220
0000
0330
0000
1000
0100
0010
0001
1000
0010
,
1000
0100
0010
0001
1000
0100
0010
0001
1000
0010
0100
0001
1000
0001
0100
0001
,
1000
0100
0010
0001
1000
0100
0010
0001
1000
0010
0100
0001
1000
0001
0100
0001
,
1000
0010
0100
0001
1000
0010
0100
0001
1000
0100
0010
0001
1000
0001
0010
0100
,
1000
0001
0100
0001
1000
0010
0100
0001
1000
0100
0010
0001
1000
0001
0010
0100
,
1000
0001
1000
0001
1000
0001
1000
0001
0010
0100
1000
0001
1000
0100
0010
0001
,
1000
0001
1000
0001
1000
0001
1000
0001
0010
0100
1000
0001
1000
0001
0100
0010
,
1000
0001
1000
0001
0010
0100
0010
0100
1000
0010
1000
0001
0100
0010
1000
0100
,
1000
0001
1000
0001
0100
0010
0100
0010
1000
0100
0010
0001
0100
0001
1000
0010
,
2000
3020
0230
0302
0023
0032
0203
0320
,
0000
1030
0100
0010
0001
1000
0010
0100
,
0002
0023
0230
2300
3020
2030
3002
0203
,
0000
0310
0100
0001
1000
0001
0010
0100
,
2000
0000
3010
0200
0000
0301
0020
0000
,
0031
0200
0000
0310
1000
0001
1000
0010
,
0200
0302
2003
3200
,
0310
0001
1000
0001
0100
0010
1000
0001
,
0101
0000
0001
0000
1000
0100
0000
0000
0101
0000
0001
0000
1000
0100
0000
0000
,
2001
0000
0000
0000
3010
0000
0100
0000
0001
0000
1000
0100
1000
0000
0010
0000
,
1010
0000
1000
0000
0001
0010
0000
0000
1010
0000
1000
0000
0001
0010
0000
0000
,
1002
0000
0000
0000
0013
0000
0100
0000
1000
0000
0001
0100
0001
0000
0010
0000
,
0100
1000
0100
1000
0010
0100
0010
0100
,
0001
0000
0010
0000
0001
0000
0010
0000
0100
0000
1000
0010
0100
0001
1000
0001
,
0010
0100
1000
0100
0010
0001
0100
0010
,
1010
0000
0000
0110
0000
0000
0101
0000
0000
0000
1000
0001
1000
0000
0010
0000
,
1000
0100
0010
0001
1000
0100
0010
0001
1000
0010
0100
0001
1000
0001
0100
0010
,
1000
0100
0010
0001
1000
0100
0010
0001
1000
0010
0100
0001
1000
0001
0100
0010
,
1000
0100
0010
0001
1000
0001
0010
0100
1000
0010
1000
0100
0010
0001
1000
0001
,
1000
0010
0100
0001
1000
0001
0100
0010
1000
0001
0010
0100
1000
0010
1000
0001
,
0100
0010
1000
0001
1000
0001
0100
0010
1000
0010
0100
0001
1000
0001
1000
0010
,
0100
0010
1000
0001
0010
0001
0100
0010
1000
0010
0100
0001
0100
0001
1000
0010
,
1000
0100
0010
0001
1000
0001
0100
0010
1000
0100
0010
0001
0010
0100
1000
0001
,
0010
0001
1000
0100
0010
0000
0001
0000
1000
0000
0001
1000
0001
0000
0010
0000
,
0001
0100
0010
1000
0001
0100
0010
1000
0001
1000
0010
0100
0001
1000
0001
0010
,
0001
1000
0010
0100
0001
1000
0010
0100
0001
1000
0001
0010
0100
1000
0001
1000
,
0010
0100
0001
1000
0001
0100
0010
1000
0001
0010
0100
1000
0001
1000
0010
0100
,
0001
1000
0100
0010
0001
1000
0010
0100
0001
0100
0010
1000
0001
1000
0100
0010
,
0002
0003
MM00
0022
0033
0M00
0220
0330
,
M00M
2000
3020
0230
0302
0023
0032
0203
,
0310
1000
0001
1000
0010
0100
0001
1000
0001
0010
0100
1000
0001
0010
0100
1000
,
0010
1000
0001
1000
0010
0100
0001
1000
0001
0010
0100
1000
0001
0010
0100
2000
,
0002
0000
0000
0000
,
0000
0000
0000
0000
,
3003
0000
0000
0000
;

//---------------dance-single - C.Sanabria----------------
#NOTES:
     dance-single:
     C.Sanabria:
     Hard:
     10:
     1.000,1.000,0.245,1.000,0.444:
0000
0000
0000
0000
,
0000
0000
0000
0000
,
0000
0000
0000
0000
,
0000
0000
0000
0000
,
2000
3000
0000
0020
0030
0000
0000
0000
,
0200
0300
0000
0002
0003
0000
0000
0000
,
0002
0003
0000
0020
0030
0000
0000
0000
,
0200
0300
0000
2000
3000
0000
0000
0000
,
0002
0100
0103
0020
1000
1030
0200
0010
,
0310
0002
0100
0103
0010
1000
0001
0010
,
0200
1000
1300
0020
0100
0130
0002
0010
,
0013
0200
1000
1300
0010
0100
0001
1000
,
0001
0010
0001
1000
0010
1000
0001
0010
,
0001
1000
0010
1000
0001
0100
0010
1000
,
0001
0000
0010
0000
0001
0000
1000
0000
0010
0000
1000
0M01
1000
0000
0010
0000
,
0100
0001
1000
0010
0100
0001
1000
0010
0100
0001
1000
0001
0010
0100
1000
0001
,
1000
0000
0000
0000
0000
M000
0000
0000
0200
0000
0000
0000
0302
0000
0000
0000
0023
0000
0000
0000
0230
0000
0000
0000
2300
0000
0000
0000
3020
0000
0000
0000
,
2030
3200
0320
0032
0000
2003
0000
3010
,
0200
0000
0302
0000
2003
0000
3200
0000
0000
0000
0310
0001
0010
0000
0001
0100
,
0001
0000
1000
0010
1000
0000
0001
0010
0001
0000
1000
0M01
1000
0000
0010
0000
,
2000
3200
0320
0230
0302
0203
0320
0230
,
2300
3020
0230
0302
0023
0032
2003
3020
,
0230
0000
0302
0000
0023
0000
0032
0000
0000
0000
1003
0100
1000
0000
0010
1000
,
0010
0000
0100
0001
0100
0000
0001
0010
0001
0000
1000
0001
1000
0000
0010
0000
,
0202
0303
0000
0220
0330
0000
2020
3030
,
0001
0100
0001
0000
1000
0000
0100
1000
0100
0000
0010
0000
0100
1000
0001
0000
,
0202
0303
0000
0220
0330
0000
2020
3030
,
1000
0100
1000
0000
0001
0000
0100
0001
0100
0000
0010
0000
0100
0001
1000
0000
,
22M0
3300
0000
022M
0330
0000
M022
0033
,
1000
0100
1000
0100
1000
0000
0001
0100
0001
0100
0001
0000
1000
0001
1000
0000
,
220M
3300
0000
M220
0330
0000
0M22
0033
,
0000
0000
2MM2
0000
0000
0000
3003
0000
1000
0100
0010
0001
1000
0100
0010
0001
,
2000
3020
0230
0302
0000
0023
0000
0230
,
0320
0032
2003
3020
0000
0000
0000
0000
,
2030
3200
0320
0032
2003
3020
0230
0301
,
0101
0000
0000
0110
0000
0000
1010
0000
0000
0000
1000
0000
0010
0000
0100
0000
,
0002
0000
1003
0010
1000
0000
0001
0000
2000
0000
3001
0010
0001
0000
1000
0000
,
0002
0000
0013
0100
1000
0001
1000
0000
0010
0000
0100
0000
0001
0000
1000
0000
,
0001
0100
0001
0100
0010
1000
0010
1000
0001
0010
0001
0010
0100
1000
0100
1000
,
0001
0100
0001
0000
1000
0100
1000
0000
0001
0010
0001
0000
1000
0010
1000
0000
,
0010
0100
0001
0000
1000
0000
0001
0000
1000
0100
1000
0000
0001
0000
1000
0000
,
0010
0100
0001
0000
1000
0100
1000
0000
0001
0100
0010
1000
0001
0000
1000
0001
,
2000
3020
0000
0230
0302
0023
0032
2003
,
0000
0000
3001
0100
0010
1000
0001
0000
1000
0000
0001
1000
0001
1000
0001
1000
,
0200
0000
0000
0000
0000
0000
0000
0000
0000
0000
0310
0001
1000
0000
0001
0000
,
2000
0000
0000
0000
0000
0000
0000
0000
0000
0000
3001
0010
0100
0000
1000
0000
,
0002
0000
0000
0203
0320
2030
3200
0320
,
0032
0000
0000
0203
0000
0000
0320
0000
,
1030
0000
0100
0000
0010
0000
0001
0100
0001
0000
0010
0000
0100
0000
1000
0000
,
0001
0000
0100
0000
0010
0000
1000
0100
1000
0000
0010
0000
0100
0000
0001
0000
,
1000
0000
0100
0000
0010
0000
0001
0100
0001
0000
0100
0000
0010
0000
1000
0000
,
0001
0000
0010
0000
0100
0000
1000
0010
1000
0000
0001
0000
0100
0000
0010
0000
,
1000
0000
0100
0000
0010
0000
0001
1000
0010
0000
1000
0000
0100
0000
0010
0000
,
0001
0000
0100
0000
0010
0000
1000
0001
0010
0000
0001
0000
0100
0000
0010
0000
,
1000
0000
0100
0000
0010
0000
0001
1000
0010
0000
0100
0000
0001
1000
0001
0000
,
2000
0000
3000
0202
0000
0303
0220
0000
0330
0000
1000
0001
1000
0000
0010
0000
,
2000
3200
0320
0230
2300
3200
0320
0230
,
2300
3020
0230
0302
2003
3200
0320
0032
,
2003
3020
0230
0302
0023
0032
0203
0320
,
1030
0100
1000
0100
0010
0001
0010
0001
2000
0000
0000
0000
3010
0000
0100
0000
,
0001
0000
0010
0000
0100
0000
1000
0000
0001
0100
0001
0000
1000
0000
0100
0000
,
1000
0000
0010
0000
0100
0000
0001
0000
1000
0100
1000
0000
0001
0000
0010
0000
,
0001
0000
0100
0000
0010
0000
1000
0000
0001
0010
0001
0000
1000
0000
0010
0000
,
1000
0000
0000
2200
0000
3300
0022
0000
0033
0000
1000
0001
1000
0000
0010
0000
,
2000
3020
0230
0302
0023
0032
0203
0320
,
0000
1030
0100
0010
0001
1000
0010
0100
,
0002
0023
0230
2300
3020
2030
3002
0203
,
0000
0310
0100
0001
1000
0001
0010
0100
,
2000
0000
3010
0200
0000
0301
0020
0000
,
0031
0200
0000
0310
1000
0001
1000
0010
,
0200
0302
2003
3200
,
0310
0001
1000
0001
0100
0010
1000
0001
,
0101
0000
0001
0000
1000
0100
0000
0000
0101
0000
0001
0000
1000
0100
0000
0000
,
2001
0000
0000
0000
3010
0000
0100
0000
0001
0000
1000
0100
1000
0000
0010
0000
,
1010
0000
1000
0000
0001
0010
0000
0000
1010
0000
1000
0000
0001
0010
0000
0000
,
1002
0000
0000
0000
0013
0000
0100
0000
1000
0000
0001
0100
0001
0000
0010
0000
,
0100
1000
0100
1000
0010
0100
0010
0100
,
0001
0000
0010
0000
0001
0000
0010
0000
0100
0000
1000
0001
1000
0001
1000
0001
,
0010
0100
1000
0100
0010
0001
0100
0010
,
1010
0000
0000
0110
0000
0000
0101
0000
0000
0000
1000
0001
1000
0000
0010
0000
,
1000
0000
0010
0000
0100
0000
0001
0000
1000
0100
1000
0000
0001
0000
0010
0000
,
0001
0000
0100
0000
0010
0000
1000
0000
0001
0100
0001
0000
1000
0000
0100
0000
,
1000
0010
1000
0010
0100
0001
0100
0001
1000
0000
0100
0000
0010
0000
0001
0000
,
1000
0100
1000
0100
0010
0001
0010
0001
1000
0000
0010
0000
0100
0000
0001
0000
,
0020
0000
0130
2000
0000
3010
0200
0000
,
0301
0020
0000
0031
0100
0010
1000
0001
,
1000
M000
2000
3020
0230
0302
2003
3002
,
0203
0000
0320
0000
0000
0000
0130
0000
0001
0000
1000
0001
1000
0000
0010
0000
,
0200
0000
0302
0000
2003
3200
0320
0032
,
0000
0013
0002
0203
0320
2030
3200
2300
,
3020
0000
0130
0002
0000
0013
0200
0000
,
1300
0002
0000
0000
0203
0000
0310
0000
,
2002
3003
0000
0022
0033
0000
0220
0330
,
0000
2000
3020
0230
0302
0023
0032
0203
,
0301
0100
0001
0100
0010
1000
0010
1000
0001
0000
0010
0000
0100
0000
1000
0000
,
0001
0100
0001
0100
0010
1000
0010
1000
0001
0000
0100
0000
0010
0000
1000
0002
,
2000
0000
0000
0000
,
0000
0000
0000
0000
,
3003
0000
0000
0000
;
