#TITLE:Skydive;
#SUBTITLE:;
#ARTIST:Zafrece;
#TITLETRANSLIT:;
#SUBTITLETRANSLIT:;
#ARTISTTRANSLIT:;
#GENRE:;
#CREDIT:;
#BANNER:skydive-bn.png;
#BACKGROUND:skydive-bg.png;
#LYRICSPATH:;
#CDTITLE:;
#MUSIC:Zafrece - Skydive.ogg;
#OFFSET:-0.040;
#SAMPLESTART:56.550;
#SAMPLELENGTH:12.000;
#SELECTABLE:YES;
#BPMS:0.000=140.000;
#STOPS:;
#BGCHANGES:;
#KEYSOUNDS:;

//---------------dance-single - C.Sanabria----------------
#NOTES:
     dance-single:
     C.Sanabria:
     Challenge:
     10:
     0.669,0.933,0.420,0.926,0.245:
0000
0000
0000
0000
,
0000
0000
0000
0000
,
0000
0000
0000
0000
,
0000
0000
0000
0000
,
0020
0000
0230
0000
0000
0010
0000
0301
,
0020
0000
0230
0000
0000
0010
0000
1300
,
0020
0000
0230
0000
0000
1000
0000
0301
,
2000
0000
3200
0000
0000
0001
0000
0310
,
0002
0000
0203
0000
0000
1000
0000
0310
,
2000
0010
0001
0100
,
3001
0000
0000
0000
0000
0M0M
0000
0000
0000
0000
0000
0000
0011
0000
0000
0000
0000
0000
0000
00MM
0000
0000
0000
0000
2100
0000
0000
0000
0000
0000
0000
0000
,
0002
0000
3000
0200
0000
0003
0020
0300
,
1030
0200
0000
0000
0020
0300
0002
0030
,
0200
0000
0003
0020
0300
2000
0000
0030
,
0200
0000
3000
0020
0000
0300
0002
0030
,
0200
0000
0000
0003
0020
0000
0000
0300
,
2000
0000
0030
0002
0000
3000
0013
0100
,
2000
0000
0000
0020
0000
3000
0002
0030
,
0020
0003
0200
0030
0002
0300
2000
0003
,
0200
0000
0000
3000
0002
0000
0300
0200
,
0003
0000
0320
0000
0001
0000
0000
0000
0001
0000
0000
0000
0031
0100
0020
0000
,
0000
0000
0002
0000
0000
0000
0030
0000
0020
0000
0003
0000
0130
0001
1000
0100
,
0010
0002
0000
0000
1003
0100
0010
0100
2000
0000
0000
0000
0020
0000
3000
0000
,
0200
0000
0030
0000
0002
0300
2000
0003
3100
0010
0001
1000
0010
1000
0001
0010
,
0100
1000
0001
1000
0010
0000
0010
0100
0001
0000
0001
1000
0100
0000
0100
1000
,
0002
0000
0103
0001
1000
0000
0010
1000
0100
0000
0100
1000
0001
0000
0001
1000
,
0001
0100
0010
1000
0100
1000
0001
0010
0001
0100
0010
1000
0001
0010
0100
0010
,
0001
0100
0010
1000
0001
0010
0100
1000
0010
1000
0100
0010
0001
1000
0100
0010
,
0001
M1M1
M11M
1M1M
,
1MM1
MM11
M11M
11MM
,
01M1
01M1
M110
M110
101M
101M
1M01
1M01
,
11M0
11M0
011M
011M
M011
M011
1M01
1M01
,
1000
0000
0000
0010
0000
0000
0100
0000
0000
0001
0000
0000
1000
0000
0000
0010
0000
0000
0100
0000
0000
0001
0000
0000
1000
0000
0001
0000
1000
0000
0001
0000
1000
0000
0001
0000
4000
0000
0000
0000
0000
0000
0000
0000
0000
0000
0000
0000
,
3002
0000
0000
0000
0200
0000
0000
0003
,
0020
0300
0100
0000
0100
0000
1030
0100
,
0020
0000
0000
0002
0000
0030
0200
0003
,
0020
0000
0300
0002
0030
0020
0003
2000
,
0030
0000
0002
3000
0020
0003
0200
0030
0020
0300
2000
0030
0020
3000
0200
0030
,
2000
0300
3020
0000
0100
0000
0000
0000
0100
0000
0000
0000
0100
0000
0000
0000
,
0002
0000
0000
0030
0000
0000
0020
0000
0003
0000
2000
0000
0000
0000
0030
0000
,
3002
0003
020M
0300
0M20
0030
20M0
3000
,
M001
0010
0100
1000
0001
0100
0010
1000
,
0001
0010
0100
1000
0010
0100
0001
0010
,
0100
1000
0010
1000
0001
0100
0001
0010
0100
1000
0001
1000
0001
0010
0100
1000
,
0002
0000
0000
0000
0003
0000
10M0
0M00
,
1100
10M0
0001
0020
M000
0000
0130
M000
,
0011
0M10
0100
2000
000M
00M0
3001
0M00
,
0011
M010
010M
2000
00M0
000M
3010
1000
,
1100
0001
M010
0200
001M
0000
13M0
0000
,
M011
0100
10M0
0002
0M00
M000
0103
00M0
,
1010
0M01
0100
0020
100M
0000
0130
000M
,
1M01
M010
0100
200M
0010
0M00
3100
10M0
,
0101
1000
1M10
0100
0001
10M0
0100
M010
,
0011
0M01
1000
00M1
0200
M000
0310
000M
,
1010
0100
00M1
1000
0M02
0000
M013
0000
,
1100
00M1
0010
010M
2000
0M00
3010
0100
,
0101
1000
1010
0100
00M1
1000
010M
0010
,
M002
0013
0M02
1003
00M2
0103
M010
1000
,
120M
0310
M002
0013
M200
0000
0310
000M
,
0201
0302
M010
0023
0130
100M
0010
0100
,
0101
0001
0100
0010
200M
0100
32M0
0310
,
M011
0001
11M0
0100
M011
0010
1100
10M0
,
0001
M100
0001
10M0
0002
0M10
0023
0130
,
1000
0000
0000
0010
0000
0000
0100
0000
0000
0001
0000
0000
1000
0000
0000
0010
0000
0000
0100
0000
0000
0001
0000
0000
1000
0000
0001
0000
1000
0000
0001
0000
1000
0000
0001
0000
4000
0000
0000
0000
0000
0000
0000
0000
0000
0000
0000
0000
,
3002
0000
0203
000M
2300
0M00
3200
M000
,
0302
0M00
0023
000M
0230
00M0
2300
0M00
,
3002
M000
0023
000M
2030
00M0
3020
M000
,
0230
00M0
1000
0000
2300
0000
0M01
0000
,
3001
0000
01M1
0000
0000
1000
0000
0010
,
M101
0000
0001
0000
0000
10M0
0000
0100
,
M011
0000
0100
0000
0000
001M
0000
1000
,
0M11
0000
0100
0000
0000
10M0
0000
0010
,
M101
0000
0001
0000
0000
0M10
0000
0100
,
20M1
0000
3020
M000
0230
00M0
0302
0M00
,
1003
0000
0000
M00M
0000
0000
1100
0000
0000
MM00
0000
0000
0022
0000
0000
0000
,
0033
0000
0000
0000
;
