#TITLE:Shoulder Boulders;
#SUBTITLE:;
#ARTIST:S3RL;
#TITLETRANSLIT:;
#SUBTITLETRANSLIT:;
#ARTISTTRANSLIT:;
#GENRE:;
#CREDIT:C.Sanabria;
#BANNER:;
#BACKGROUND:;
#LYRICSPATH:;
#CDTITLE:;
#DISPLAYBPM:87.500:175.000;
#MUSIC:S3RL - Shoulder Blulders(edit) 175Bpm.ogg;
#OFFSET:-0.006;
#SAMPLESTART:43.642;
#SAMPLELENGTH:12.000;
#SELECTABLE:YES;
#BPMS:0.000=87.500,8.000=175.000,216.500=350.000,217.000=175.000,219.000=175.000,223.000=350.000,225.000=175.000,228.000=350.000,229.000=175.000,239.000=350.000,241.000=175.000,248.500=350.000,249.000=175.000,255.000=350.000,257.000=175.000,260.000=350.000,261.000=175.000,271.000=350.000,273.000=175.000,301.000=87.500,305.000=175.000;
#STOPS:71.500=0.340
,102.500=0.340
,116.500=0.340
,216.500=0.043
,216.750=0.043
,223.000=0.043
,223.250=0.043
,223.500=0.043
,223.750=0.043
,224.000=0.086
,224.500=0.086
,228.000=0.043
,228.250=0.043
,228.500=0.043
,228.750=0.043
,239.000=0.043
,239.250=0.043
,239.500=0.043
,239.750=0.043
,240.000=0.086
,240.500=0.086
,248.500=0.043
,248.750=0.043
,255.000=0.043
,255.250=0.043
,255.500=0.043
,255.750=0.043
,256.000=0.086
,256.500=0.086
,260.000=0.043
,260.250=0.043
,260.500=0.043
,260.750=0.043
,271.000=0.043
,271.250=0.043
,271.500=0.043
,271.750=0.043
,272.000=0.086
,272.500=0.086
;
#BGCHANGES:;
#KEYSOUNDS:;

//---------------dance-single - SSTM----------------
#NOTES:
     dance-single:
     SSTM:
     Challenge:
     10:
     0.796,1.000,0.202,0.780,0.445:
0000
0000
0000
0000
,
0000
0000
0000
0000
,
2000
0000
0000
0000
3100
M00M
0100
0000
0001
0000
0010
0000
0200
0000
0000
0000
,
0310
M00M
0010
0000
1000
0000
0001
0000
0100
M00M
0100
0000
0020
0000
0000
0000
,
0031
0000
00M0
0000
0100
M00M
0100
0000
1000
0000
0001
0000
2000
0000
0000
0000
,
3010
M00M
0010
0000
0002
0000
0000
0000
0013
M00M
0010
0000
2000
0000
0000
0000
,
3100
M00M
0100
0000
0001
0000
1000
0000
0010
M00M
0010
0000
0002
0000
0M00
0000
,
1003
0000
0100
M00M
0100
0000
0001
0000
0100
M00M
0100
0000
2000
0000
0000
0000
,
3001
0100
0010
0100
1000
0100
0002
0000
,
2003
0000
0000
0000
3400
M00M
M00M
0000
0340
M00M
M00M
0000
0032
0000
0000
0000
,
1003
M000
0010
00M0
0100
0M00
0001
000M
,
1000
M000
0010
00M0
0100
0M00
0001
000M
,
1000
1000
0100
0100
0010
0010
0001
0001
,
2002
00M0
0M00
00M0
0M00
0000
3003
0000
,
0001
0100
0010
1000
0010
0100
0001
0010
,
0001
0100
0010
1000
1100
0000
0011
0000
,
1000
0100
0010
0001
0100
0001
0010
0100
,
1000
0010
0100
0001
0101
0000
1010
M00M
,
0001
0100
0010
1000
0100
0010
0001
0100
,
0001
0010
0110
0000
1100
0000
0101
0000
,
1001
1010
0101
2020
,
0000
0000
0000
0000
3030
0000
1100
0110
,
0011
0000
0001
0100
0010
1000
0100
1000
,
0010
0100
0002
0000
2003
0000
3001
0010
,
0001
0100
0010
1000
0100
2000
0000
3010
,
0100
0000
0101
0000
0011
00MM
1000
0100
,
0010
0001
0100
0001
0010
0100
1000
0001
,
1001
0000
0000
0000
0101
0000
0000
0000
1010
0000
0000
0000
0001
0100
0001
1000
,
0010
0000
0100
0010
4000
0000
0000
0000
3200
0000
0000
0000
0310
0001
1000
0000
,
0010
0100
0001
000M
2000
0000
0000
0000
3100
M00M
0100
0000
0001
0000
0010
0000
,
0200
0000
0000
0000
0310
M00M
0010
0000
1000
0000
0001
0000
0100
M00M
0100
0000
,
0020
0000
0000
0000
0031
0000
00M0
0000
0100
M00M
0100
0000
1000
0000
0001
0000
,
2000
0000
0000
0000
3010
M00M
0010
0000
0002
0000
0000
0000
0013
M00M
0010
0000
,
2000
0000
0000
0000
3100
M00M
0100
0000
0001
0000
1000
0000
0010
M00M
0010
0000
,
0002
0000
0M00
0000
1003
0000
0100
M00M
0100
0000
0001
0000
0100
M00M
0100
0000
,
2000
0000
3001
0100
0010
0100
1000
0100
,
0002
0000
0000
0000
2003
0000
0000
0000
3400
M00M
M00M
0000
0340
M00M
M00M
0000
,
0032
0000
0000
0000
2003
0000
0000
0000
3010
M00M
0010
0000
0001
0000
0100
0000
,
0020
0000
0000
0000
0130
M00M
0100
0000
1000
0000
0001
0000
0010
M00M
0010
0000
,
0200
0000
0000
0000
0301
0000
00M0
0000
0010
M00M
0010
0000
1000
0000
0001
0000
,
2000
0000
0000
0000
3100
M00M
0100
0000
0002
0000
0000
0000
0103
M00M
0100
0000
,
2000
0000
0000
0000
3010
M00M
0010
0000
0001
0000
1000
0000
0100
M00M
0100
0000
,
0002
0000
00M0
0000
1003
0000
0010
M00M
0010
0000
0001
0000
0010
M00M
0010
0000
,
2000
0000
3001
0010
0100
0010
1000
0010
,
0002
0000
0000
0000
2003
0000
0000
0000
3040
M00M
M00M
0000
0430
M00M
M00M
0000
,
0302
0000
0000
0000
1003
0000
0000
0000
0100
0010
0001
0000
1000
0001
1000
0010
,
0100
0002
0000
0000
0000
0000
MM13
0000
,
0000
0000
0000
0000
M100
0000
0000
0000
1000
0010
0100
0000
0001
1000
0001
0010
,
0200
0000
0000
13MM
,
0000
0000
0000
0000
0001
0100
0010
0000
1000
0100
1000
0000
0010
1000
0100
0000
,
0200
0000
0000
M31M
,
0000
0000
0000
0000
0001
0000
1000
0010
0400
0000
0000
0000
0320
0000
2030
0000
,
3001
0000
00M0
M000
000M
0M00
00M0
M000
,
0M00
00M0
0002
0000
0203
0000
0310
M00M
,
0000
0000
1000
0100
2000
0000
0000
3020
0000
0000
0130
0000
0101
0000
00M0
0000
,
0011
0000
0000
0000
1200
0000
0000
0000
0310
0000
0001
0000
1000
0010
0100
0001
,
0040
0000
0000
0000
0032
0000
0000
0203
0000
0000
0310
0000
1010
0000
0M00
0000
,
1000
0100
0010
0001
0200
0000
0000
0000
03M1
0000
0000
0000
1M10
0000
0000
0000
,
0001
0000
1000
0100
0020
0000
0000
0000
0032
0000
0000
0000
2003
0000
0000
0000
,
3020
0000
0000
0000
0230
0000
0000
0000
0000
0000
0301
0000
1000
0010
0100
0001
,
0040
0000
0000
0000
0031
0100
0010
1000
0001
0100
0010
1000
0200
0000
0000
0000
,
1300
0000
20M1
0000
3200
0000
0310
M00M
,
0000
0000
0001
0100
0002
0000
0000
0023
0000
0000
0130
0000
1100
0000
00M0
0000
,
1010
0000
0000
0000
0201
0000
0000
0000
0310
0000
1000
0000
0001
0010
0100
1000
,
0040
0000
0000
0000
2030
0000
0000
3200
0000
0000
0310
0000
0011
0000
0M00
0000
,
0001
0100
0010
1000
0200
0000
0000
0000
13M0
0000
0000
0000
0M11
0000
0000
0000
,
1000
0000
0001
0100
0020
0000
0000
0000
2030
0000
0000
0000
3002
0000
0000
0000
,
0023
0000
0000
0000
0230
0000
0000
0000
0000
0000
1300
0000
0001
0010
0100
1000
,
0040
0000
0000
0000
1030
0100
0010
0001
1000
0100
0010
0001
0200
0000
0000
0000
,
0000
0000
0310
2000
0000
3001
0020
0000
,
0031
0200
0000
0310
2000
0000
3001
0010
,
0100
1000
0010
0200
0000
0301
0020
0000
,
0031
0200
0000
0310
2000
0000
3100
0010
,
0001
0100
0010
0010
1000
1000
0001
0001
,
0010
0000
0010
0000
0100
0000
0100
0000
1000
0010
0100
0001
0010
0001
0010
0001
,
0100
0010
1000
0001
10M0
0100
0010
0001
0100
0010
1000
0001
1000
0000
0020
0230
,
0302
2003
3002
0003
1000
0000
0100
M00M
0100
0000
0001
0000
0100
M00M
0100
0000
,
1000
0000
0100
M00M
0100
0000
0001
0000
0100
0000
0010
0000
1000
0000
0001
0000
,
0010
0000
0001
0000
1000
0000
0010
M00M
0010
0000
0001
0000
0010
M00M
0010
0000
,
1000
0000
0010
M00M
0010
0000
0001
0000
0100
0000
0010
0000
1000
0000
0100
0000
,
1000
0000
0010
0000
1000
0000
0100
M00M
0100
0000
0010
0000
0100
M00M
0100
0000
,
1000
0000
0100
M00M
0100
0000
0010
0000
0100
0000
0001
0000
0010
0000
0001
0000
,
0100
0000
0010
0000
1000
0000
0100
M00M
0100
0000
0001
0000
0010
M00M
0010
0000
,
1000
0000
0100
M00M
0100
0000
0001
0000
1000
0000
0100
0000
0010
0000
0002
0000
,
0000
0000
0000
0000
1003
0000
0010
M00M
0010
0000
0001
0000
0010
M00M
0010
0000
,
1000
0000
0010
M00M
0010
0000
0001
0000
0010
0000
0100
0000
1000
0000
0001
0000
,
0100
0000
0001
0000
1000
0000
0100
M00M
0100
0000
0001
0000
0100
M00M
0100
0000
,
1000
0000
0100
M00M
0100
0000
0001
0000
0010
0000
0100
0000
1000
0000
0010
0000
,
1000
0000
0100
0000
1000
0000
0010
M00M
0010
0000
0100
0000
0010
M00M
0010
0000
,
1000
0000
0010
M00M
0010
0000
0100
0000
0010
0000
0001
0000
0100
0000
0001
0000
,
0010
0000
0100
0000
1000
0000
0010
M00M
0010
0000
0001
0000
0100
M00M
0100
0000
,
1000
0000
0010
M00M
0010
0000
0001
0000
1000
0000
0010
0000
0100
0000
0002
0000
,
0000
0000
1003
0010
0100
0001
0010
0001
,
0100
0010
2000
0000
0001
0000
3200
0000
,
1000
0000
0310
0001
0100
0010
1000
0002
,
0203
0320
2030
0000
0010
0000
3002
0000
,
0013
0100
1000
0001
0200
0000
0000
0000
0010
0000
0000
0000
0001
0000
0000
0000
,
0310
0000
1000
0100
0020
0000
0000
0000
0032
0000
0000
0000
0203
0000
0000
0000
,
0320
0000
1030
0100
0010
0001
1000
0100
,
0010
0000
0001
0000
1000
0010
0100
0001
0010
0001
0100
0010
2000
0000
0000
0000
,
0000
3002
0010
1000
,
0100
0023
0001
0230
,
0000
1300
0020
0000
0000
0000
0000
0230
,
0302
2003
3200
0000
0000
0000
0320
0000
,
0031
0100
0010
1000
0100
0000
0100
0000
0010
0000
0010
0000
0001
0000
0001
0000
,
1000
1000
0010
0010
0100
0100
0001
0001
,
0010
0000
0010
0000
0100
1000
0010
0100
0001
1000
0001
1000
0010
0100
0001
0010
,
0001
1000
0010
0100
0002
0023
0230
2300
3002
0023
0230
2300
3020
0000
0000
0000
,
0000
0000
0000
0030
0000
0000
0000
0000
;
