#TITLE:Peligro;
#SUBTITLE:;
#ARTIST:Reik;
#TITLETRANSLIT:;
#SUBTITLETRANSLIT:;
#ARTISTTRANSLIT:;
#GENRE:;
#CREDIT:;
#BANNER:peligro-bn.png;
#BACKGROUND:peligro-bg.png;
#LYRICSPATH:;
#CDTITLE:;
#MUSIC:Reik - Peligro.ogg;
#OFFSET:-0.240;
#SAMPLESTART:59.630;
#SAMPLELENGTH:12.000;
#SELECTABLE:YES;
#BPMS:0.000=126.960;
#STOPS:;
#BGCHANGES:32.000=Reik - Peligro.avi=1.000=1=0=1===CrossFade==,
459.500=peligro-bg.png=1.000=0=0=1=====,
99999=-nosongbg-=1.000=0=0=0 // don't automatically add -songbackground-
;
#KEYSOUNDS:;

//---------------dance-single - C.Sanabria----------------
#NOTES:
     dance-single:
     C.Sanabria:
     Challenge:
     9:
     0.601,0.555,0.206,0.508,0.135:
0000
0000
0000
0000
,
0000
0000
0000
0000
,
0000
0000
0000
0000
,
0000
0000
0000
0000
,
1000
0010
1000
0200
0000
0320
0000
0031
,
1000
0010
1000
0002
0000
0203
0000
0310
,
1000
0100
1000
0001
1000
0010
1000
0002
,
0000
0000
0013
0000
0100
0000
1000
0000
0010
0000
1001
0000
1001
0000
0001
1000
,
0001
0010
0001
0200
0000
0320
0000
1030
,
0001
0010
0001
2000
0000
3200
0000
0310
,
0001
0100
0001
1000
0001
0010
0002
2000
,
00M0
0000
0000
0000
3M03
0000
0000
0000
0010
1000
0001
0100
0001
0000
1000
0000
,
0001
0100
1000
0100
0002
0000
0013
0200
,
0000
1300
0010
0100
0010
0001
0010
1000
,
0001
0010
1000
0010
0002
0000
0103
0020
,
0000
1030
0100
0010
0100
0001
0100
1000
,
0001
0100
0001
0100
0020
0000
1030
0200
,
0000
0310
0001
1000
0010
0010
0100
0100
,
0002
0000
0013
0100
2000
0000
3010
0101
,
0M00
0000
1010
0000
00M0
0000
0001
0000
0100
0000
0010
0000
1000
0001
1000
0000
,
0100
0010
0100
1000
0100
0010
0100
1000
,
0100
0010
0100
1000
0010
1000
0001
0100
,
0010
1000
0010
0100
0010
1000
0010
0100
,
0010
1000
0010
0100
0001
1000
0001
0010
,
0001
0100
0010
0100
1000
0100
0010
0100
,
0001
0100
0010
0100
1000
0100
0010
0100
,
0002
0000
0023
0000
0230
0000
0300
1100
,
0M00
0011
00M0
1000
0010
0100
0002
0000
,
1003
0010
1000
0100
0020
0000
0031
0200
,
0000
0310
1000
0100
0001
0100
1000
0010
,
0200
0000
0302
0000
2003
0000
3000
0022
,
0000
0000
0000
0000
0033
00MM
0000
0000
,
1000
0000
0010
0000
1000
0000
0100
0000
0010
0000
0001
0100
0001
0000
0020
0000
,
0000
0000
0130
0000
1000
0000
0010
0000
0100
0000
0001
0100
0001
0000
0102
0000
,
00M0
1003
0010
2010
0M00
3001
0010
0200
,
0000
1300
0010
0100
0001
1000
0001
0200
,
0000
0000
0301
0000
0010
0000
0100
0000
1000
0000
0010
1000
0010
0000
2000
0000
,
0000
0000
3100
0000
0010
0000
0001
0000
0100
0000
0010
1000
0010
0000
2010
0000
,
0M00
3001
0100
0102
00M0
1003
0010
0200
,
0000
0000
0301
0000
1000
0000
0001
0100
0001
1000
0010
1000
0001
0100
0001
1000
,
0010
0100
0001
1000
0100
0010
0001
0021
,
000M
0031
0010
0100
1000
0010
0001
0010
,
0100
0010
1000
0100
0010
0001
1000
1020
,
M000
1030
0010
0100
0001
0101
1010
0100
,
0010
0100
0001
1000
0100
0010
0001
0201
,
000M
0301
0010
0100
1000
0010
0001
0010
,
0200
0000
0302
0000
2003
0000
3000
0022
,
0000
0000
0000
0000
0000
0000
0000
0000
0033
0000
1000
0100
1000
0001
0010
0001
,
1000
0010
0100
0010
0001
0010
0100
0010
,
1000
0010
0100
0010
0001
0010
0100
0010
,
1000
0100
0010
0100
1000
0100
0010
0001
,
1000
0010
0100
0010
1000
0010
0100
0001
,
1000
0100
0001
0100
1000
0100
0001
0100
,
1000
0010
0001
0010
1000
0010
0001
0010
,
2000
0000
3200
0000
0320
0000
0031
0201
,
00M0
0000
0320
0000
0000
0000
1030
0000
0100
0000
0010
0000
0001
1000
0001
0000
,
1000
0010
1000
0100
0020
0000
0031
0200
,
0000
0310
1000
0100
0010
0001
0100
0010
,
2000
0000
3200
0000
0320
0000
0030
2002
,
00M0
0M00
00M0
3003
,
0001
0000
0010
0000
0001
0000
0100
0000
0010
0000
1000
0100
1000
0000
0020
0000
,
0000
0000
0130
0000
0001
0000
0010
0000
0100
0000
1000
0100
1000
0000
2100
0000
,
00M0
3001
0010
0012
0M00
1003
0010
0200
,
0000
0301
0010
0100
1000
0001
1000
0200
,
0000
0000
1300
0000
0010
0000
0100
0000
0001
0000
0010
0001
0010
0000
0002
0000
,
0000
0000
0103
0000
0010
0000
1000
0000
0100
0000
0010
0001
0010
0000
0012
0000
,
0M00
1003
0100
2100
00M0
3001
0010
0200
,
0000
0000
1300
0000
0001
0000
1000
0100
1000
0001
0010
0001
1000
0100
1000
0001
,
1000
0000
0010
0000
1000
0000
0100
0000
0010
0000
0001
0100
0001
0000
0020
0000
,
0000
0000
0130
0000
1000
0000
0010
0000
0100
0000
0001
0100
0001
0000
0102
0000
,
00M0
1003
0010
2010
0M00
3001
0010
0200
,
0000
1300
0010
0100
0001
1000
0001
0200
,
0000
0000
0301
0000
0010
0000
0100
0000
1000
0000
0010
1000
0010
0000
2000
0000
,
0000
0000
3100
0000
0010
0000
0001
0000
0100
0000
0010
1000
0010
0000
2010
0000
,
0M00
3001
0100
0102
00M0
1003
0010
0200
,
0000
0000
0301
0000
1000
0000
0001
0100
0001
1000
0010
1000
0001
0100
0001
1000
,
0100
0010
0001
1000
0010
0100
0001
0201
,
000M
0301
0100
0010
1000
0100
0001
0100
,
0010
0100
1000
0010
0100
0001
1000
1200
,
M000
1300
0100
0010
0001
0011
1100
0010
,
0100
0010
0001
1000
0010
0100
0001
0021
,
000M
0031
0100
0010
1000
0100
0001
0100
,
0020
0000
0032
0000
2003
0000
3000
0220
,
0000
0000
0000
0330
,
100M
0M00
00M0
001M
M000
0M00
000M
M000
,
010M
M000
00M0
M001
0M00
00M0
M000
0M00
,
M010
000M
0M00
M100
000M
00M0
M000
000M
,
10M0
000M
0M00
00M1
M000
00M0
0M00
M000
,
01M0
000M
M000
001M
0M00
M000
000M
0M00
,
100M
00M0
0M00
010M
M000
00M0
000M
M000
,
00M1
0M00
M000
0M10
000M
M000
000M
0M00
,
0100
0000
1000
0000
0001
0100
0001
1000
0010
1000
0001
0010
0001
1000
0100
1000
,
0001
0000
0100
0000
0001
0000
0010
0000
0100
0000
1000
0010
1000
0000
0200
0000
,
0000
0000
0310
0000
0001
0000
0100
0000
0010
0000
1000
0010
1000
0000
2010
0000
,
0M00
3001
0100
0102
00M0
1003
0100
0020
,
0000
0031
0100
0010
1000
0001
1000
0020
,
0000
0000
1030
0000
0100
0000
0010
0000
0001
0000
0100
0001
0100
0000
0002
0000
,
0000
0000
0013
0000
0100
0000
1000
0000
0010
0000
0100
0001
0100
0000
0102
0000
,
00M0
1003
0010
2010
0M00
3001
0100
0020
,
0000
0000
1030
0000
0001
0000
1000
0010
0100
0001
0010
0001
1000
0100
1000
0010
,
1000
0000
0100
0000
1000
0000
0010
0000
0100
0000
0001
0010
0001
0000
0200
0000
,
0000
0000
0310
0000
1000
0000
0100
0000
0010
0000
0001
0010
0001
0000
0012
0000
,
0M00
1003
0100
2100
00M0
3001
0100
0020
,
0000
1030
0100
0010
0001
1000
0001
0020
,
0000
0000
0031
0000
0100
0000
0010
0000
1000
0000
0100
1000
0100
0000
2000
0000
,
0000
0000
3010
0000
0100
0000
0001
0000
0010
0000
0100
1000
0100
0000
2100
0000
,
00M0
3001
0010
0012
0M00
1003
0100
0020
,
0000
0000
0031
0000
1000
0000
0001
0010
0100
1000
0100
1000
0001
1000
0001
1000
,
0010
0100
0001
1000
0100
0010
0001
0021
,
000M
0031
0010
0100
1000
0010
0001
0010
,
0100
0010
1000
0100
0010
0001
1000
1020
,
M000
1030
0010
0100
0001
0100
1000
0100
,
0010
0100
0001
1000
0100
0010
0001
0201
,
000M
0301
0010
0100
1000
0010
0001
0010
,
0200
0000
0320
0000
2030
0000
3000
2002
,
00M0
0M00
30M3
0000
;
