#TITLE:Opera;
#SUBTITLE:(Japanese version);
#ARTIST:Super Junior M;
#TITLETRANSLIT:;
#SUBTITLETRANSLIT:;
#ARTISTTRANSLIT:;
#GENRE:;
#CREDIT:;
#BANNER:;
#BACKGROUND:;
#LYRICSPATH:;
#CDTITLE:;
#MUSIC:Super Junior - Opera (Japanese version).mp3;
#OFFSET:-8.650;
#SAMPLESTART:36.865;
#SAMPLELENGTH:12.000;
#SELECTABLE:YES;
#BPMS:0.000=102.000;
#STOPS:;
#BGCHANGES:;
#KEYSOUNDS:;

//---------------dance-single - C.Sanabria----------------
#NOTES:
     dance-single:
     C.Sanabria:
     Challenge:
     9:
     0.286,0.260,0.062,0.195,0.242:
0010
0000
0010
0000
1000
0100
1000
0100
0010
0000
0010
0000
0100
0010
0001
1000
,
0001
0000
0001
0000
1000
0100
1000
0100
0010
0000
0010
0000
0100
1000
0001
1000
,
0010
0000
0010
0000
0100
0001
0100
0001
1000
0000
1000
0000
0100
0010
0001
1000
,
0001
0000
0001
0000
1000
0010
1000
0010
0100
0000
0100
0000
0001
1000
0001
0010
,
0100
0000
0000
0100
1000
0000
0001
0000
0100
0000
0010
0000
1000
0000
0010
0000
,
1000
0000
0001
1000
0001
0000
0010
0000
0200
0000
1000
0000
1000
0000
0310
0000
,
0001
0000
0000
0001
0100
0000
0010
0000
1000
0000
0001
0000
1000
0000
0001
0000
,
0010
0000
0001
1000
0001
0000
0100
0000
0M00
0000
0200
0000
0302
0000
2003
0000
,
3010
0000
0000
0010
1000
0000
0001
0000
1000
0000
0100
0000
1000
0000
0100
0000
,
0010
0000
0001
1000
0001
0000
0100
0000
0M00
0000
0200
0000
0302
0000
2003
0000
,
3100
0000
0000
0100
0010
0000
0001
0000
2000
0000
0010
0000
00M0
0000
3010
0000
,
1000
0000
0001
0010
0001
0000
0100
0000
0010
0000
2000
0000
3002
0000
2003
0000
,
3010
0000
0010
0000
1000
0100
0010
0001
0010
0000
0010
0000
0100
0010
0001
1000
,
0001
0000
0001
0000
1000
0010
0100
0001
1000
0000
1000
0000
0100
0010
0001
1000
,
0001
0000
0001
0000
1000
0010
1000
0010
0100
0000
0100
0000
0001
0010
0001
1000
,
0100
0000
0100
0000
0010
0100
1000
0001
2000
0000
3020
0000
0130
0001
0000
1000
,
0001
0000
0010
0000
0100
1000
0010
1000
0001
0000
0101
0000
0101
0000
0101
0000
,
1000
0000
0010
0000
0100
0001
1000
0100
0010
0000
1100
0000
1100
0000
1100
0000
,
0001
0000
0001
0000
1000
0010
0100
0001
0010
0000
1001
0000
1001
0000
1001
0000
,
1000
0000
0010
0000
1000
0000
0010
0000
0100
0000
0001
0000
0100
0000
0001
0000
1000
0000
0100
0000
0010
0000
0001
0000
1000
0001
1000
0001
1000
0000
0001
0000
,
1000
0000
1000
0000
0010
0100
0010
0100
0001
0000
0001
0000
1000
0100
0010
0001
,
0010
0000
0010
0000
0100
1000
0100
1000
0001
0000
0001
0000
1000
0010
0100
0001
,
1000
0000
1000
0000
0100
0010
0100
0010
0001
0000
0001
0000
0100
0010
1000
0001
,
1000
0000
2000
0000
3200
0000
0320
0000
0032
0000
2003
0000
3001
0010
0000
0100
,
1000
0000
0010
0000
0100
0001
1000
0001
1000
0000
0100
0000
0010
0100
1000
0001
,
1000
0000
0010
0000
0100
0001
1000
0001
0010
0000
0100
0000
0010
0001
1000
0010
,
0100
0000
0001
1000
0010
0100
0001
1000
0001
0000
0100
0000
0001
0010
0100
1000
,
0010
0000
0200
0000
0302
0000
1003
0100
2000
0000
3020
0000
0230
0000
0301
1000
,
0002
0000
0000
0023
0000
0000
0230
0000
0000
0000
1300
0000
000M
0000
00M0
0000
,
2000
0000
0000
3020
0000
0000
0230
0000
0000
0000
0301
0000
1001
0000
00M0
0000
,
2000
0000
0000
3010
0100
0000
0001
0000
1000
0000
0002
0000
0013
0000
0100
0000
,
2000
0000
0000
3001
0100
0000
0010
0000
1000
0000
0200
0000
0320
0000
0032
0000
,
1003
0010
1000
0010
0100
0001
1000
0001
,
0010
0100
1000
0001
000M
0001
0100
0010
,
2000
0000
3100
0010
0002
0000
0103
0010
,
1000
0100
0010
0001
000M
0002
2003
3002
,
0013
0000
0010
0000
0001
0100
0010
1000
0010
0000
0010
0000
0100
0010
1000
0001
,
1000
0000
1000
0000
0001
0010
0100
1000
0001
0000
0001
0000
0100
0010
1000
0001
,
1000
0000
1000
0000
0001
0010
0001
0010
0100
0000
0100
0000
1000
0010
1000
0001
,
0100
0000
0100
0000
0010
0100
0001
1000
0002
0000
0023
0000
0130
1000
0000
0001
,
1000
0000
0010
0000
0100
0001
0010
0001
1000
0000
1100
0000
1100
0000
1100
0000
,
0001
0000
0010
0000
0100
1000
0001
0100
0010
0000
0101
0000
0101
0000
0101
0000
,
1000
0000
1000
0000
0001
0010
0100
1000
0010
0000
1001
0000
1001
0000
1001
0000
,
0001
0000
0010
0000
0001
0000
0010
0000
0100
0000
1000
0000
0100
0000
1000
0000
0001
0000
0100
0000
0010
0000
1000
0000
0001
1000
0001
1000
0001
0000
1000
0000
,
0001
0000
0001
0000
0010
0100
0010
0100
1000
0000
1000
0000
0001
0100
0010
1000
,
0010
0000
0010
0000
0100
0001
0100
0001
1000
0000
1000
0000
0001
0010
0100
1000
,
0001
0000
0001
0000
0100
0010
0100
0010
1000
0000
1000
0000
0100
0010
0001
1000
,
0001
0000
0002
0000
0203
0000
0320
0000
2030
0000
3002
0000
1003
0010
0000
0100
,
0001
0000
0010
0000
0100
1000
0001
1000
0001
0000
0100
0000
0010
0100
0001
1000
,
0001
0000
0010
0000
0100
1000
0001
1000
0010
0000
0100
0000
0010
1000
0001
0010
,
0100
0000
1000
0001
0010
0100
1000
0001
1000
0000
0100
0000
1000
0010
0100
0001
,
0010
0000
0200
0000
2300
0000
3001
0100
0002
0000
0023
0000
0230
0000
1300
0001
,
2000
0000
3010
0100
0001
0000
00M2
0000
M000
0000
0013
0100
1000
0000
2000
0000
,
3001
0000
1000
0010
0100
0000
0001
0000
2000
0000
3200
0000
0320
0000
0032
0000
,
2003
0010
0010
0100
3002
0010
0010
0000
,
2003
0000
3010
0100
0001
0000
0010
0000
0002
0000
0203
0000
0320
0000
2030
0000
,
3001
0000
0100
0000
0010
0000
1000
0100
0010
0001
1000
0000
2000
0000
0000
0000
,
3001
0100
0010
1000
0010
0000
0100
0000
0002
0000
0023
0000
0230
0000
2300
0000
,
3001
0000
0010
0100
1000
0000
0010
0000
1000
0100
0010
0000
0002
0000
0000
0000
,
1003
0010
1000
0000
0010
0000
0100
0000
0002
0000
0023
0000
0230
0000
2300
0000
,
3010
0000
0010
0000
1000
0100
0010
0001
0010
0000
0010
0000
0100
0010
0001
1000
,
0001
0000
0001
0000
1000
0010
0100
0001
1000
0000
1000
0000
0100
0010
0001
1000
,
0001
0000
0001
0000
1000
0010
1000
0010
0100
0000
0100
0000
0001
0010
0001
1000
,
0100
0000
0100
0000
0010
0100
1000
0001
2000
0000
3020
0000
0130
0001
0000
1000
,
0001
0000
0010
0000
0100
1000
0010
1000
0001
0000
0101
0000
0101
0000
0101
0000
,
1000
0000
0010
0000
0100
0001
1000
0100
0010
0000
1100
0000
1100
0000
1100
0000
,
0001
0000
0001
0000
1000
0010
0100
0001
0010
0000
1001
0000
1001
0000
1001
0000
,
1000
0000
0010
0000
1000
0000
0010
0000
0100
0000
0001
0000
0100
0000
0001
0000
1000
0000
0100
0000
0010
0000
0001
0000
1000
0001
1000
0001
1000
0000
0001
0000
,
1000
0000
1000
0000
0010
0100
0010
0100
0001
0000
0001
0000
1000
0100
0010
0001
,
0010
00M0
M000
000M
0M00
00M0
M000
000M
,
1000
0000
1000
0000
0100
0010
0100
0010
0001
0000
0001
0000
0100
0010
1000
0001
,
1000
0000
2000
0000
3200
0000
0320
0000
0032
0000
2003
0000
3001
1000
0010
0100
,
0001
0000
0010
0000
0100
1000
0001
1000
0001
0000
0100
0000
0010
0100
0001
1000
,
0001
0000
0010
0001
0100
0001
1000
0001
0010
0000
0100
0000
0010
0001
1000
0010
,
0100
0000
0001
1000
0010
0100
0001
1000
0001
0000
0100
0000
0001
0010
0100
1000
,
0010
0000
0200
0000
0302
0000
1003
0100
2000
0000
3020
0000
0230
0000
0301
1000
;
