#TITLE:Momentum;
#SUBTITLE:;
#ARTIST:Geoplex;
#TITLETRANSLIT:;
#SUBTITLETRANSLIT:;
#ARTISTTRANSLIT:;
#GENRE:;
#CREDIT:;
#BANNER:momentum-bn.png;
#BACKGROUND:momentum-bg.png;
#LYRICSPATH:;
#CDTITLE:;
#MUSIC:Geoplex - Momentum.ogg;
#OFFSET:-1.685;
#SAMPLESTART:41.370;
#SAMPLELENGTH:12.000;
#SELECTABLE:YES;
#BPMS:0.000=145.000;
#STOPS:;
#BGCHANGES:;
#KEYSOUNDS:;

//---------------dance-single - C.Sanabria----------------
#NOTES:
     dance-single:
     C.Sanabria:
     Challenge:
     10:
     0.718,1.000,0.095,0.833,0.509:
0010
0000
1000
0000
0100
0000
1000
0010
1000
0000
0001
0000
0010
0000
0002
0000
,
0000
0000
0203
0000
0000
0000
0310
1000
0010
0000
0100
0000
0001
0000
0020
0000
,
0M00
0000
0031
0000
000M
0000
0001
0100
0001
0000
0010
0000
00M0
0000
0010
0000
,
00M0
0000
0010
0000
0001
0000
1000
0010
0100
0000
0100
0001
0000
0000
0001
0000
,
0010
0000
0001
0000
0100
0000
0001
0010
0001
0000
1000
0000
0010
0000
2000
0000
,
0000
0000
3200
0000
0000
0000
0310
0001
0010
0000
0100
0000
1000
0000
0020
0000
,
0M00
0000
1030
0000
M000
0000
1000
0100
1000
0000
0010
0000
00M0
0000
0010
0000
,
00M0
0010
00M0
0000
0000
0000
0000
0000
,
0011
0000
1000
0100
1000
0001
0010
0001
1000
0010
0100
0001
0100
0000
0010
0000
,
1000
0100
1000
0001
0010
0001
1000
0010
0100
0001
0100
0010
1000
0000
0001
0000
,
1000
0010
1000
0001
0100
0001
1000
0100
0010
0001
0010
0100
1000
0000
0010
0000
,
0100
0000
0001
0000
1000
0000
0100
0000
1000
0000
0001
0000
0010
0000
0100
0000
1000
0000
0100
0000
0010
0000
0001
0000
0000
0M00
0000
0000
0001
0000
0000
0000
,
0100
0010
1000
0001
0010
0001
1000
0010
0100
0001
1000
0001
0100
0000
0010
0000
,
1000
0100
0010
0100
1000
0001
1000
0010
0100
0001
0100
0010
1000
0000
0100
0000
,
0010
0001
1000
0001
0100
0010
1000
0001
1000
0100
0010
0001
0100
0000
0010
0000
,
2002
0000
0000
3003
,
0001
0000
0000
0000
0000
0000
0000
0000
0000
0000
0000
0000
0100
0000
0000
0000
0000
0000
0000
0000
0000
0000
0000
0000
0020
0030
0000
0000
0000
0000
0000
0000
0000
0000
0000
0000
1000
0000
0000
0000
0000
0000
0000
0000
0000
0000
0000
0000
0100
0000
0000
0000
0000
0000
0000
0000
0000
0000
0000
0000
1000
0000
0000
0000
0000
0000
0000
0000
0000
0000
0000
0000
0010
0000
0000
0000
0000
0000
0000
0000
0000
0000
0000
0000
0100
0000
0000
0000
0000
0000
0000
0000
0000
0000
0000
0000
0001
0000
0000
0000
0000
0000
0000
0000
0000
0000
0000
0000
0010
0000
0000
0000
0000
0000
0000
0000
0000
0000
0000
0000
0200
0300
0000
0000
0000
0000
0000
0000
0000
0000
0000
0000
1000
0000
0000
0000
0000
0000
0000
0000
0000
0000
0000
0000
0010
0000
0000
0000
0000
0000
0000
0000
0000
0000
0000
0000
1000
0000
0000
0000
0000
0000
0000
0000
0000
0000
0000
0000
0100
0000
0000
0000
0000
0000
0000
0000
0000
0000
0000
0000
0010
0000
0000
0000
0000
0000
0000
0000
0000
0000
0000
0000
,
0001
0000
0000
0000
0000
0000
0000
0000
0000
0000
0000
0000
0100
0000
0000
0000
0000
0000
0000
0000
0000
0000
0000
0000
0020
0030
0000
0000
0000
0000
0000
0000
0000
0000
0000
0000
1000
0000
0000
0000
0000
0000
0000
0000
0000
0000
0000
0000
0100
0000
0000
0000
0000
0000
0000
0000
0000
0000
0000
0000
1000
0000
0000
0000
0000
0000
0000
0000
0000
0000
0000
0000
0010
0000
0000
0000
0000
0000
0000
0000
0000
0000
0000
0000
0100
0000
0000
0000
0000
0000
0000
0000
0000
0000
0000
0000
0001
0000
0000
0000
0000
0000
0000
0000
0000
0000
0000
0000
0100
0000
0000
0000
0000
0000
0000
0000
0000
0000
0000
0000
0020
0030
0000
0000
0000
0000
0000
0000
0000
0000
0000
0000
1000
0000
0000
0000
0000
0000
0000
0000
0000
0000
0000
0000
0010
0000
0000
0000
0000
0000
0000
0000
0000
0000
0000
0000
0100
0000
0000
0000
0000
0000
0000
0000
0000
0000
0000
0000
0001
0000
0000
0000
0000
0000
0000
0000
0000
0000
0000
0000
1000
0000
0000
0000
0000
0000
0000
0000
0000
0000
0000
0000
,
0001
0000
0000
0000
0000
0000
0000
0000
0000
0000
0000
0000
0010
0000
0000
0000
0000
0000
0000
0000
0000
0000
0000
0000
0200
0300
0000
0000
0000
0000
0000
0000
0000
0000
0000
0000
1000
0000
0000
0000
0000
0000
0000
0000
0000
0000
0000
0000
0100
0000
0000
0000
0000
0000
0000
0000
0000
0000
0000
0000
0010
0000
0000
0000
0000
0000
0000
0000
0000
0000
0000
0000
0001
0000
0000
0000
0000
0000
0000
0000
0000
0000
0000
0000
1000
0000
0000
0000
0000
0000
0000
0000
0000
0000
0000
0000
0001
0000
0000
0000
0000
0000
0000
0000
0000
0000
0000
0000
0100
0000
0000
0000
0000
0000
0000
0000
0000
0000
0000
0000
0020
0030
0000
0000
0000
0000
0000
0000
0000
0000
0000
0000
1000
0000
0000
0000
0000
0000
0000
0000
0000
0000
0000
0000
0010
0000
0000
0000
0000
0000
0000
0000
0000
0000
0000
0000
0100
0000
0000
0000
0000
0000
0000
0000
0000
0000
0000
0000
0001
0000
0000
0000
0000
0000
0000
0000
0000
0000
0000
0000
1000
0000
0000
0000
0000
0000
0000
0000
0000
0000
0000
0000
,
0001
0000
0000
0000
0000
0000
0000
0000
0000
0000
0000
0000
0010
0000
0000
0000
0000
0000
0000
0000
0000
0000
0000
0000
0200
0300
0000
0000
0000
0000
0000
0000
0000
0000
0000
0000
1000
0000
0000
0000
0000
0000
0000
0000
0000
0000
0000
0000
0001
0000
0000
0000
0000
0000
0000
0000
0000
0000
0000
0000
1000
0000
0000
0000
0000
0000
0000
0000
0000
0000
0000
0000
0010
0000
0000
0000
0000
0000
0000
0000
0000
0000
0000
0000
0100
0000
0000
0000
0000
0000
0000
0000
0000
0000
0000
0000
0002
0003
0000
0000
0000
0000
0000
0000
0000
0000
0000
0000
2000
3000
0000
0000
0000
0000
0000
0000
0000
0000
0000
0000
0002
0003
0000
0000
0000
0000
0000
0000
0000
0000
0000
0000
2000
3000
0000
0000
0000
0000
0000
0000
0000
0000
0000
0000
0200
0300
0000
0000
0000
0000
0000
0000
0000
0000
0000
0000
0020
0030
0000
0000
0000
0000
0000
0000
0000
0000
0000
0000
0200
0300
0000
0000
0000
0000
0000
0000
0000
0000
0000
0000
0010
0000
0000
0000
0000
0000
0000
0000
0000
0000
0000
0000
,
0001
0000
0000
0000
0000
0000
0000
0000
0000
0000
0000
0000
0100
0000
0000
0000
0000
0000
0000
0000
0000
0000
0000
0000
0020
0030
0000
0000
0000
0000
0000
0000
0000
0000
0000
0000
1000
0000
0000
0000
0000
0000
0000
0000
0000
0000
0000
0000
0100
0000
0000
0000
0000
0000
0000
0000
0000
0000
0000
0000
1000
0000
0000
0000
0000
0000
0000
0000
0000
0000
0000
0000
0010
0000
0000
0000
0000
0000
0000
0000
0000
0000
0000
0000
0100
0000
0000
0000
0000
0000
0000
0000
0000
0000
0000
0000
0001
0000
0000
0000
0000
0000
0000
0000
0000
0000
0000
0000
0010
0000
0000
0000
0000
0000
0000
0000
0000
0000
0000
0000
0200
0300
0000
0000
0000
0000
0000
0000
0000
0000
0000
0000
1000
0000
0000
0000
0000
0000
0000
0000
0000
0000
0000
0000
0010
0000
0000
0000
0000
0000
0000
0000
0000
0000
0000
0000
1000
0000
0000
0000
0000
0000
0000
0000
0000
0000
0000
0000
0100
0000
0000
0000
0000
0000
0000
0000
0000
0000
0000
0000
0010
0000
0000
0000
0000
0000
0000
0000
0000
0000
0000
0000
,
0001
0000
0000
0000
0000
0000
0000
0000
0000
0000
0000
0000
0100
0000
0000
0000
0000
0000
0000
0000
0000
0000
0000
0000
0020
0030
0000
0000
0000
0000
0000
0000
0000
0000
0000
0000
1000
0000
0000
0000
0000
0000
0000
0000
0000
0000
0000
0000
0100
0000
0000
0000
0000
0000
0000
0000
0000
0000
0000
0000
1000
0000
0000
0000
0000
0000
0000
0000
0000
0000
0000
0000
0010
0000
0000
0000
0000
0000
0000
0000
0000
0000
0000
0000
0100
0000
0000
0000
0000
0000
0000
0000
0000
0000
0000
0000
0001
0000
0000
0000
0000
0000
0000
0000
0000
0000
0000
0000
0100
0000
0000
0000
0000
0000
0000
0000
0000
0000
0000
0000
0020
0030
0000
0000
0000
0000
0000
0000
0000
0000
0000
0000
1000
0000
0000
0000
0000
0000
0000
0000
0000
0000
0000
0000
0010
0000
0000
0000
0000
0000
0000
0000
0000
0000
0000
0000
0100
0000
0000
0000
0000
0000
0000
0000
0000
0000
0000
0000
0001
0000
0000
0000
0000
0000
0000
0000
0000
0000
0000
0000
1000
0000
0000
0000
0000
0000
0000
0000
0000
0000
0000
0000
,
0001
0000
0000
0000
0000
0000
0000
0000
0000
0000
0000
0000
0010
0000
0000
0000
0000
0000
0000
0000
0000
0000
0000
0000
0200
0300
0000
0000
0000
0000
0000
0000
0000
0000
0000
0000
1000
0000
0000
0000
0000
0000
0000
0000
0000
0000
0000
0000
0100
0000
0000
0000
0000
0000
0000
0000
0000
0000
0000
0000
0010
0000
0000
0000
0000
0000
0000
0000
0000
0000
0000
0000
0001
0000
0000
0000
0000
0000
0000
0000
0000
0000
0000
0000
1000
0000
0000
0000
0000
0000
0000
0000
0000
0000
0000
0000
0001
0000
0000
0000
0000
0000
0000
0000
0000
0000
0000
0000
0100
0000
0000
0000
0000
0000
0000
0000
0000
0000
0000
0000
0020
0030
0000
0000
0000
0000
0000
0000
0000
0000
0000
0000
1000
0000
0000
0000
0000
0000
0000
0000
0000
0000
0000
0000
0010
0000
0000
0000
0000
0000
0000
0000
0000
0000
0000
0000
0100
0000
0000
0000
0000
0000
0000
0000
0000
0000
0000
0000
0001
0000
0000
0000
0000
0000
0000
0000
0000
0000
0000
0000
1000
0000
0000
0000
0000
0000
0000
0000
0000
0000
0000
0000
,
0001
0000
0000
0000
0000
0000
0000
0000
0000
0000
0000
0000
0010
0000
0000
0000
0000
0000
0000
0000
0000
0000
0000
0000
0200
0300
0000
0000
0000
0000
0000
0000
0000
0000
0000
0000
1000
0000
0000
0000
0000
0000
0000
0000
0000
0000
0000
0000
0001
0000
0000
0000
0000
0000
0000
0000
0000
0000
0000
0000
1000
0000
0000
0000
0000
0000
0000
0000
0000
0000
0000
0000
0010
0000
0000
0000
0000
0000
0000
0000
0000
0000
0000
0000
0100
0000
0000
0000
0000
0000
0000
0000
0000
0000
0000
0000
0002
0003
0000
0000
0000
0000
0000
0000
0000
0000
0000
0000
2000
3000
0000
0000
0000
0000
0000
0000
0000
0000
0000
0000
0002
0003
0000
0000
0000
0000
0000
0000
0000
0000
0000
0000
2000
3000
0000
0000
0000
0000
0000
0000
0000
0000
0000
0000
0200
0300
0000
0000
0000
0000
0000
0000
0000
0000
0000
0000
0020
0030
0000
0000
0000
0000
0000
0000
0000
0000
0000
0000
0200
0300
0000
0000
0000
0000
0000
0000
0000
0000
0000
0000
0010
0000
0000
0000
0000
0000
0000
0000
0000
0000
0000
0000
,
0001
0100
0010
1000
0100
1000
0010
0100
,
0002
00M0
0000
M000
0023
0M00
0000
000M
,
0130
0000
1000
0010
0000
0010
0100
0000
0100
0001
0000
0001
1000
0000
0010
0100
,
0001
0000
0001
0010
0000
0010
0100
0000
0100
1000
0000
1000
0001
0000
0100
0010
,
1000
0100
0010
0001
0100
0001
0010
0100
,
2000
00M0
0000
000M
3020
0M00
0000
M000
,
0130
0000
0100
0001
0000
0001
0010
0000
0010
0100
0000
0100
1000
0000
0010
0100
,
0001
0000
0010
0000
0100
0000
1000
0000
0001
0000
0100
0001
1000
0000
0010
0000
,
1000
0200
0320
0230
0000
0302
0000
0000
,
0103
2000
0000
3020
0000
0130
0002
0023
,
0000
0000
0000
0000
0000
0000
0000
0130
,
1000
0000
0010
0000
0100
0000
0001
0000
0010
0000
0000
0100
1000
0000
0001
0000
,
1000
0020
0230
0320
0000
0032
0000
0000
,
0000
0023
0000
0230
0000
0301
2000
0000
,
3200
0000
0000
0320
0000
0000
0031
0200
,
0310
0000
200M
0000
0M00
0000
3002
0000
00M0
0000
0M13
0000
0001
0010
0100
1000
,
0010
1000
0010
1000
0001
1000
0001
1000
,
0200
00M0
0000
M000
0320
000M
0000
0M00
,
0031
0000
0100
0010
0000
1000
0010
0000
0100
0001
0000
1000
0001
0000
0010
0100
,
1000
0000
0000
0010
0000
0000
0100
0000
0000
0001
0000
0000
1000
0000
0010
0100
,
0001
0010
0001
0010
0001
1000
0001
1000
,
0020
000M
0000
M000
0230
000M
0000
00M0
,
0301
0000
0010
0100
0000
1000
0100
0000
0010
0001
0000
1000
0001
0000
0100
0010
,
1000
0000
0000
0100
0000
0000
0010
0000
0000
0001
0000
0000
0100
0000
0000
0000
,
0010
2000
3002
0023
0000
0230
0000
0000
,
0000
2300
0000
3020
0000
0130
0001
0020
,
0000
0000
0001
0000
0100
0000
0031
1000
,
0010
0000
0100
0000
0010
0000
0100
0000
0001
0000
0000
0010
0100
0000
1000
0000
,
0010
0200
0302
2003
0000
3200
0000
0000
,
0000
0320
0000
0032
0000
0103
0020
0000
,
2030
0000
0000
3002
0000
0000
0013
0001
,
0100
M010
000M
1M00
00M0
M000
0001
1000
,
0002
0000
0000
0000
,
0200
0000
0000
0003
,
0020
0000
0000
0330
,
2M2M
3030
M2M2
0303
,
21MM
0000
0000
0000
,
0200
0000
0000
3000
,
0020
0000
0000
0330
,
MM22
0033
22MM
3300
,
0001
0000
00M0
0100
0000
0000
M010
0000
0000
1000
000M
0000
0100
0000
M010
0000
,
0001
0000
00M0
0100
0000
0000
100M
0000
0000
0100
00M0
0000
0001
0000
M010
0000
,
0100
0000
00M0
1000
0000
0000
0M01
0000
0000
1000
00M0
0000
0010
0000
010M
0000
,
0001
0000
M000
0010
0000
0000
010M
0000
0000
1000
00M0
0000
0001
0100
0010
1000
,
0100
0000
2000
0000
0000
3020
0000
0000
,
0230
0000
0000
0000
0000
0000
0302
0000
0000
0000
0000
0000
1003
0100
0010
0001
,
0100
0000
0000
0010
0000
0000
1000
0000
0000
0001
0000
0000
0010
0000
0100
0000
,
2200
0000
0000
3300
,
0001
0100
2000
0000
0000
3200
0000
0000
,
0320
0000
0000
2030
0000
0000
3002
0000
,
0013
0000
0100
0000
1000
0000
0100
0000
0010
0000
0100
0000
1000
0000
0010
0100
,
0001
0000
0001
0100
0000
0100
0010
0000
0010
0100
0000
0100
0001
0000
1000
0000
,
0001
0010
0002
0000
0000
0203
0000
0000
,
0320
0000
0000
2030
0000
0000
3200
0000
,
0310
0001
0100
0010
1000
0010
0100
0001
,
0010
0000
0000
0100
0000
0000
1000
0000
0000
0010
0000
0000
0100
0000
0001
0000
,
0010
0100
2000
0000
0000
3020
0000
0000
,
0230
0000
0000
0302
0000
0000
0023
0000
,
0031
0000
0010
0000
0100
0000
0010
0000
0001
0000
0010
0000
0100
0000
0010
0001
,
1000
0000
1000
0010
0000
0010
0100
0000
0100
0010
0000
0010
1000
0000
0100
0000
,
0010
0001
0200
0000
0000
0320
0000
0000
,
2030
0000
0000
3200
0000
0000
0310
0001
,
0200
0000
0000
0320
0000
0000
2030
0000
0000
3002
0000
0000
0023
0000
0230
0000
,
2300
0000
3002
0000
0000
0000
0023
0000
0000
0000
0030
0000
M11M
0000
0001
1000
,
0002
0103
0010
1000
0100
1000
0010
0100
,
0001
0010
0100
1000
0010
1000
0100
0020
,
0032
0103
0001
0100
1000
0100
1000
0100
,
0001
0010
0001
0010
1000
0010
1000
0010
,
0002
0103
0010
1000
0100
1000
0010
0100
,
0001
0010
1000
0010
0001
0100
1000
0200
,
0302
0013
0001
0010
0100
1000
0100
1000
,
0010
0000
1000
0000
0010
0000
1000
0000
0001
0100
0010
1000
0001
0100
0010
1000
,
0001
0010
0001
0201
0000
0000
0320
0000
,
1030
0100
1000
1020
0000
0000
0230
0000
,
0301
0010
0001
0021
0000
0000
0230
0000
,
1300
0010
1000
1200
0000
0000
0320
0032
,
0103
0010
1000
1200
0000
1300
0010
0100
,
0010
1000
0010
0102
0000
0013
0100
1000
,
0100
1000
0010
0102
0000
0000
0023
0000
,
0130
100M
0M00
001M
M000
000M
M100
00M0
,
2002
0000
0000
0000
,
0000
0000
0000
0000
,
0000
0000
0000
0000
,
3003
0000
0000
0000
;
