#TITLE:Megaman X3 Opening Stage;
#SUBTITLE:;
#ARTIST:U-GEN;
#TITLETRANSLIT:;
#SUBTITLETRANSLIT:;
#ARTISTTRANSLIT:;
#GENRE:;
#CREDIT:;
#BANNER:;
#BACKGROUND:;
#LYRICSPATH:;
#CDTITLE:;
#MUSIC:U-GEN - Rockman X3 Opening Stage.mp3;
#OFFSET:-0.750;
#SAMPLESTART:0.700;
#SAMPLELENGTH:12.000;
#SELECTABLE:YES;
#BPMS:0.000=200.000;
#STOPS:;
#BGCHANGES:;
#KEYSOUNDS:;

//---------------dance-single - C.Sanabria----------------
#NOTES:
     dance-single:
     C.Sanabria:
     Challenge:
     12:
     0.254,0.230,0.111,0.286,0.094:
0000
0000
0000
0000
,
0000
0000
0000
0000
,
0000
0000
0000
0000
,
0000
0000
0000
0000
0000
0000
0000
2100
,
0000
3001
0010
0001
0100
0100
0010
1000
,
0100
0100
0010
0001
1000
2200
3300
0012
,
0000
0103
0001
0010
0100
1000
0010
2010
,
0000
3001
0100
0010
1000
0100
1000
1020
,
0000
0130
0001
0010
0100
0100
1000
0010
,
0100
0100
0001
0010
0100
2200
3300
0012
,
0000
0103
0010
1000
0100
0010
0001
0102
,
0000
1003
0010
0100
0001
0010
0001
0021
,
0000
0130
1000
0010
1000
1000
0001
0010
,
0001
0001
0100
0010
1000
2200
3300
0012
,
0000
0103
0010
1000
0100
0010
0001
0201
,
0000
0320
2030
3200
0340
0000
0000
0032
,
0000
1003
0M10
1000
0001
0M10
0001
1000
,
0M10
1000
0001
0M10
0001
1000
0M10
0200
,
0000
0301
0010
0100
1000
0010
0100
0102
,
0000
0013
0100
1000
0010
0400
0000
0302
,
0000
1003
01M0
1000
0001
01M0
0001
1000
,
01M0
1000
0001
01M0
0001
1000
01M0
0020
,
0000
0031
0100
0010
1000
0100
0010
0012
,
0000
1003
0010
2020
3030
0202
0303
1200
,
0000
0310
M001
1000
0010
010M
0001
0010
,
M100
1000
0010
010M
0001
0010
M100
2000
,
0000
3010
0100
0001
0010
0100
1000
2100
,
0000
3010
0100
0001
0040
0000
0130
2000
,
0000
3001
01M0
0010
1000
01M0
0010
0001
,
01M0
0010
1000
0M01
0010
0100
100M
0020
,
0000
1030
0100
0010
0001
0100
0010
2010
,
0000
3010
1000
2200
3300
0202
0000
0303
,
1000
0100
1000
0001
0100
0001
1000
0010
1000
0001
0010
0001
,
1000
0010
1000
0100
0010
0001
0100
0001
0010
0100
1000
0010
,
1000
0100
1000
0001
0010
0001
1000
0010
1000
0001
0100
0001
,
1000
0100
0010
0001
0100
0001
0010
0100
1000
0010
1000
0100
,
0010
0001
0100
0010
1000
0100
0010
0001
0100
0020
0000
0000
,
0000
1030
0100
0010
0001
0100
0010
2000
,
0000
3010
0100
0002
0000
0023
0000
0030
,
2200
0000
3300
2020
0000
3030
2002
0000
,
3003
0001
0100
0010
2000
0100
3100
0010
,
0022
0000
0033
0202
0000
0303
2002
0000
,
3003
1000
0010
0100
0002
0010
0013
0100
,
2200
0000
3300
2020
0000
3030
0202
0000
,
0303
0001
0100
0010
1000
0100
0010
0012
,
0000
0000
1003
0010
0100
0000
0001
0000
1000
0000
0001
0000
0010
0000
0021
0000
,
0000
0130
1000
0010
0100
0001
0010
0012
,
0000
0000
1003
0100
0010
0000
0001
0000
1000
0010
1000
0000
0001
0100
0010
1000
,
0002
0000
0013
0100
1000
0010
1000
0001
,
0100
0001
0010
0100
1000
2200
3300
2020
,
3030
0001
0100
0010
1000
0001
0010
0012
,
0000
1003
0100
0010
0001
0100
0010
2010
,
0000
3001
0010
0100
1000
0010
1000
0001
,
0100
0001
0010
0100
1000
2020
3030
0202
,
0303
1000
0100
0010
0001
0100
0001
0021
,
0000
0000
0230
0000
2300
0000
3010
0000
0100
0001
1000
0001
0010
0000
0200
0000
,
0000
1300
001M
0100
0001
M010
0100
1000
,
00M1
0100
0001
1M00
0100
0010
M001
0200
,
0000
0310
0100
0001
0010
0100
1000
0020
,
0000
0130
0001
1000
0100
0010
0100
2000
,
0000
3010
0100
0004
0000
1003
0100
0010
,
0004
0000
0103
0020
2030
3002
0023
0230
,
0000
1300
0010
0100
0002
0203
0320
2030
,
0000
0000
3001
0000
0010
0000
0100
0000
0010
0000
0001
1000
0001
0000
0200
0000
,
0000
0310
1000
0001
1000
0200
0320
0032
,
0000
0103
0010
1000
0010
0200
0302
0023
,
0000
0230
2300
3020
0230
0302
0203
0320
,
0000
1030
0100
1000
0001
0010
0100
2000
,
0000
3010
0100
0001
0100
0020
2030
3200
,
0000
0310
0001
0010
0100
2000
3020
0230
,
0000
0000
0301
0000
0010
0000
0100
0000
1000
0000
0010
0000
1000
0000
0100
0010
,
0001
0000
4000
0000
0000
0000
3010
0100
0001
0000
1000
0100
0010
0100
2000
0000
,
0000
3010
0100
0002
0000
0013
0100
2000
,
0000
3010
0100
0001
0100
0010
1000
0200
,
0000
1300
0010
0100
0001
0010
0001
0200
,
0000
0000
0310
0100
0001
0000
1000
0000
0001
0000
0010
0100
1000
0001
1000
0000
,
0020
1000
1030
1200
0000
0310
0100
1000
,
0002
0000
0010
0000
0013
0000
0110
0000
0100
1000
0001
1000
0010
0000
0100
0000
,
0001
0000
1000
0010
0100
0001
1000
0000
0001
0010
0100
0010
0001
0000
1000
0000
,
0001
0100
0010
1000
0001
0100
0010
1000
0001
0000
0400
0000
0000
0000
0320
0000
,
0000
1030
0100
1000
0010
0100
0001
0102
,
0000
0013
0100
0010
0001
1000
0010
2010
,
0000
3001
0010
0021
0000
0031
1000
2100
,
0000
0000
3010
0100
0001
0000
0010
0000
0001
0100
0010
1000
0001
0000
0020
0000
,
0000
0031
0100
0010
1000
0100
1000
2100
,
0000
3010
0100
0001
0010
0001
0100
0201
,
0000
0000
0310
0000
1000
0000
0010
0000
0100
0000
0001
0010
0100
1000
0001
0000
,
1000
0000
0010
0100
0001
1000
0001
0000
0010
0100
1000
0001
1000
0000
0020
0000
,
0000
0000
0100
0000
1030
0100
0010
0200
,
0000
0000
0010
0000
1300
0001
0100
0020
,
0000
0000
1000
0000
0130
0001
0010
0200
,
0000
0000
1000
0000
0310
0001
1000
0020
,
0000
0130
0002
0000
0013
0100
1000
0002
,
0000
0103
0020
0000
0130
0001
1000
0200
,
0000
0310
0200
0000
1300
0010
0100
0002
,
0000
0000
0000
2003
0000
0000
0000
3002
,
0000
0013
0100
1000
0010
1000
0100
2100
,
0000
3010
0100
0001
0010
0001
0100
0102
,
0000
1003
0100
0010
0001
0100
0010
2010
,
0000
3001
0010
0100
1000
0010
0100
0102
,
0000
1003
0200
0000
0310
0100
1000
1002
,
0000
0103
0020
0000
0130
0001
1000
1002
,
0000
0000
0013
0000
0100
0000
1000
0000
0010
0000
1000
0100
0010
0000
0001
0000
,
1000
0010
0100
0001
1000
0000
0010
0000
1000
0100
0010
0001
1000
0001
0100
0010
,
1000
0100
1000
0001
0100
0001
1000
0010
1000
0001
0010
0001
,
1000
0010
1000
0100
0010
0001
0100
0001
0010
0100
1000
0010
,
1000
0100
1000
0001
0010
0001
1000
0010
1000
0001
0100
0001
,
1000
0100
0010
0001
0100
0001
0010
0100
1000
0010
1000
0100
,
0010
0001
0100
0010
1000
0100
0010
0001
0100
0020
0000
0000
,
0000
1030
0100
0010
0001
0100
0010
2000
,
0000
3010
0100
0002
0000
0013
0100
1000
,
2200
0000
3300
2020
0000
3030
2002
0000
,
3003
0001
0100
0010
2000
0100
3100
0010
,
0022
0000
0033
0202
0000
0303
2002
0000
,
3003
1000
0010
0100
0002
0010
0013
0100
,
2200
0000
3300
2020
0000
3030
0202
0000
,
0303
0001
0100
0010
1000
0100
0010
0012
,
0000
0000
1003
0010
0100
0000
0001
0000
1000
0000
0001
0000
0010
0000
0021
0000
,
0000
0130
1000
0010
0100
0001
0010
0012
,
0000
0000
1003
0100
0010
0000
0001
0000
1000
0010
1000
0000
0001
0100
0010
1000
,
0001
0010
0001
0010
0001
1000
0001
1000
,
0001
0100
0001
0100
0010
2020
3030
2200
,
3300
1000
0100
1000
0001
0010
0001
0202
,
0303
0100
0010
1000
0001
1000
0010
1020
,
0000
1030
0100
1000
0001
1000
0001
1000
,
0010
1000
0010
0100
0001
0022
0033
0202
,
0303
1000
0010
1000
0001
0010
0100
2100
,
0000
0000
3010
0000
0100
0000
0001
0000
0100
0000
0010
1000
0001
1000
0002
0000
,
0000
0013
0100
0010
0001
1000
0001
0010
,
0100
0010
0001
1000
0010
2020
3030
2200
,
3300
1000
0010
0100
0001
0010
0001
0021
,
0000
0000
0130
0010
0001
0000
1000
0000
0010
0100
0001
1000
0001
0000
0020
0000
,
0000
0031
0100
0001
1000
0001
1000
0001
,
0010
0001
0010
0100
1000
2020
3030
0202
,
0303
1000
0010
0100
0001
0100
0010
2000
,
0000
0000
3200
0000
0320
0000
0230
0000
2300
0000
3001
0100
0010
1000
0001
0000
,
1000
0100
0010
0001
1000
0100
0010
0001
1000
0010
0100
0000
0010
0000
1001
0000
;
