#TITLE:Megaman X2 Opening Stage;
#SUBTITLE:;
#ARTIST:U-GEN;
#TITLETRANSLIT:;
#SUBTITLETRANSLIT:;
#ARTISTTRANSLIT:;
#GENRE:;
#CREDIT:;
#BANNER:Megamanx2OpeningStage-bn.png;
#BACKGROUND:Megamanx2OpeningStage-bg.png;
#LYRICSPATH:;
#CDTITLE:;
#MUSIC:U-GEN - Megaman X2 Opening Stage.mp3;
#OFFSET:-0.630;
#SAMPLESTART:0.580;
#SAMPLELENGTH:12.000;
#SELECTABLE:YES;
#BPMS:0.000=188.000;
#STOPS:;
#BGCHANGES:;
#KEYSOUNDS:;

//---------------dance-single - C.Sanabria----------------
#NOTES:
     dance-single:
     C.Sanabria:
     Challenge:
     13:
     1.000,1.000,0.264,1.000,0.923:
0000
0000
0000
0000
,
0000
0000
0000
0000
,
0000
0000
0000
0000
,
0000
0000
0000
0000
,
0010
1000
0010
1000
0100
1000
0001
0001
,
0010
0000
0001
0000
0010
0000
0001
0000
0100
0000
0001
0000
1000
0010
0100
0001
,
1000
0100
0010
0001
1000
1000
0001
0001
,
1000
0010
0100
0001
1000
0010
0100
0001
1000
0100
0010
0001
1000
0010
1000
0010
,
2M00
3000
0000
M22M
0330
0000
M2M2
0303
,
MM22
0033
0000
M22M
0330
0000
22MM
3300
,
0001
0010
0001
0200
0000
0310
1000
0200
,
0000
1300
0010
0200
0000
0301
0010
0100
,
1000
0010
0100
0001
1000
0001
0200
0000
,
0301
0000
0010
0000
0100
0000
1000
0000
0001
0000
0100
0000
0010
1000
0001
0000
,
2000
0000
3100
0020
0000
0031
0100
0010
,
2000
0000
3100
0020
0000
0031
0100
0010
,
0200
0000
0000
0000
0301
0000
0010
0100
1000
0000
0001
0000
1000
0000
0010
0000
,
0100
M22M
0330
0000
2M2M
3030
MM22
0033
,
2000
0100
3100
0020
0100
0130
0010
0001
,
0200
0000
0001
0000
0301
0000
2000
0000
0010
0000
3010
0000
1000
0001
0010
0100
,
0020
0000
0100
0000
0000
0032
0000
0103
,
0020
0000
1030
0200
0000
0310
0001
1000
,
0002
0100
0103
0020
0100
0130
0010
1000
,
0200
0000
1000
0000
1300
0000
0001
0000
0011
0000
0010
0000
0001
0100
0010
1000
,
0020
0000
0100
0000
0000
2030
0000
3100
,
0020
0000
0031
0200
0000
0310
1000
0001
,
2000
0010
3010
0200
0001
0301
0010
0100
,
2000
0000
0100
0000
3100
0000
0010
0000
0011
0000
0001
0000
1000
0010
0100
0001
,
1000
0100
11M0
0100
M010
0001
0M11
0001
,
M100
0010
101M
1000
010M
0010
M011
0001
,
01M0
0010
1M10
1000
010M
0010
M011
0001
,
01M0
0000
0010
0000
1000
0100
1000
0001
0010
0001
1000
0010
0100
0001
1000
0000
,
0001
0100
0001
0100
0010
0100
0010
0100
0010
1000
0010
1000
0001
0010
0001
0010
,
0001
1000
0001
1000
0100
1000
0100
0010
0100
0010
0001
1000
0001
1000
0010
0100
,
0010
0100
0001
0010
0001
0010
0100
1000
0100
1000
0010
1000
0001
0010
0001
0010
,
0100
1000
0100
1000
0001
1000
0001
1000
0001
0100
0010
1000
0001
1000
0010
0100
,
0002
0003
0000
M2M2
0303
0000
2MM2
3003
,
22MM
3300
0000
M22M
0330
0000
MM22
0033
,
1000
0010
1000
0200
0000
0310
0001
0200
,
0000
0301
0010
0200
0000
1300
0010
0100
,
0001
0010
0100
1000
0001
1000
0200
0000
,
1300
0000
0010
0000
0100
0000
0001
0000
1000
0000
0100
0000
0010
0000
0001
1000
,
0002
0000
0103
0020
0000
1030
0100
0010
,
0002
0000
0103
0020
0000
1030
0100
0010
,
0200
0000
0000
0000
1300
0000
0002
0000
0000
0000
0103
0000
0010
1000
0001
0000
,
0010
M22M
0330
0000
MM22
0033
2M2M
3030
,
0002
0100
0103
0020
0100
0130
0010
1000
,
0200
1000
1300
0002
0010
0013
0001
0100
,
0020
0000
0100
0000
0000
2030
0000
3100
,
0020
0000
0031
0200
0000
0310
1000
0001
,
2000
0100
3100
0020
0100
0130
0010
0001
,
0200
0000
0001
0000
0301
0000
1000
0000
1010
0000
0010
0000
0100
0001
1000
0100
,
0020
0000
0100
0000
0000
0032
0000
0103
,
0020
0000
1030
0200
0000
0310
0001
1000
,
0002
0100
0103
0020
1000
1030
0100
0010
,
0002
1000
1003
0020
0100
0130
0001
1000
,
0001
0100
0001
0100
0010
1000
0010
1000
0001
0010
0001
0010
0100
1000
0100
1000
,
0001
0100
0010
1000
0001
0100
0010
1000
0001
0010
0100
1000
0001
0010
0100
1000
,
0001
0100
0010
1000
0001
0010
0001
1000
0100
0010
0001
1000
0010
1000
0001
1000
,
0001
0010
0100
0010
0100
1000
0001
1000
0010
0100
0010
0100
0001
1000
0001
1000
,
0002
0023
0032
2003
3020
2030
3002
0203
0302
2003
3200
2300
3002
0023
0230
2300
,
3002
0203
0302
2003
3020
2030
3002
0023
0032
2003
3200
2300
3002
0203
0320
2030
,
3002
0203
0320
2030
0000
3100
0010
0100
,
2000
3020
0230
0302
0000
0013
0100
1000
,
0002
0203
0320
2030
0000
3100
0010
0100
,
2000
0000
0000
3020
0000
0000
0230
0000
0000
0000
0302
0000
0000
0000
0000
0000
,
2003
3200
0320
0032
0203
0320
2030
3002
,
2003
3020
2030
3200
0320
0032
0203
0320
,
1030
0100
0010
0001
1000
0100
0010
0001
1000
0100
0010
0001
1000
0100
0010
0001
,
1000
2M2M
3030
0000
M22M
0330
0002
0203
,
0310
1000
0001
1000
0010
0100
0001
1000
0001
0100
0010
1000
0001
1000
0010
0100
,
0001
0100
0001
1000
0010
1000
0001
0010
0001
1000
0100
1000
0001
0100
0010
1000
,
0001
0010
0100
1000
0001
1000
0100
0010
0001
1000
0001
0010
0100
1000
0001
0010
,
0001
1000
0010
1000
0001
1000
0010
1000
0001
1000
0010
1000
0001
1000
0010
1000
,
0001
0100
0010
1000
0001
0010
0100
1000
0001
0100
0010
1000
0001
0010
0100
1000
,
0001
0100
0010
1000
0001
0010
0100
0010
0001
1000
0100
0010
0100
1000
0001
1000
,
0001
0100
0010
1000
0100
1000
0010
0100
0001
0100
0010
1000
0100
1000
0010
0100
,
0001
1000
0100
1000
0001
1000
0100
1000
0001
1000
0100
1000
0001
1000
0100
1000
,
0001
0010
0100
1000
0010
0100
0001
1000
0001
0010
0100
1000
0010
0100
0001
1000
,
0001
0010
0100
1000
0010
1000
0001
0100
0001
1000
0010
0100
0010
1000
0001
1000
,
02M0
1000
1300
00M2
0100
0103
M010
1000
,
0M02
0010
0013
020M
1000
1300
0010
0100
,
2MM2
0000
0000
0000
0000
3003
0000
0000
;
