#TITLE:MAXSTEP;
#SUBTITLE:;
#ARTIST:YOUNIQUE UNIT;
#TITLETRANSLIT:;
#SUBTITLETRANSLIT:;
#ARTISTTRANSLIT:;
#GENRE:;
#CREDIT:;
#BANNER:maxstep-bn.png;
#BACKGROUND:maxstep-bg.png;
#LYRICSPATH:;
#CDTITLE:;
#MUSIC:YOUNIQUE UNIT - MAXSTEP.ogg;
#OFFSET:-0.480;
#SAMPLESTART:30.870;
#SAMPLELENGTH:12.000;
#SELECTABLE:YES;
#DISPLAYBPM:140.000;
#BPMS:0.000=140.000,28.000=280.000,29.000=140.000,30.000=280.000,31.000=140.000,31.500=280.000,32.000=140.000,47.500=280.000,48.000=140.000,63.500=280.000,64.000=140.000,76.000=280.000,77.000=140.000,78.000=280.000,79.000=140.000,79.500=280.000,80.000=140.000,92.000=280.000,93.000=140.000,94.000=280.000,95.000=140.000,95.500=280.000,96.000=140.000,108.000=280.000,109.000=140.000,110.000=280.000,111.000=140.000,111.500=280.000,112.000=140.000,124.000=280.000,125.000=140.000,126.000=280.000,127.000=140.000,127.500=280.000,128.000=140.000,219.500=280.000,220.000=140.000,228.000=280.000,229.000=140.000,230.000=280.000,231.000=140.000,231.500=280.000,232.000=140.000,244.000=280.000,245.000=140.000,246.000=280.000,247.000=140.000,260.000=280.000,261.000=140.000,262.000=280.000,263.000=140.000,263.500=280.000,264.000=140.000,276.000=280.000,277.000=140.000,278.000=280.000,279.000=140.000,279.500=280.000,280.000=140.000,292.000=280.000,293.000=140.000,294.000=280.000,296.000=140.000,308.000=280.000,309.000=140.000,310.000=280.000,311.000=140.000,324.000=280.000,325.000=140.000,326.000=280.000,327.000=140.000,327.500=280.000,328.000=140.000;
#STOPS:28.000=0.053
,28.250=0.054
,28.500=0.053
,28.750=0.054
,30.000=0.053
,30.250=0.054
,30.500=0.053
,30.750=0.054
,31.500=0.053
,31.750=0.054
,47.500=0.053
,47.750=0.054
,63.500=0.053
,63.750=0.054
,76.000=0.053
,76.250=0.054
,76.500=0.053
,76.750=0.054
,78.000=0.053
,78.250=0.054
,78.500=0.053
,78.750=0.054
,79.500=0.053
,79.750=0.054
,92.000=0.053
,92.250=0.054
,92.500=0.053
,92.750=0.054
,94.000=0.053
,94.250=0.054
,94.500=0.053
,94.750=0.054
,95.500=0.053
,95.750=0.054
,108.000=0.053
,108.250=0.054
,108.500=0.053
,108.750=0.054
,110.000=0.053
,110.250=0.054
,110.500=0.053
,110.750=0.054
,111.500=0.053
,111.750=0.054
,124.000=0.053
,124.250=0.054
,124.500=0.053
,124.750=0.054
,126.000=0.053
,126.250=0.054
,126.500=0.053
,126.750=0.054
,127.500=0.053
,127.750=0.054
,219.500=0.053
,219.750=0.054
,228.000=0.053
,228.250=0.054
,228.500=0.053
,228.750=0.054
,230.000=0.053
,230.250=0.054
,230.500=0.053
,230.750=0.054
,231.500=0.053
,231.750=0.054
,244.000=0.053
,244.250=0.054
,244.500=0.053
,244.750=0.054
,246.000=0.053
,246.250=0.054
,246.500=0.053
,246.750=0.054
,260.000=0.053
,260.250=0.054
,260.500=0.053
,260.750=0.054
,262.000=0.053
,262.250=0.054
,262.500=0.053
,262.750=0.054
,263.500=0.053
,263.750=0.054
,276.000=0.053
,276.250=0.054
,276.500=0.053
,276.750=0.054
,278.000=0.053
,278.250=0.054
,278.500=0.053
,278.750=0.054
,279.500=0.053
,279.750=0.054
,292.000=0.053
,292.250=0.054
,292.500=0.053
,292.750=0.054
,294.000=0.053
,294.250=0.054
,294.500=0.053
,294.750=0.054
,295.000=0.053
,295.250=0.054
,295.500=0.053
,295.750=0.054
,308.000=0.053
,308.250=0.054
,308.500=0.053
,308.750=0.054
,310.000=0.053
,310.250=0.054
,310.500=0.053
,310.750=0.054
,324.000=0.053
,324.250=0.054
,324.500=0.053
,324.750=0.054
,326.000=0.053
,326.250=0.054
,326.500=0.053
,326.750=0.054
,327.500=0.053
,327.750=0.054
;
#BGCHANGES:8.000=Younique Unit - MAXSTEP.avi=1.000=1=0=1===CrossFade==,
504.000=maxstep-bg.png=1.000=0=0=1=====,
99999=-nosongbg-=1.000=0=0=0 // don't automatically add -songbackground-
;
#KEYSOUNDS:;

//---------------dance-single - C.Sanabria----------------
#NOTES:
     dance-single:
     C.Sanabria:
     Challenge:
     10:
     0.823,0.931,0.135,0.559,0.756:
0000
0000
0000
0000
,
0000
0000
0000
M000
,
2000
300M
0002
0003
,
1000
0010
0100
0000
0001
0000
0100
0010
1000
0000
0001
0000
4000
0000
0000
0000
,
3001
0000
0000
0010
0000
0000
0100
0000
0000
1000
0001
1000
0001
0000
0000
0100
0000
0000
0010
0000
0000
0010
0000
0000
,
1000
0000
0000
0100
0000
0000
1000
0000
0000
0000
0000
0000
0010
0000
0000
0000
0000
0000
0100
0000
0000
0001
0000
0000
0100
0000
0000
0000
0010
0000
0000
0000
1000
0000
0000
0000
0004
0000
0000
0000
0000
0000
0000
0000
0000
0000
0000
0000
,
1003
0000
0000
1000
0000
0000
1000
0000
0000
0001
0100
0010
1000
0000
0000
1000
0000
0000
0100
0000
0000
0100
0000
0000
,
0010
0001
0010
0001
2000
0000
0000
0000
3010
1000
0010
1000
0002
0000
0000
0000
,
1003
0000
0000
0010
0000
0000
0100
0000
0000
0001
0100
0001
0100
0000
0000
0010
0000
0000
1000
0000
0000
1000
0000
0000
,
0100
0000
0000
0010
0000
0000
0001
0000
0000
0000
0000
0000
1000
0000
0000
0000
0000
0000
0001
0000
0000
0100
0000
0000
0010
0000
0000
0000
1000
0000
0000
0000
0001
0000
0000
0000
4000
0000
0000
0000
0000
0000
0000
0000
0000
0000
0000
0000
,
3002
0000
0200
0003
,
0310
1000
0001
1000
0200
0000
0000
0000
0310
0001
1000
0001
0200
0000
0000
0000
,
0301
0000
0000
0010
0000
0000
0100
0000
0000
1000
0001
1000
0001
0000
0000
0100
0000
0000
0010
0000
0000
0010
0000
0000
,
1000
0000
0000
0100
0000
0000
0010
0000
0000
0000
0000
0000
0001
0000
0000
0000
0000
0000
0010
0000
0000
0100
0000
0000
1000
0000
0000
0000
0001
0000
0000
0000
1000
0000
0000
0000
0010
0000
0000
0000
0000
0000
0100
0000
0000
0001
0000
0000
,
4000
0000
0000
0000
0000
0000
3100
0000
0000
0010
0001
0010
0001
0000
0000
1000
0000
0000
0010
0000
0000
0100
0000
0000
,
0010
0100
0001
1000
0002
0000
0000
0000
0013
0100
1000
0001
2000
0000
0000
0000
,
3001
0000
0000
0100
0000
0000
0010
0000
0000
1000
0100
1000
0100
0000
0000
0010
0000
0000
0004
0000
0000
0000
0000
0000
,
1003
0000
0000
0010
0000
0000
0100
0000
0000
0000
0000
0000
0001
0000
0000
0000
0000
0000
1000
0000
0000
0100
0000
0000
0010
0000
0000
0000
0100
0000
0000
0000
1000
0000
0000
0000
0004
0000
0000
0000
0000
0000
0000
0000
0000
0000
0000
0000
,
2003
0000
3000
M000
0002
0000
0003
000M
,
0200
0000
0300
0M00
0020
0000
0030
00M0
,
1000
0100
1000
0010
0100
0001
1000
0100
,
1000
0010
0100
0001
2M00
3001
20M0
3001
,
000M
1000
0010
0100
0001
1000
0001
1000
,
0100
0010
0001
0100
00M2
1003
0M02
1003
,
M000
0000
0001
0100
0001
0000
1000
0000
0001
0000
0010
0000
0100
0000
1000
0000
,
0001
0100
0010
1000
020M
0310
M200
0310
,
0002
0023
0032
0000
2003
3020
2030
0000
,
3001
0100
0010
1000
0004
0000
0000
0000
1003
0100
0010
0100
2000
0000
3001
1000
,
0001
0100
0001
0100
0020
0000
0030
000M
,
1000
0100
1000
0100
0010
0001
1000
0010
,
1000
0100
1000
0100
0020
0000
0030
M001
,
0100
0010
1010
1010
1000
0100
0011
0011
,
0001
0100
0001
0100
0010
2000
0000
3001
,
0010
0100
1000
0010
1000
0001
0100
0020
,
0000
1030
0100
1000
0001
0020
0000
0030
,
2M02
00M0
0M00
00M0
0M00
00M0
3M03
00M0
,
1000
0100
1000
0100
1000
0100
1000
0100
0010
0000
0002
0000
10M3
0000
0M01
0000
,
0100
0001
0100
0001
0100
0001
0100
0001
1000
0000
0100
0000
0M00
0000
0100
0000
,
1000
0001
1000
0001
1000
0001
1000
0001
0100
0000
0020
0000
1M30
0000
001M
0000
,
0100
0001
0100
0001
0100
0001
0100
0001
1000
0100
0010
0001
1000
0100
0010
0001
,
1000
0100
0010
0100
1000
0001
1000
0001
0010
0000
020M
0000
13M0
0000
0001
0010
,
0100
1000
0001
1000
0100
0010
0001
1000
0001
0000
0010
0000
00M0
0000
0010
0000
,
0001
0100
0010
1000
0001
1000
0001
0100
0010
0000
2000
0000
3001
0000
0010
0100
,
1000
0001
1000
0001
2M00
0000
3000
0000
202M
0000
3030
0000
M220
0000
0330
0000
,
0001
0100
0001
0100
0001
0100
0001
0100
0010
1000
0001
1000
0001
0010
0100
1000
,
0001
0100
0001
0100
0001
0100
0010
1000
0001
1000
0100
0010
0001
0010
0100
1000
,
0001
0100
0001
0100
0001
0100
0001
0100
0010
1000
0001
1000
0100
0010
0001
0010
,
0100
1000
0100
1000
0100
1000
0100
1000
0001
0100
0001
1000
0001
1000
0001
1000
,
0001
0100
0010
1000
0001
1000
0010
0100
0001
1000
0010
0100
0001
1000
0001
0010
,
0100
1000
0001
1000
0010
0100
0001
1000
0100
1000
0001
0100
0010
1000
0010
0100
,
0001
1000
0001
1000
0100
0010
0001
1000
0001
1000
0001
1000
0010
0100
0001
1000
,
0001
0010
0100
1000
00M2
0000
0003
0000
M202
0000
0303
0000
022M
0000
0330
0000
,
2000
0000
3000
M000
0002
0000
0003
000M
,
0200
0000
0300
0M00
0020
0000
0030
00M0
,
2000
0000
0000
0000
0000
0000
0000
0000
0000
0000
0000
0000
0000
0000
3001
0100
,
0010
0000
0000
0000
0000
0000
1000
0000
0000
0000
0000
0000
0001
0000
0000
0000
0000
0000
1000
0000
0000
0010
0000
0000
0100
0000
0000
0000
0001
0000
0000
0000
1000
0000
0000
0000
0004
0000
0000
0000
0000
0000
0000
0000
0000
0000
0000
0000
,
1003
0000
0000
0100
0000
0000
0010
0000
0000
0001
0100
0001
0100
0000
0000
0010
0000
0000
4000
0000
0000
0000
0000
0000
,
3001
0010
0001
0010
0002
0000
0000
0000
1003
0010
1000
0010
2000
0000
3010
0100
,
0001
1000
0001
1000
0100
1000
0100
1000
0100
0010
0100
0010
0001
0000
0001
0000
,
0100
0000
0000
0010
0000
0000
1000
0000
0000
0001
0000
0000
1000
0000
0010
0000
0100
0000
0004
0000
0000
0000
0000
0000
,
1003
0100
1000
0100
0020
0000
0031
0000
,
2000
0000
3000
M000
0002
0000
0003
000M
,
1000
0000
0000
0100
0000
0000
0010
0000
0000
0001
1000
0001
1000
0000
0000
0010
0000
0000
0400
0000
0000
0000
0000
0000
,
0301
0000
0000
0010
0000
0000
0100
0000
0000
1000
0000
0000
0001
0000
0100
0000
0010
0000
4000
0000
0000
0000
0000
0000
,
3100
0010
0001
0001
1000
1000
0010
0010
,
0100
0001
1000
0001
2000
0000
0000
0000
3100
0010
0100
0010
0002
0000
1003
0010
,
1000
0000
0000
0001
0000
0000
0100
0000
0000
0010
1000
0010
1000
0000
0000
0100
0000
0000
0040
0000
0000
0000
0000
0000
,
0031
0000
0000
0100
0000
0000
0010
0000
0000
0000
0000
0000
1000
0000
0000
0000
0000
0000
0010
0000
0000
0100
0000
0000
0001
0000
0000
0000
0010
0000
0000
0000
0100
0000
0000
0000
1000
0000
0000
0000
0000
0000
0001
0000
0000
0000
0000
0000
,
2000
3200
2300
0000
3002
0203
0302
0000
,
1003
0100
1000
0100
0040
0000
0000
0000
0031
1000
0001
1000
0001
0000
1000
0010
,
0100
0001
0100
0001
0020
0000
0030
0000
,
0100
1000
0100
1000
0001
0100
0010
1000
,
0100
1000
0100
1000
0020
0000
0130
0001
,
1000
0200
0010
0310
0001
0200
0010
0310
,
1000
0100
0010
0001
0100
0002
0000
1003
,
0010
0100
0101
0101
0001
0010
1100
2001
,
0000
3010
0100
0001
1000
0002
0000
0013
,
0100
1000
0002
0000
0103
0001
2000
0000
,
3010
0100
0001
1000
0002
0000
0003
0000
,
1000
0100
1000
0100
0010
0001
1000
1000
,
0001
0100
0010
1000
0001
2000
0000
3010
,
0100
0001
0011
0011
0010
0100
1100
1100
,
1000
0010
1000
0010
0100
0002
0000
1003
,
0100
2000
0010
3010
0100
0002
0010
0023
,
0000
0130
1000
0001
1000
0002
0000
0103
,
0010
1000
0001
1000
0100
0000
1000
0000
0001
0010
0100
1000
0001
0000
1000
0000
,
2002
0000
0000
0000
0000
0000
0000
0000
0000
3003
0000
0000
1000
0000
0100
0000
1000
0000
0001
0000
0010
0000
0001
0000
,
1000
0010
1000
0001
0100
0001
2000
0000
3200
0000
0320
0000
,
0031
0000
0100
0010
0000
0010
1000
0000
0100
0010
0000
0100
,
1000
0001
1000
0010
0100
0010
1000
0010
0100
0001
1000
0001
,
0100
0000
0000
0000
0000
0000
0010
0000
0000
1000
0000
0000
0001
0000
0000
1000
0000
0000
0001
0000
0000
0010
0000
0000
0100
0000
0000
0010
0000
0000
0100
0000
0000
1000
0000
0000
0001
0000
0000
0000
0000
0000
0000
0000
1000
0000
0000
0000
,
0000
0000
0000
0000
0000
0000
1000
0000
0000
0100
0000
0000
0010
0000
0000
0001
0000
0000
1000
0000
0000
0001
0000
0000
1000
0000
0000
0010
0000
0000
0100
0000
0000
0001
0000
0000
1000
0000
0000
0000
0000
0000
0000
0000
0100
0000
0000
0000
,
0010
0000
0001
0100
0000
0010
0100
0001
1000
0001
1000
0100
,
0010
0001
1000
0200
0000
0000
0310
0001
1000
0020
0000
0000
,
1030
0100
1000
22MM
0000
3300
0001
0010
0001
MM22
0000
0033
,
0001
0010
0100
1000
0001
1000
0002
0000
0203
0000
0320
0000
,
1030
0000
0000
0000
0000
0000
0100
0000
0000
0000
0000
0000
0010
0000
0000
0000
0000
0000
0001
0000
0000
1000
0000
0000
0001
0000
0000
0000
0100
0000
0000
0000
0010
0000
0000
0000
1000
0000
0000
0000
0001
0000
0000
0000
1000
0000
0000
0000
,
0010
0100
0001
1000
0100
0010
0002
0000
0000
0000
0000
0000
,
2003
0000
0000
3000
0000
0000
M020
0000
0000
0030
0000
0000
01M0
0000
0001
0000
1000
0000
0001
0000
1000
0000
0100
0000
,
0010
0100
0010
0001
1000
0001
0200
0000
0000
0320
0000
0000
,
1030
0100
1000
0100
1000
0100
1000
0100
0010
0001
1000
0001
1000
0010
0100
0001
,
1000
0100
1000
0100
1000
0100
1000
0100
0010
0001
1000
0010
0100
0001
0100
0010
,
1000
0100
1000
0100
0010
0001
0010
0001
1000
0100
0010
0001
1000
0001
1000
0001
,
1000
0100
1000
0100
1000
0100
1000
0100
0010
0001
1000
0001
0100
0010
0100
0010
,
2000
0000
3001
0100
0010
0100
0001
0100
0010
0100
0001
0100
0010
0000
0010
0000
,
2010
0000
3100
0010
0001
0010
0100
1000
0001
1000
0001
0100
0020
0000
1030
0000
,
0102
0000
1003
0010
0100
0001
1000
0001
1000
0010
0100
0001
2000
0000
3001
0010
,
0200
0300
220M
3300
M220
0330
0M22
0033
,
2000
0000
3000
M000
0020
0000
0030
00M0
,
0200
0000
0300
0M00
0002
0000
0003
000M
,
1000
0000
0000
0010
0000
0000
0100
0000
0000
0001
0100
0010
1000
0000
0000
0100
0000
0000
0010
0000
0000
0001
0000
0000
,
1000
1000
0010
0010
0100
0100
0001
0001
,
1000
0000
0100
0000
0010
0000
0001
1000
0001
0000
0100
0000
0010
0000
1000
0000
,
0001
0010
0011
0011
0001
1000
1010
1010
,
1000
0000
0000
0010
0000
0000
0100
0000
0000
0001
0010
0100
1000
0000
0000
0010
0000
0000
0100
0000
0000
0001
0000
0000
,
1000
0100
1000
0001
0100
0010
1000
0020
,
0000
0130
0001
1000
0001
0020
0000
0130
,
1000
0010
0100
0001
2000
0000
0000
0000
3100
0010
0001
1000
0004
0000
0000
0000
,
1003
0000
0000
0010
0000
0000
0100
0000
0000
0001
1000
0001
1000
0000
0000
0100
0000
0000
0040
0000
0000
0000
0000
0000
,
0031
0100
0010
0000
1000
0000
0001
1000
0010
0000
0100
0000
0004
0000
0000
0000
,
1003
0000
0000
0100
0000
0000
0010
0000
0000
0001
0100
0010
1000
0000
0000
0001
0000
0000
1000
0000
0000
0100
0000
0000
,
0010
0001
1000
0001
1000
0000
0010
0000
0100
0001
1000
0001
1000
0000
0001
0010
,
0100
0000
0000
1000
0000
0000
0001
0000
0000
1000
0010
0100
0001
0000
0000
0010
0000
0000
0400
0000
0000
0000
0000
0000
,
1300
0000
0000
0010
0000
0000
0100
0000
0000
0000
0000
0000
0001
0000
0000
0000
0000
0000
1000
0000
0000
0100
0000
0000
0010
0000
0000
0000
0100
0000
0000
0000
1000
0000
0000
0000
0001
0000
0000
0000
0000
0000
2000
0000
0000
0000
0000
0000
,
0000
3010
0100
0001
1000
0002
0000
0013
,
0100
1000
0001
1000
0010
0000
0100
0000
0010
1000
0001
1000
0100
0000
0010
0000
,
2M02
00M0
0M00
0000
00M0
0M00
00M0
0000
,
0M00
00M0
0M00
0000
,
00M0
0000
0M00
0000
,
3003
0000
0000
0000
;
