#TITLE:Lost Dynasty;
#SUBTITLE:;
#ARTIST:f777;
#TITLETRANSLIT:;
#SUBTITLETRANSLIT:;
#ARTISTTRANSLIT:;
#GENRE:;
#CREDIT:;
#BANNER:lostdynasty-bn.png;
#BACKGROUND:lostdynasty-bg.png;
#LYRICSPATH:;
#CDTITLE:;
#MUSIC:f777 - Lost Dynasty.ogg;
#OFFSET:-0.040;
#SAMPLESTART:41.130;
#SAMPLELENGTH:12.000;
#SELECTABLE:YES;
#BPMS:0.000=140.000;
#STOPS:;
#BGCHANGES:;
#KEYSOUNDS:;

//---------------dance-single - C.Sanabria----------------
#NOTES:
     dance-single:
     C.Sanabria:
     Challenge:
     10:
     0.723,1.000,0.133,1.000,0.422:
0000
0000
0000
0000
,
0000
0000
0000
0000
,
0000
0000
0000
0000
,
0000
0000
0000
0000
,
0020
0230
0302
2003
,
3200
0320
0230
2300
,
3020
0230
0302
2003
,
3002
0023
0230
2300
,
3001
0000
0001
0000
0101
0000
0010
1000
0000
0001
1000
0000
0100
0010
0001
0000
,
1000
0001
1000
0000
0010
0000
0100
0001
1000
0001
0100
0000
0010
0000
00M0
0000
,
0020
2030
3002
0023
,
0230
2300
3002
0203
,
0301
0000
0001
0000
0201
0000
0310
1000
0001
1000
0100
0000
0010
0001
1000
0000
,
0004
4000
0000
0000
0000
0000
0000
0000
0000
0000
0000
0000
0000
0000
0000
0000
0000
0000
0000
0000
0000
3003
0000
0000
,
1000
0000
1000
0000
1200
0000
0310
0001
1000
0001
0100
0000
0000
0100
0001
0000
,
1000
0100
1000
0000
0010
0000
0100
0010
1000
0001
1000
0000
0100
0010
0001
0000
,
1000
0000
1000
0000
2100
0000
3010
0100
0001
1000
0001
0000
0000
0010
0100
0000
,
1000
0001
1000
0000
0010
0000
0100
0001
1000
0000
1100
0000
0001
0000
0101
0000
,
1000
0000
1000
0000
1200
0000
0310
0001
1000
0001
1000
0000
0000
0010
0100
0000
,
0004
0000
0103
0010
4000
0000
3001
0010
,
0100
1000
0001
0000
0101
0000
0100
0010
1000
0001
1000
0000
0000
1000
0100
0000
,
0010
0001
0010
0000
0100
0000
1000
0001
1000
0010
0100
0000
0001
0000
1001
0000
,
1000
0000
1000
0000
1200
0000
0310
0001
1000
0001
0100
0000
0000
0100
0010
0000
,
4000
0000
0000
0000
3004
0000
0000
0000
1003
0100
1000
0000
0010
0100
0001
1000
,
0001
0000
0000
0001
0010
0000
0100
1000
000M
0000
0010
0000
0M00
0000
0100
0000
,
0001
0000
1000
0100
1000
0000
001M
0000
0M00
0000
0100
0000
0001
0000
10M1
0000
,
1000
0000
0000
0100
000M
0000
0010
0000
M000
0000
0010
0000
010M
0000
1000
0000
,
00M1
0000
0000
0100
M000
0000
0010
0000
1000
0100
000M
0000
0100
0000
00M0
0000
,
1000
0000
0000
0010
000M
0000
0100
0001
M000
0000
00M1
1000
0000
0000
010M
0000
,
0010
0000
0M01
1000
0001
0000
0100
0000
00M0
0000
0010
0000
1M00
0000
1001
0000
,
00M2
0000
M000
0000
0013
0100
1000
0001
20M0
0000
000M
0000
3010
0100
0010
0100
,
0001
1000
0001
0100
00M0
0100
M010
0000
1000
0100
000M
0000
0100
0000
00M0
0000
,
0020
0032
2003
3020
0230
0000
0302
0023
,
0032
0203
0320
2030
3200
2300
3020
0230
,
0302
2003
3200
0320
0230
0000
2300
3020
,
0230
0000
0320
0000
2030
0000
3002
0000
0023
0000
0230
0000
1300
0001
1000
0001
,
1000
0000
1000
0000
1020
0000
0130
0001
1000
0001
0100
0000
0000
0010
1000
0001
,
1000
0100
1000
0000
0010
0000
0100
0001
1000
0001
0100
0000
0010
0000
1001
0000
,
1000
0000
1000
0000
1200
0000
0310
0100
1000
0001
1000
0000
0000
0010
0100
0010
,
1000
0000
0000
0001
0000
0000
1000
0000
0000
0000
0000
0000
0100
0000
0000
0000
0000
0000
0010
0000
0000
0001
0000
0000
1000
0000
0001
0000
1000
0000
0001
0000
1000
0000
0001
0000
1000
0000
0000
0000
0000
0000
0010
0000
0000
0000
0000
0000
,
0100
0000
0100
0000
0102
0000
1003
0010
0100
0001
0100
0000
0000
0010
1000
0001
,
1000
0100
1000
0000
1001
0000
0001
0100
0001
1000
0010
0000
1000
0000
1010
0000
,
0001
0000
0001
0000
0101
0000
1000
0001
1000
0100
0010
0000
0000
0100
1000
0001
,
1000
0010
1000
0000
0001
0000
0200
0000
0000
0000
0010
0000
0310
0000
M00M
0000
,
2002
0000
0000
3003
,
0020
0230
0302
2003
,
3200
2300
3002
0023
,
0230
0320
0032
2003
,
3020
0230
0320
2030
,
3002
0023
0230
2300
,
3002
0000
0203
0000
0320
2030
3002
0000
,
0023
0230
2300
0000
3020
0230
0302
0000
,
2003
0000
0000
0000
,
3020
0230
0302
2003
,
3200
2300
3020
0230
,
0302
2003
3020
0230
,
0320
2030
3002
0023
,
0230
2300
3002
0203
,
0320
0000
0230
0000
0302
0023
0230
0000
,
2300
3020
0230
0000
0302
2003
3002
0000
,
0023
0000
0000
0000
,
0130
0000
M000
0000
000M
0000
0000
0001
00M0
0000
0100
0000
M000
0000
0010
0000
,
000M
0000
1000
0100
00M0
0000
0010
0000
M000
0000
0001
0000
0M00
0000
00M0
0000
,
0100
0000
0000
0010
000M
0000
1000
0000
0M00
0000
0001
0000
M010
0000
0100
0000
,
100M
0000
0000
0010
0M00
0000
0100
0000
M001
0010
0000
0000
010M
0000
00M0
0000
,
1000
0000
000M
0000
0M00
0000
0000
0010
M000
0000
0100
0000
000M
0000
0001
0000
,
00M0
0000
0010
0100
M000
0000
0100
0000
000M
0000
0010
0000
0M00
0000
M000
0000
,
00M2
0000
0M00
0000
0103
0010
1000
0001
2M00
0000
00M0
0000
3100
0010
0001
1000
,
0001
0000
1000
0010
1000
0000
0001
0000
0100
0010
0000
0000
0010
1000
0001
1000
,
0002
0000
0203
0000
0320
0000
2030
0000
3001
0000
0010
0000
0000
0010
0001
0000
,
1000
0000
0001
0100
0001
0000
0010
0000
0002
0000
0203
0000
0310
0000
1001
0000
,
2000
0000
3200
0000
0320
0000
0032
0000
1003
0010
1000
0000
0001
0000
1000
0000
,
0002
0000
0000
0023
0000
0000
0230
0000
0000
2300
0000
0000
3001
0100
0001
0100
0001
0100
0001
0000
0000
1000
0000
0000
,
0002
0000
0203
0000
0320
0000
2030
0000
3001
0100
0001
0000
1000
0000
1010
0000
,
0001
0000
1000
0100
0010
0000
0100
0000
2000
0000
3020
0000
0130
0000
1001
0000
,
0002
0000
0000
0000
0013
0100
1000
0001
2000
0000
0000
0000
3010
0100
0001
1000
,
0001
0000
0000
0100
0000
0000
0010
0000
1000
0100
0000
0000
0010
0000
0100
0000
,
2000
0000
3200
0000
0320
0000
0032
0000
1003
0000
0010
0000
0000
0010
1000
0000
,
0001
0000
1000
0100
1000
0000
0010
0000
2000
0000
3200
0000
0310
0000
1001
0000
,
0002
0000
0203
0000
0320
0000
2030
0000
3001
0010
0001
0000
1000
0000
0001
0000
,
2000
0000
0000
0000
0000
0000
3020
0000
0000
0000
0000
0000
0230
0000
0000
0000
0000
0000
0302
0000
0000
0000
0000
0000
1003
0000
0100
0000
1000
0000
0100
0000
1000
0000
0100
0000
1000
0000
0000
0000
0000
0000
0010
0000
0000
0100
0000
0000
,
0002
0000
0203
0000
0320
0000
2030
0000
3001
0100
0001
0000
1000
0000
1010
0000
,
0001
0000
1000
0100
0010
0000
0100
0000
2000
0000
3020
0000
0130
0000
1001
0000
,
0002
0000
0000
0000
0013
0100
1000
0001
2000
0000
0000
0000
3010
0100
0001
1000
,
0001
0000
0000
0100
0000
0000
0010
0000
1000
0100
0000
0000
0010
0000
0100
0000
,
1000
0010
0100
0001
1000
0001
1000
0001
,
0010
0000
0100
0000
1000
0000
0010
0000
1000
0000
0001
0100
0010
0000
1000
0000
,
0001
0000
0000
0100
0000
0000
0010
1000
0000
0000
0001
0000
0010
0000
0100
0000
,
1000
0000
0000
0000
0000
0000
0000
0000
0000
0010
0000
0000
0000
0000
0000
0000
0000
0000
0100
0000
0000
0000
0000
0000
0001
0000
0000
1000
0000
0000
0000
0000
0000
0000
0000
0000
1000
0000
0001
0000
1000
0000
0001
0000
1000
0000
0001
0000
,
1000
0010
0100
0001
0010
0001
1000
0010
,
0100
0000
0001
1000
0001
0000
0010
0000
0100
0000
0000
0100
1000
0000
0001
0000
,
2000
0000
0000
0000
3010
0100
0001
0100
0002
0000
0000
0000
0013
0100
1000
0100
,
1000
0000
0000
0000
0000
0000
0010
0000
0000
0100
0000
0000
0000
0000
0000
0000
0000
0000
0001
0000
0000
0000
0000
0000
1000
0000
0000
0100
0000
0000
0000
0000
0000
0000
0000
0000
1000
0000
0001
0000
1000
0000
0001
0000
1000
0000
0001
0000
,
1000
00M0
0M00
000M
,
2000
0000
0000
0000
0000
0000
0000
3000
,
0020
0000
0000
0000
0000
0000
0030
0000
0200
0000
0000
0000
0300
0000
0001
1000
,
0020
0000
0030
0200
0000
0300
0000
0000
,
0002
0000
0000
0000
0003
0000
0000
0000
2000
0000
3000
0000
0002
0000
1003
0001
,
0200
0000
0300
0000
,
0020
0000
0000
0030
0000
0000
0000
0000
,
2000
3020
2030
3020
0230
0302
0203
0302
0023
0032
0023
0032
2003
3200
0320
0032
,
2003
0000
0000
0000
3020
0000
0230
0302
,
2003
0000
0000
0000
,
0002
0000
0000
3000
0020
0000
0000
0003
,
0200
0000
0000
0030
2000
0300
0020
3000
,
0200
0030
0002
0300
2000
0000
0000
0003
,
3002
0203
0302
0000
0000
0000
0000
0000
0000
0000
0000
0000
0000
0000
0000
0000
,
0000
0000
0000
0000
,
2000
0003
0020
3000
0200
0030
0002
0300
,
2000
0003
0200
3000
0020
0300
0002
0030
,
2000
0000
0000
0003
0020
0000
0000
3000
,
0200
0000
0000
0030
0002
0000
0000
0300
,
2000
0000
0000
0000
,
0000
0000
0000
0000
,
3003
0000
0000
0000
;
