#TITLE:Let's Rock;
#SUBTITLE:;
#ARTIST:Eudorix;
#TITLETRANSLIT:;
#SUBTITLETRANSLIT:;
#ARTISTTRANSLIT:;
#GENRE:;
#CREDIT:;
#BANNER:;
#BACKGROUND:;
#LYRICSPATH:;
#CDTITLE:;
#DISPLAYBPM:70.000:140.000;
#MUSIC:Eudorix - Let's Rock.mp3;
#OFFSET:-0.180;
#SAMPLESTART:56.690;
#SAMPLELENGTH:12.000;
#SELECTABLE:YES;
#BPMS:0.000=70.000,16.000=140.000,17.000=280.000,18.000=140.000,25.000=280.000,26.000=140.000,33.000=280.000,34.000=140.000,41.000=280.000,42.000=140.000,49.000=280.000,50.000=140.000,57.000=280.000,58.000=140.000,65.000=280.000,66.000=140.000,73.000=280.000,74.000=140.000,81.000=280.000,82.000=140.000,89.000=280.000,90.000=140.000,112.000=70.000,114.000=140.000,127.000=280.000,128.000=140.000,129.000=280.000,130.000=140.000,143.000=280.000,144.000=140.000,145.000=280.000,146.000=140.000,154.000=280.000,155.000=140.000,170.000=280.000,171.000=140.000,191.000=280.000,192.000=140.000,193.000=280.000,194.000=140.000,207.000=280.000,208.000=140.000,209.000=280.000,210.000=140.000,255.000=280.000,256.000=140.000,271.000=280.000,272.000=140.000,482.750=280.000,485.000=140.000,489.000=280.000,490.000=140.000,490.750=280.000,493.000=140.000,495.000=280.000,496.000=140.000,497.000=280.000,498.000=140.000,499.000=280.000,501.000=280.000,502.000=140.000,505.000=280.000,506.000=140.000,507.000=280.000,509.000=140.000,511.000=280.000,513.000=280.000,520.000=140.000,522.000=280.000,523.000=140.000,527.000=280.000,530.000=140.000,535.000=280.000,537.000=140.000,541.000=280.000,542.000=140.000,543.000=280.000,545.000=140.000,547.000=280.000,548.000=140.000,549.000=280.000,550.000=140.000,551.000=280.000,553.000=140.000,557.000=280.000,558.000=140.000,559.000=280.000,561.000=140.000,563.000=280.000,564.000=140.000,565.000=280.000,566.000=140.000;
#STOPS:17.000=0.053
,17.250=0.054
,17.500=0.053
,17.750=0.054
,25.000=0.053
,25.250=0.054
,25.500=0.053
,25.750=0.054
,33.000=0.053
,33.250=0.054
,33.500=0.053
,33.750=0.054
,41.000=0.053
,41.250=0.054
,41.500=0.053
,41.750=0.054
,49.000=0.053
,49.250=0.054
,49.500=0.053
,49.750=0.054
,57.000=0.053
,57.250=0.054
,57.500=0.053
,57.750=0.054
,65.000=0.053
,65.250=0.054
,65.500=0.053
,65.750=0.054
,73.000=0.053
,73.250=0.054
,73.500=0.053
,73.750=0.054
,81.000=0.053
,81.250=0.054
,81.500=0.053
,81.750=0.054
,89.000=0.053
,89.250=0.054
,89.500=0.053
,89.750=0.054
,127.000=0.053
,127.250=0.054
,127.500=0.053
,127.750=0.054
,129.000=0.053
,129.250=0.054
,129.500=0.053
,129.750=0.054
,143.000=0.053
,143.250=0.054
,143.500=0.053
,143.750=0.054
,145.000=0.053
,145.250=0.054
,145.500=0.053
,145.750=0.054
,154.000=0.053
,154.250=0.054
,154.500=0.053
,154.750=0.054
,170.000=0.053
,170.250=0.054
,170.500=0.053
,170.750=0.054
,191.000=0.053
,191.250=0.054
,191.500=0.053
,191.750=0.054
,193.000=0.053
,193.250=0.054
,193.500=0.053
,193.750=0.054
,207.000=0.053
,207.250=0.054
,207.500=0.053
,207.750=0.054
,209.000=0.053
,209.250=0.054
,209.500=0.053
,209.750=0.054
,255.000=0.053
,255.250=0.054
,255.500=0.053
,255.750=0.054
,271.000=0.053
,271.250=0.054
,271.500=0.053
,271.750=0.054
,482.750=0.053
,483.000=0.054
,483.250=0.053
,483.500=0.054
,483.750=0.053
,484.000=0.107
,484.500=0.107
,489.000=0.054
,489.250=0.053
,489.500=0.054
,489.750=0.053
,490.750=0.054
,491.000=0.053
,491.250=0.054
,491.500=0.053
,491.750=0.054
,492.000=0.107
,492.500=0.107
,495.000=0.053
,495.250=0.054
,495.500=0.053
,495.750=0.054
,497.000=0.053
,497.250=0.054
,497.500=0.053
,497.750=0.054
,499.000=0.053
,499.250=0.054
,499.500=0.053
,499.750=0.054
,500.000=0.107
,500.500=0.107
,501.000=0.053
,501.250=0.054
,501.500=0.053
,501.750=0.054
,505.000=0.053
,505.250=0.054
,505.500=0.053
,505.750=0.054
,507.000=0.053
,507.250=0.054
,507.500=0.053
,507.750=0.054
,508.000=0.107
,508.500=0.107
,511.000=0.053
,511.250=0.054
,511.500=0.053
,511.750=0.054
,512.000=0.107
,512.500=0.107
,513.000=0.053
,513.250=0.054
,513.500=0.053
,513.750=0.054
,514.000=0.053
,514.250=0.054
,514.500=0.053
,514.750=0.054
,515.000=0.053
,515.250=0.054
,515.500=0.053
,515.750=0.054
,516.000=0.053
,516.250=0.054
,516.500=0.053
,516.750=0.054
,517.000=0.053
,517.250=0.054
,517.500=0.053
,517.750=0.054
,518.000=0.053
,518.250=0.054
,518.500=0.053
,518.750=0.054
,519.000=0.053
,519.250=0.054
,519.500=0.053
,519.750=0.054
,522.000=0.053
,522.250=0.054
,522.500=0.053
,522.750=0.054
,527.000=0.053
,527.250=0.054
,527.500=0.053
,527.750=0.054
,528.000=0.053
,528.250=0.054
,528.500=0.053
,528.750=0.054
,529.000=0.053
,529.250=0.054
,529.500=0.053
,529.750=0.054
,535.000=0.053
,535.250=0.054
,535.500=0.053
,535.750=0.054
,536.000=0.107
,536.500=0.107
,541.000=0.053
,541.250=0.054
,541.500=0.053
,541.750=0.054
,543.000=0.053
,543.250=0.054
,543.500=0.053
,543.750=0.054
,544.000=0.107
,544.500=0.107
,547.000=0.053
,547.250=0.054
,547.500=0.053
,547.750=0.054
,549.000=0.053
,549.250=0.054
,549.500=0.053
,549.750=0.054
,551.000=0.053
,551.250=0.054
,551.500=0.053
,551.750=0.054
,552.000=0.107
,552.500=0.107
,557.000=0.053
,557.250=0.054
,557.500=0.053
,557.750=0.054
,559.000=0.053
,559.250=0.054
,559.500=0.053
,559.750=0.054
,560.000=0.107
,560.500=0.107
,563.000=0.053
,563.250=0.054
,563.500=0.053
,563.750=0.054
,565.000=0.053
,565.250=0.054
,565.500=0.053
,565.750=0.054
;
#BGCHANGES:;
#KEYSOUNDS:;

//---------------dance-single - C.Sanabria----------------
#NOTES:
     dance-single:
     C.Sanabria:
     Challenge:
     11:
     0.720,0.965,0.390,1.000,0.494:
M000
0000
0000
0000
,
000M
0000
0000
0000
,
2000
0000
3010
M000
0210
0000
0301
0M00
,
0012
0000
0103
001M
2010
0000
3002
M000
,
0023
0000
0000
0000
0031
0100
0010
1000
0200
0000
0000
0320
0000
0000
0032
0000
,
0000
0000
0103
011M
2000
3020
0230
0302
,
0023
0000
0000
0000
0031
0100
0010
1000
0200
0000
0000
0320
0000
0000
0031
0000
,
020M
0000
0010
0310
2010
3001
0102
1003
,
002M
0000
0000
0000
0130
0001
0010
0100
2000
0000
0000
3020
0000
0000
0230
0000
,
0000
0000
0301
0M11
0200
2300
3020
0230
,
0302
0000
0000
0000
0103
0010
1000
0001
0020
0000
0000
0230
0000
0000
1300
0000
,
0020
0000
0100
0130
0102
1003
2010
3100
,
0020
0000
0000
0000
0031
0100
1000
0100
0002
0000
0000
0023
0000
0000
0230
0000
,
0000
0000
1300
M101
0020
2030
3200
0320
,
0032
0000
0000
0000
1003
0100
0001
0100
2000
0000
0000
3020
0000
0000
0130
0000
,
0M02
0000
0010
0013
210M
3001
0120
0031
,
200M
0000
0000
0000
3010
0100
0001
0010
0200
0000
0000
2300
0000
0000
3020
0000
,
0000
0000
0130
1M01
0020
0230
0302
0023
,
0230
0000
0000
0000
1300
0010
0100
0001
0020
0000
0000
0230
0000
0000
1300
0000
,
M020
0000
0200
0330
,
2001
0000
0000
0000
3001
0010
0100
1000
2100
0000
0000
3020
0000
0000
0130
0000
,
0102
0000
0013
0100
2100
3020
0230
0301
,
0102
0000
0000
0000
1003
0100
0010
0001
0012
0000
0000
0203
0000
0000
0310
0000
,
2010
00M0
0000
3000
0102
0M00
0000
0003
,
M011
101M
110M
M101
,
101M
M011
01M1
11M0
,
M101
0110
101M
1001
11M0
0110
M011
1001
,
0001
0000
0000
0100
0000
0000
0010
0000
0000
1000
0000
0000
0100
0000
0000
1000
0000
0000
0010
0000
0000
0100
0000
0000
0001
0000
0010
0000
0100
0000
1000
0000
0000
0001
0000
0000
1000
0000
0100
0000
0010
0000
0001
0000
0000
1000
0000
0000
,
0020
0000
0000
0000
1030
M000
0201
0000
,
0301
0000
0000
0000
0000
0100
0000
0000
0000
0000
0020
0000
0000
0000
0000
0000
0000
0000
0000
0000
0000
0000
0000
0000
2030
0000
0000
0000
0000
0000
0000
0000
0000
0000
0000
0000
0200
0000
0000
0000
0000
0000
0300
0000
0000
0000
0000
0000
,
3002
0000
0020
0030
1003
M000
0102
0000
,
0013
0000
0000
0000
0000
0100
0000
0000
0000
0000
4000
0000
0000
0000
0000
0000
0000
0000
0000
0000
0000
0000
0000
0000
3002
0000
0000
0000
0000
0000
0023
0000
0000
0000
0000
0000
0130
0000
0000
1000
0000
0000
0010
0000
0000
0100
0000
0000
,
0002
0000
0023
0000
0031
0100
0010
1000
0100
0000
0M00
0000
0012
0000
0000
0000
,
1003
0000
0000
0000
0000
0100
0000
0000
0000
0000
0020
0000
0000
0000
0000
0000
0000
0000
0000
0000
0000
0000
0000
0000
0032
0000
0000
0000
0000
0000
0000
0000
0000
0000
0000
0000
0200
0000
0000
0000
0000
0000
0300
0000
0000
0000
0000
0000
,
2003
0000
0020
0030
3100
0M00
0102
0000
,
0013
0000
0000
0000
0000
0100
0000
0000
0000
0000
4000
0000
0000
0000
0000
0000
0000
0000
0000
0000
0000
0000
0000
0000
3020
0000
0000
0000
0000
0000
0230
0000
0000
0000
0000
0000
0301
0000
0000
0010
0000
0000
0100
0000
0000
1000
0000
0000
,
0020
0000
0230
0000
0301
0010
0100
1000
0010
0000
00M0
0000
0101
0000
0000
0000
,
0M0M
0000
0000
0000
0101
0000
1000
0100
0010
0000
0001
0100
0000
0001
0010
0000
,
0100
1000
0000
0010
0100
0000
0001
0000
0010
0100
1000
0001
2000
0000
0000
0000
,
3020
0000
M000
0000
0130
0000
0001
1000
0001
0000
0010
0001
0000
0100
0001
0000
,
1000
0100
0000
0010
0100
1000
0001
1000
0100
0000
0M00
0000
1010
0000
0000
0000
,
M0M0
0000
0000
0000
1010
0000
0001
0010
0100
0000
1000
0010
0000
1000
0100
0000
,
0010
0001
0000
0100
0010
0000
1000
0000
0100
0010
0001
1000
0002
0000
0000
0000
,
0203
0000
000M
0000
0310
0000
1000
0001
1000
0000
0100
1000
0000
0010
1000
0000
,
0001
0010
0000
0100
0010
0001
1000
0001
0200
0000
0000
0000
0340
0000
0000
0000
,
0000
0000
0000
1030
0100
0010
0001
0000
0000
0101
0000
0000
20M0
0000
0000
0000
0000
0000
0200
0000
0000
0300
0000
0000
,
3002
0000
0020
0030
1003
M000
0102
0000
,
0013
0000
0000
0000
0000
0100
0000
0000
0000
0000
4000
0000
0000
0000
0000
0000
0000
0000
0000
0000
0000
0000
0000
0000
3002
0000
0000
0000
0000
0000
0023
0000
0000
0000
0000
0000
0130
0000
0000
1000
0000
0000
0010
0000
0000
0100
0000
0000
,
0002
0000
0023
0000
0031
0100
0010
1000
0100
0000
0M00
0000
0012
0000
0000
0000
,
1003
0000
0000
0000
0000
0100
0000
0000
0000
0000
0020
0000
0000
0000
0000
0000
0000
0000
0000
0000
0000
0000
0000
0000
0032
0000
0000
0000
0000
0000
0000
0000
0000
0000
0000
0000
0200
0000
0000
0000
0000
0000
0300
0000
0000
0000
0000
0000
,
2003
0000
0020
0030
3100
0M00
0102
0000
,
0013
0000
0000
0000
0000
0100
0000
0000
0000
0000
4000
0000
0000
0000
0000
0000
0000
0000
0000
0000
0000
0000
0000
0000
3020
0000
0000
0000
0000
0000
0230
0000
0000
0000
0000
0000
0301
0000
0000
0010
0000
0000
0100
0000
0000
1000
0000
0000
,
0020
0000
0230
0000
0301
0010
0100
1000
0020
0000
0000
0000
0130
0010
1000
0010
,
0100
0000
0000
0100
0000
0000
0200
0000
0000
0000
0000
0000
0001
0000
0301
0000
,
1010
0000
0200
0000
0302
0000
0023
0000
0230
0000
0000
0000
0310
0100
1000
0100
,
0010
0000
0000
0010
0000
0000
0010
0000
0002
0000
0000
0000
0100
0000
0103
0000
,
0201
0000
0310
0000
2010
0000
3001
0000
0020
0000
0000
0000
0130
0010
0001
0010
,
0100
0000
0000
0100
0000
0000
0200
0000
0000
0000
0000
0000
1000
0000
1300
0000
,
0011
0000
0200
0000
2300
0000
3020
0000
0230
0000
0000
0000
0310
0100
0001
0100
,
0010
0000
0000
0010
0000
0000
0010
0000
0200
0000
0000
0000
0000
0000
0000
0000
,
0020
0000
0330
0000
2100
00M0
0001
0M00
,
0000
0000
0000
0000
3001
0000
M010
0100
1000
0000
0010
1000
0000
0100
0010
0000
,
0001
0100
0000
0100
0001
0000
0010
0000
2100
0000
000M
0000
3010
0000
0100
0000
,
0102
0000
M000
0000
1003
0000
0010
0100
0001
0000
1000
0100
0010
0001
0100
0010
,
1000
0100
1000
0100
1000
0000
0010
0000
0102
0000
00M0
0000
1000
0000
00M0
0000
,
0000
0000
0000
0000
1003
0000
001M
0100
0001
0000
0010
0001
0000
0100
0010
0000
,
1000
0100
0000
0100
1000
0000
0010
0000
0102
0000
M000
0000
0013
0000
0100
0000
,
2100
0000
00M0
0000
3001
0000
0010
0100
1000
0000
0001
0100
0010
1000
0100
0010
,
0001
0100
0001
0100
0001
0000
0010
0000
440M
0000
0000
0000
0000
0000
0000
0000
,
00M0
0000
000M
0000
,
00M0
3300
0M02
00M0
,
M000
0M00
M000
00M0
,
M203
0302
0023
0230
230M
0000
0M00
0000
,
00M0
000M
3M20
M000
,
023M
M000
03M2
M000
,
0M00
00M0
M000
00M0
,
0M23
0032
0203
0320
203M
0000
0M00
0000
,
00M0
000M
32M0
M000
,
032M
0M00
M032
00M0
,
M100
0M00
01M0
M000
,
02M3
0320
2030
3002
0M23
0000
M000
0000
,
0M01
000M
M230
00M0
,
2300
0M00
30M2
M000
,
0M10
00M0
M010
0M00
,
M023
0230
2300
3002
02M3
0000
M000
0000
,
001M
M000
03M2
M000
,
0M23
0000
0000
0000
000M
0000
0000
0000
0130
0000
1000
0000
0010
0000
0100
0001
,
0000
0001
0100
0000
0020
0000
0000
0000
1030
0000
0100
0000
0010
0000
0001
0100
,
0000
0100
0001
0000
0002
0000
0000
0000
0013
0000
0100
0000
1000
0000
0010
0100
,
0000
0100
0001
0000
0002
0000
0000
0000
2003
0000
0000
0000
3000
0000
M000
0000
,
0022
0000
0000
0000
0033
0000
M000
0000
0100
0000
0001
0000
0010
0000
0100
1000
,
0000
1000
0100
0000
0020
0000
0000
0000
0031
0000
0100
0000
0010
0000
1000
0100
,
0000
0100
1000
0000
2000
0000
0000
0000
3010
0000
0100
0000
0001
0000
0010
0100
,
0000
0100
1000
0000
2000
0000
0000
0000
3020
0000
0000
0000
0030
0000
00M0
0000
,
0202
0000
0000
0000
0303
0000
M000
0000
2000
0000
0010
0000
0010
0000
3010
0100
,
0000
0100
0001
0000
0021
0000
0000
0000
0230
0000
1000
0000
1000
0000
1300
0010
,
0000
0010
0100
0000
0102
0000
0000
0000
2003
0000
0100
0000
0100
0000
3100
0010
,
0000
0010
0001
0000
0201
0000
0000
0000
0320
0000
0000
0000
0M00
0000
0000
0000
,
2030
0000
0000
0000
00M0
0000
0000
0000
3M02
0000
0010
0000
0010
0000
0013
0100
,
0000
0100
1000
0000
1020
0000
0000
0000
0230
0000
0001
0000
0001
0000
0301
0010
,
0000
0010
0100
0000
2100
0000
0000
0000
3002
0000
0100
0000
0100
0000
0103
0010
,
0000
0010
1000
0000
1200
0000
0000
0000
0320
0000
0000
0000
0M00
0000
0031
0000
,
M101
0000
0101
0000
10M0
0000
0010
0000
M102
0000
0000
0000
0013
0100
1000
0001
,
2000
0000
0000
3020
0000
0000
0230
0000
0000
0000
0301
0000
0010
0000
0100
0000
,
2000
0000
3020
0000
0230
0000
0302
0000
2003
0000
0000
0000
3100
0010
0001
1000
,
0020
0000
0000
0230
0000
0000
0301
0000
200M
0000
0000
0000
00M0
0000
0000
0000
,
320M
0000
0000
0000
M000
0000
0000
0000
0320
0000
0000
0000
0031
0100
0010
1000
,
0200
0000
0000
2300
0000
0000
3020
0000
0000
0000
0130
0000
0001
0000
1000
0000
,
0200
0000
0320
0000
0032
0000
2003
0000
3020
0000
0000
0000
1030
0100
0010
0001
,
0200
0000
0000
0302
0000
0000
0013
0000
M200
0000
0000
0000
000M
0000
0000
0000
,
23M0
300M
0101
0M0M
,
1001
M00M
1100
MM00
,
1001
M00M
0101
0M0M
,
0110
0MM0
1100
MM00
,
0110
0MM0
M011
101M
,
110M
M101
1M10
0M11
,
01M1
0000
11M0
0000
M101
0011
110M
1010
,
M110
0000
0101
0000
M011
0000
1100
0000
0001
0100
0010
1000
0001
0100
0010
1000
,
0001
0000
0010
0000
0100
0000
1000
0000
0000
0010
0000
0000
1000
0000
0100
0000
0010
0000
0001
0000
0000
0200
0000
0000
0020
0000
0000
0000
0000
0000
0000
0000
0000
0000
0000
0000
0000
0000
0000
0000
0000
0000
0000
0000
0000
0000
0000
0000
,
0330
0000
0000
0000
0000
0000
1000
0001
1000
0000
0010
0000
0100
0000
0002
0000
2000
0000
0000
0000
0000
0000
0000
0000
0000
0000
0000
0000
0000
0000
0000
0000
,
0000
0000
0000
0000
3003
0000
0000
0000
0002
0000
0000
1003
0010
0100
0001
1000
,
0004
0000
0000
0000
0000
0000
0000
0000
0013
0000
0000
0000
0100
0000
1000
0000
0001
0000
0000
0M00
0000
0000
0001
0000
0200
0000
0000
0000
0320
0000
0000
0000
,
4030
0000
0000
0000
3001
0010
0100
1000
0020
0000
0000
0130
0001
0010
0100
1000
,
0040
0000
0000
0000
0230
0000
0301
0000
0020
0000
0000
0000
0031
0100
0010
1000
,
0200
0000
0000
0000
1300
0010
0100
0001
0020
0000
0000
0130
1000
0010
0100
0001
,
4000
0000
0000
0000
3001
0010
0100
1000
0010
0000
0000
0010
0200
0000
0302
0000
,
1000
0000
1000
0000
1003
0100
0001
0100
2000
0000
0000
3001
0100
0010
1000
0100
,
4000
0000
0000
0000
3020
0000
0130
0000
0002
0000
0000
0000
1003
0100
0010
0001
,
M200
0000
0320
0000
103M
0010
0100
0001
10M0
0001
1000
0001
1M00
0001
1000
0001
,
10M0
0001
1000
0001
0010
0100
0010
0100
M010
0100
0010
0100
001M
0100
0010
0100
,
M010
0000
000M
0000
0102
0000
0000
0000
1003
0010
0100
0001
2000
0000
0000
0000
,
3400
0000
000M
0000
000M
0000
0310
0000
M002
0000
20M3
0000
3001
0100
0010
1000
,
0100
0010
0001
1000
0001
0010
0100
1000
0020
0000
0000
0000
0M30
0000
0000
0000
,
M000
0000
0000
0000
000M
0000
0000
0000
2000
0000
0000
3010
0100
0001
0010
0100
,
4000
0000
0000
0000
3001
0000
0100
0010
2000
0000
0000
3100
0020
0000
0031
0000
,
0100
0000
0010
0000
1000
0100
0010
0001
0200
0000
0000
0310
1000
0001
0010
0100
,
4000
0000
0000
0000
3010
0000
0100
0000
0002
0000
0000
0013
0100
1000
0001
1000
,
0020
0000
0000
0000
0130
0001
0010
0100
2000
0000
0000
3001
0100
0010
1000
0100
,
0040
0000
0000
0000
0031
0000
0100
0010
2000
0000
0000
3100
0010
0000
0002
0000
,
0000
0000
1003
0000
0010
0100
0001
1000
0002
0000
0000
0013
0100
1000
0010
0100
,
0004
0000
0000
0000
1003
0000
0200
0000
0320
0000
0000
0000
0031
0100
0010
1000
,
0200
0000
0000
0000
1300
0010
0100
0001
0020
0000
0000
0000
0030
0000
0000
0000
,
0000
0000
0000
0000
0000
00M0
100M
1000
,
0010
0100
0001
0010
M022
0000
0M00
0000
,
0000
0000
0033
0100
220M
0000
33M0
0000
,
M202
0000
0303
M000
0022
0M00
M000
0000
,
0M00
0000
M000
0000
0033
0M00
M001
0001
,
0100
0010
100M
0100
22M0
000M
0000
00M0
,
0000
000M
3300
0010
M022
0000
0M33
0000
,
202M
3M30
2MM2
0000
,
0000
0000
0000
0000
,
0000
3003
0000
0000
;
