#TITLE:La Noche esta de Fiesta;
#SUBTITLE:;
#ARTIST:J King & Maximan feat. 3BALLMTY;
#TITLETRANSLIT:;
#SUBTITLETRANSLIT:;
#ARTISTTRANSLIT:;
#GENRE:;
#CREDIT:;
#BANNER:lanocheestadefiesta-bn.png;
#BACKGROUND:lanocheestadefiesta-bg.png;
#LYRICSPATH:;
#CDTITLE:;
#MUSIC:J King y Maximan - La Noche está de Fiesta.ogg;
#OFFSET:-0.140;
#SAMPLESTART:29.190;
#SAMPLELENGTH:12.000;
#SELECTABLE:YES;
#DISPLAYBPM:132.000;
#BPMS:0.000=132.000,380.000=264.000,381.000=132.000;
#STOPS:142.500=0.450
,143.500=0.450
,144.500=0.450
,380.000=0.060
,380.250=0.060
,380.500=0.060
,380.750=0.060
;
#BGCHANGES:16.000=J King & Maximan - La Noche Esta de Fiesta.avi=1.000=1=0=1===CrossFade==,
409.000=lanocheestadefiesta-bg.png=1.000=0=0=1=====,
99999=-nosongbg-=1.000=0=0=0 // don't automatically add -songbackground-
;
#KEYSOUNDS:;

//---------------dance-single - C.Sanabria----------------
#NOTES:
     dance-single:
     C.Sanabria:
     Challenge:
     10:
     0.695,0.682,0.127,0.614,0.360:
0000
0000
0000
0000
,
0000
0000
0000
0000
,
0000
0000
0000
0000
,
0000
0000
0000
0000
,
1000
0000
0010
0100
0001
0000
0010
0000
0002
0000
0103
0001
0200
0000
0310
0000
,
1000
0000
0000
0000
0100
0000
0000
0000
0010
0000
0000
0000
0001
0000
0000
0000
0000
0000
0100
0000
0000
0000
0000
0000
0001
0000
0000
0000
0000
0000
0001
0000
0000
0010
0000
0000
0001
0000
0000
0000
0000
0000
2000
0000
0000
0000
0000
0000
,
3100
0000
0010
0001
0100
0000
0010
0000
0200
0000
0001
0000
0302
0000
0013
0000
,
0100
0000
0000
0000
1000
0000
0000
0000
0001
0000
0000
0000
1000
0000
0000
0000
0000
0000
0010
0000
0000
0000
0000
0000
1000
0000
0000
0000
0000
0000
1000
0000
0000
0100
0000
0000
1000
0000
0000
0000
0000
0000
0020
0000
0000
0000
0000
0000
,
0230
0000
0000
0302
0000
0000
0013
0000
0200
0000
0000
0000
0000
0000
0000
0000
,
0000
1300
0010
0100
0001
0010
0001
0100
,
0020
0000
0000
2030
0000
0000
3100
0000
0020
0000
0000
0000
0000
0000
0000
0000
,
0000
0031
0100
0010
1000
0100
1000
0010
,
1001
0000
1000
0100
0020
0000
0031
0100
,
2000
0000
3100
0001
0020
0000
0130
1000
,
0020
0000
0130
0001
2000
0000
3010
0100
,
1MM1
0000
0010
0100
0001
0000
0001
0010
0100
0000
0100
0000
0200
0000
0000
0000
,
1300
0000
0010
0100
0001
0000
0001
0000
0020
0000
0100
0000
0130
0000
1000
0000
,
0001
0000
0000
0000
0100
0000
0000
0000
0010
0000
0000
0000
0100
0000
0000
0000
0000
0000
0001
0000
0000
0000
0000
0000
0010
0000
0000
0000
0000
0000
0010
0000
0000
0001
0000
0000
0100
0000
0000
0000
0000
0000
0020
0000
0000
0000
0000
0000
,
1030
0000
01M0
0010
0001
0000
0001
0000
0200
0000
0010
0000
0310
0000
1000
0000
,
0100
0000
0000
0000
0010
0000
0000
0000
0001
0000
0000
0000
0010
0000
0000
0000
0000
0000
0100
0000
0000
0000
0000
0000
1000
0000
0000
0000
0000
0000
1000
0000
0000
0010
0000
0000
0100
0000
0000
0000
0000
0000
0002
0000
0000
0000
0000
0000
,
0013
0000
010M
1000
0010
0000
0010
0000
0200
0000
0001
0000
0301
0000
0010
0000
,
0100
0000
0000
0000
1000
0000
0000
0000
0010
0000
0000
0000
0100
0000
0000
0000
0000
0000
0001
0000
0000
0000
0000
0000
0100
0000
0000
0000
0000
0000
0100
0000
0000
0010
0000
0000
1000
0000
0000
0000
0000
0000
0200
0000
0000
0000
0000
0000
,
1300
0000
0M01
0010
0100
0000
1000
0000
0020
0000
1000
0000
1030
0000
0100
0000
,
0044
0000
0033
11MM
,
0001
0000
0010
0001
0100
0000
0010
0000
2000
0000
0100
0000
3100
0000
1000
0000
,
0010
0000
0000
0000
0100
0000
0000
0000
0001
0000
0000
0000
0010
0000
0000
0000
0000
0000
0100
0000
0000
0000
0000
0000
1000
0000
0000
0000
0000
0000
0100
0000
0000
1000
0000
0000
0010
0000
0000
0000
0000
0000
0200
0000
0000
0000
0000
0000
,
0301
0000
0M01
0010
0100
0000
1000
0000
0020
0000
0100
0000
0130
0000
0001
0000
,
0010
0000
0000
0000
0100
0000
0000
0000
1000
0000
0000
0000
0010
0000
0000
0000
0000
0000
0100
0000
0000
0000
0000
0000
0001
0000
0000
0000
0000
0000
0010
0000
0000
0001
0000
0000
0100
0000
0000
0000
0000
0000
0020
0000
0000
0000
0000
0000
,
1030
0000
01M0
0010
0001
0000
0100
0000
0002
0000
0010
0000
0013
0000
0100
0000
,
1000
0000
0000
0000
0010
0000
0000
0000
0100
0000
0000
0000
0001
0000
0000
0000
0000
0000
0010
0000
0000
0000
0000
0000
0001
0000
0000
0000
0000
0000
0001
0000
0000
0100
0000
0000
0010
0000
0000
0000
0000
0000
2000
0000
0000
0000
0000
0000
,
3100
0000
M010
0001
0100
0000
0010
0000
2000
0000
0010
0000
3010
0000
0100
0000
,
0404
0000
0303
1M1M
,
0101
0000
0000
0010
1000
0000
0100
0000
0010
0000
0000
0010
0001
0000
0100
0000
,
0010
0000
0000
1000
0100
0000
1000
0000
0020
0000
0000
0000
0130
0000
0001
0000
,
0010
0000
0000
0100
1000
0000
0010
0000
0100
0000
0000
0100
0001
0000
1000
0000
,
0100
0000
0000
0010
0001
0000
0100
0000
0020
0000
0030
00M0
1000
0000
0100
0000
,
0M01
0000
0010
0000
10M0
0000
0010
1000
0100
0000
1000
0000
0020
0000
0000
0000
,
0130
0000
0001
1000
0001
0010
0001
1000
0001
1000
0010
0100
,
0001
0000
0100
0001
1000
0010
1000
0001
1000
0001
0010
0100
,
4000
0000
3000
0001
0100
0010
1000
0100
,
1000
0010
0200
0000
0000
0302
0000
1003
,
1100
0001
0101
1000
0100
0010
0001
0100
,
0001
0010
0200
0000
0000
2300
0000
3001
,
0101
0000
1000
0000
1100
0000
0001
0010
0001
0000
0100
0000
0020
0000
1030
0100
,
1000
0000
0010
0000
0200
0000
0301
0010
0100
0000
0010
0000
0002
0000
0000
0000
,
1003
0000
0010
0000
2000
0000
3100
1000
0010
0000
0100
0000
0002
0000
0013
0001
,
0100
0000
0010
0000
2000
0000
3100
0010
0100
0000
0010
0000
0002
0000
0000
0000
,
0103
0010
1000
0100
1000
0100
0010
0100
,
0010
0100
0001
0100
0001
0100
0010
0100
,
0010
0100
1000
1000
0010
0010
0100
0100
,
0001
0001
0220
0000
0000
0000
0000
0000
,
0330
0000
0000
0000
1000
0000
0010
1000
0100
0000
0010
0000
0002
0000
0100
0000
,
0103
0000
0000
0000
0000
0000
0001
0000
0000
0000
0000
0000
0010
0000
0000
0000
0100
0000
0000
0000
1000
0000
0000
0000
0010
0000
0000
0000
0000
0000
0100
0000
0000
0000
0000
0000
0001
0000
0000
0000
0000
0000
0100
0000
0000
0001
0000
0000
,
0010
0000
0200
0000
1300
0000
1M00
0010
0100
0000
0001
0000
0020
0000
0100
0000
,
0130
0000
0000
0000
0000
0000
1000
0000
0000
0000
0000
0000
0010
0000
0000
0000
0100
0000
0000
0000
0001
0000
0000
0000
0010
0000
0000
0000
0000
0000
0100
0000
0000
0000
0000
0000
1000
0000
0000
0000
0000
0000
0010
0000
0000
1000
0000
0000
,
0100
0000
0020
0000
0031
0000
01M0
0010
1000
0000
0100
0000
2000
0000
0010
0000
,
3010
0000
0000
0000
0000
0000
0100
0000
0000
0000
0000
0000
0001
0000
0000
0000
0010
0000
0000
0000
0100
0000
0000
0000
1000
0000
0000
0000
0000
0000
0010
0000
0000
0000
0000
0000
1000
0000
0000
0000
0000
0000
1000
0000
0000
0100
0000
0000
,
0010
0000
0002
0000
0103
0000
001M
1000
0100
0000
0010
0000
0002
0000
0010
0000
,
0013
0000
0000
0100
0000
0000
2200
0000
0000
0000
0000
0000
3300
0000
0000
0000
0000
0000
0011
0000
0000
0000
0110
0000
,
0000
0000
0000
0000
0000
1100
0000
0000
0000
0000
0000
0000
0001
0000
0000
0000
0000
0000
0010
0000
0000
0001
0000
0000
0100
0000
0000
0000
0000
0000
0010
0000
0000
0000
0000
0000
2000
0000
0000
0000
0000
0000
0100
0000
0000
0000
0000
0000
,
3100
0000
0000
0000
0000
0000
0001
0000
0000
0000
0000
0000
0100
0000
0000
0000
1000
0000
0000
0000
0010
0000
0000
0000
0100
0000
0000
0000
0000
0000
0001
0000
0000
0000
0000
0000
0010
0000
0000
0000
0000
0000
0010
0000
0000
0001
0000
0000
,
0100
0000
0020
0000
1030
0000
01M0
0010
0001
0000
0100
0000
0020
0000
1000
0000
,
1030
0000
0000
0000
0000
0000
0100
0000
0000
0000
0000
0000
0010
0000
0000
0000
0001
0000
0000
0000
0100
0000
0000
0000
0010
0000
0000
0000
0000
0000
1000
0000
0000
0000
0000
0000
0010
0000
0000
0000
0000
0000
0010
0000
0000
0100
0000
0000
,
0001
0000
0020
0000
0031
0000
01M0
0001
1000
0000
0100
0000
0020
0000
0100
0000
,
0130
0000
0000
0000
0000
0000
1000
0000
0000
0000
0000
0000
0010
0000
0000
0000
0100
0000
0000
0000
0001
0000
0000
0000
0010
0000
0000
0000
0000
0000
0100
0000
0000
0000
0000
0000
0010
0000
0000
0000
0000
0000
0010
0000
0000
0001
0000
0000
,
0100
0000
0020
0000
1030
0000
01M0
1000
0010
0000
0100
0000
0002
0000
0010
0000
,
0013
0100
00M0
0M00
000M
M000
0M00
000M
,
0M00
M000
0001
0100
0010
1010
1000
0100
,
0010
0011
0001
0100
0010
1000
M200
0000
,
1300
0010
0100
0001
0010
1100
0100
1000
,
0010
0101
0001
0010
0100
1000
M020
0000
,
1030
0100
0010
0001
0100
0010
0100
0001
,
0010
0100
1000
0010
0100
0010
20M0
0000
,
3001
0010
0100
1000
0010
0100
0001
0010
,
0100
0000
0000
1000
0000
0000
0000
0000
00M0
0000
0M00
0000
000M
0000
M000
0000
000M
0000
00M0
0000
0M00
0000
00M0
0000
,
1001
0000
0000
0000
1000
0000
0010
1000
0100
0000
0010
0000
0001
0000
0100
0001
,
0010
0000
0100
0000
1000
0000
0010
0100
0001
0000
0010
0000
02M0
0000
0000
0000
,
1300
0000
0010
0000
1000
0000
0000
0001
0100
0000
0010
0000
2000
0000
0000
3200
,
0000
0000
0310
0000
0001
0000
0100
0010
1000
0000
0001
0000
002M
0000
0000
0000
,
0031
0100
0010
2000
3200
0320
0032
0000
,
0203
0320
2030
0000
3200
0320
0230
0000
,
2300
0000
0000
0000
3010
0000
0200
0000
0302
0000
0023
0000
0230
0000
0000
0320
,
0000
0031
0400
0000
0000
0000
0000
0000
,
0300
0000
0000
0000
0011
0000
0001
1000
0001
0000
0100
0000
0010
0000
1000
0100
,
0010
0000
0001
0000
0100
0000
0001
0010
0001
0000
1000
0000
M020
0000
0000
0000
,
0130
0000
0001
0000
1000
0000
0002
0000
0023
0000
0230
0000
2300
0000
0000
3020
,
0000
0130
0001
0010
0100
1000
M020
0000
,
1030
0100
0010
0002
0203
0320
2030
0000
,
3010
1000
0200
0000
0310
0001
0200
0000
,
0320
0000
0000
0000
1030
0000
0002
0000
0023
0000
0230
0000
2300
0000
0000
3020
,
0000
0000
0130
0000
0101
0000
0001
0010
0001
0000
1000
0001
1000
0000
0010
0000
,
0200
0000
0000
0000
0301
0000
0010
0100
0010
0000
0100
1000
0100
0000
0100
0000
,
1000
0000
1000
0000
0010
0000
0010
0100
0001
0000
1000
0100
1000
0000
1000
0000
,
0010
0010
0100
0100
0001
0001
1000
1000
,
0100
0000
0100
0000
0010
0000
0010
0000
0001
1000
0001
0000
0100
0000
0100
0000
,
0001
0010
0100
1000
0010
M00M
0010
0001
0100
0000
0010
0000
2000
0000
0100
0000
,
3100
0000
0000
0000
0000
0000
1000
0000
0000
0000
0000
0000
0010
0000
0000
0000
0100
0000
0000
0000
0001
0000
0000
0000
0010
0000
0000
0000
0000
0000
0100
0000
0000
0000
0000
0000
1000
0000
0000
0000
0000
0000
0100
0000
0000
1000
0000
0000
,
0010
0000
0200
0000
0301
0000
0M01
0010
0100
0000
1000
0000
0020
0000
0100
0000
,
0130
0000
0000
0000
0000
0000
0001
0000
0000
0000
0000
0000
0010
0000
0000
0000
0100
0000
0000
0000
1000
0000
0000
0000
0010
0000
0000
0000
0000
0000
0100
0000
0000
0000
0000
0000
0001
0000
0000
0000
0000
0000
0010
0000
0000
0001
0000
0000
,
0100
0000
0020
0000
1030
0000
01M0
0010
0001
0000
0100
0000
0002
0000
0010
0000
,
0013
0000
0000
0000
0000
0000
0100
0000
0000
0000
0000
0000
1000
0000
0000
0000
0010
0000
0000
0000
0100
0000
0000
0000
0001
0000
0000
0000
0000
0000
0010
0000
0000
0000
0000
0000
0001
0000
0000
0000
0000
0000
0001
0000
0000
0100
0000
0000
,
0010
0000
2000
0000
3100
0000
M010
0001
0100
0000
0010
0000
2000
0000
0010
0000
,
3010
0100
2002
0000
0000
0000
0000
0000
,
3003
M00M
0000
0000
0000
0000
0000
0000
;
