#TITLE:Just Follow The Rainbow Road;
#SUBTITLE:;
#ARTIST:viewtifulday;
#TITLETRANSLIT:;
#SUBTITLETRANSLIT:;
#ARTISTTRANSLIT:;
#GENRE:;
#CREDIT:;
#BANNER:justfollowtherainbowroad-bn.png;
#BACKGROUND:justfollowtherainbowroad-bg.png;
#LYRICSPATH:;
#CDTITLE:;
#MUSIC:viewtifulday - Just Follow The Rainbow Road.mp3;
#OFFSET:-0.030;
#SAMPLESTART:34.470;
#SAMPLELENGTH:12.000;
#SELECTABLE:YES;
#BPMS:0.000=167.000;
#STOPS:;
#BGCHANGES:;
#KEYSOUNDS:;

//---------------dance-single - C.Sanabria----------------
#NOTES:
     dance-single:
     C.Sanabria:
     Challenge:
     9:
     0.876,0.869,0.277,1.000,0.154:
0000
0000
0000
0000
,
0000
0000
0000
0000
,
0000
0000
0000
0000
,
0000
0000
0000
0000
,
2000
3000
0000
0020
0030
0000
0200
0300
,
0000
0002
0003
0000
0020
0030
0020
0030
,
0002
0003
0000
0200
0300
0000
0020
0030
,
0000
2000
3000
0000
2002
3003
0220
0330
,
1000
0100
1100
1000
0001
0100
0101
0001
,
1000
0010
1010
1000
0001
0010
0011
0001
,
1000
0100
1100
1000
0100
0010
0110
0100
,
0010
0001
0011
0010
0001
1000
1001
0001
,
1000
0010
1010
1000
0010
0100
0110
0010
,
0100
0001
0101
0100
0001
1000
1001
0001
,
0010
0100
1100
1000
0010
0100
0101
0001
,
0010
0100
0M00
0100
1000
1000
0000
0001
,
0002
0000
0000
1003
0020
0000
0130
0002
,
0000
0000
0000
0000
0000
0000
0000
0000
0000
0000
0000
0000
0000
0000
1003
0100
,
0020
0000
0000
0130
2000
0000
3001
0020
,
0000
0000
0000
0031
2000
0000
3002
0000
,
2003
3000
M000
0020
0030
00M0
0200
0300
,
0M00
0002
0003
000M
2000
3000
2000
3000
,
0002
0003
000M
0020
0030
00M0
0200
0300
,
0M00
2000
3000
M000
0002
0003
2000
3001
,
1000
0100
0010
0M02
20M3
3001
0M20
M230
,
1300
0000
0001
0000
0100
0000
0010
0000
1000
0000
0010
0000
0100
0000
0001
1000
,
0001
0010
0100
20M0
302M
0130
M002
02M3
,
0310
1000
0001
0M20
023M
1300
0001
1000
,
0010
0100
0001
2M00
320M
1300
00M2
M023
,
0031
1000
0010
0100
0001
0100
0010
1000
,
0M02
0013
0100
1000
0001
1000
0100
0010
,
0001
0100
0010
1000
0001
1000
0010
0100
,
0101
M0M0
1010
200M
3M02
0013
M002
2M03
,
3010
0100
0001
2M00
32M0
0310
M002
02M3
,
0301
0000
1000
0010
1000
0000
0001
0100
00M2
0000
0000
0023
0000
0000
M230
0000
,
2300
0000
3001
0100
0001
0000
2M00
0000
32M0
0000
1300
0001
1000
0000
0010
0000
,
0200
0301
1000
0400
0000
1300
0001
0100
,
0010
0000
1000
0000
0001
0000
1000
0000
0010
0000
0000
0100
0000
0000
0001
0000
,
1000
0100
1100
1000
0001
0100
0101
0001
,
1000
0010
1010
1000
0001
0010
0011
0001
,
0100
0010
1000
M002
2M03
3010
200M
3M02
,
0013
0100
1000
0M02
02M3
0310
200M
32M0
,
1300
0000
0001
0010
0001
0000
1000
0100
20M0
0000
0000
3020
0000
0000
023M
0000
,
0302
0000
1003
0100
1000
0000
0M02
0000
02M3
0000
0301
1000
0001
0000
0010
0000
,
0200
1300
0001
0100
0010
1000
0001
0100
,
0010
0000
1000
0000
0001
0000
1000
0000
0010
0000
0000
0100
0000
0000
0001
0000
,
1000
0100
1100
1000
0001
0100
0101
0001
,
1000
0010
1010
1000
0001
0010
0011
0001
,
1000
0010
1000
0000
0001
0000
0100
0000
0010
1000
0010
0000
0100
0000
0001
0000
,
1000
0100
1000
0000
0001
0000
0010
0000
0100
1000
0100
0000
0010
0000
0001
0000
,
1000
0000
0001
0100
0001
0000
1000
0000
0010
0100
0010
0000
1000
0000
0001
0010
,
0001
0000
0010
0000
0100
1000
0100
0000
1000
0001
1000
0000
0001
1000
0001
0000
,
1000
0100
0010
0M02
20M3
3001
0M20
M230
,
1300
0000
0001
0000
0100
0000
0010
0000
1000
0000
0010
0000
0100
0000
0001
1000
,
0001
0010
0100
20M0
302M
0130
M002
02M3
,
0310
1000
0001
0M20
023M
1300
0001
1000
,
0010
0100
0001
2M00
320M
1300
00M2
M023
,
0031
1000
0010
0100
0001
0100
0010
1000
,
0M02
0013
0100
1000
0001
1000
0100
0010
,
0001
0100
0010
1000
0001
1000
0010
0100
,
0001
0100
0010
2M00
30M2
1003
0M20
023M
,
0301
0000
1000
0000
0100
0000
0010
0000
0001
0000
0010
0000
0100
0000
1000
0001
,
1000
0010
0100
00M2
M023
0130
200M
32M0
,
0310
0001
1000
0M20
M230
0301
1000
0001
,
0010
0100
1000
0M02
M203
0301
20M0
302M
,
1030
0001
0010
0100
1000
0100
0010
0001
,
2M00
3010
0100
0001
1000
0001
0100
0010
,
1000
0100
0010
0001
1000
0001
0010
0100
,
1100
00MM
0011
M002
2M03
3010
200M
3M02
,
0013
0100
1000
0M02
02M3
0310
200M
32M0
,
1300
0000
0001
0010
0001
0000
1000
0100
20M0
0000
0000
3020
0000
0000
023M
0000
,
0302
0000
1003
0100
1000
0000
0M02
0000
02M3
0000
0301
1000
0001
0000
0010
0000
,
0200
1300
0001
0400
0000
0301
1000
0100
,
0010
0000
0001
0000
1000
0000
0001
0000
0010
0000
0000
0100
0000
0000
1000
0000
,
0001
0100
0101
0001
1000
0100
1100
1000
,
0001
0010
0011
0001
1000
0010
1010
1000
,
0100
0010
0001
200M
3M02
0013
M002
2M03
,
3010
0100
0001
2M00
32M0
0310
M002
02M3
,
0301
0000
1000
0010
1000
0000
0001
0100
00M2
0000
0000
0023
0000
0000
M230
0000
,
2300
0000
3001
0100
0001
0000
2M00
0000
32M0
0000
1300
0001
1000
0000
0010
0000
,
0200
0301
1000
0100
0010
0001
1000
0100
,
0010
0000
0001
0000
1000
0000
0001
0000
0010
0000
0000
0100
0000
0000
1000
0000
,
0001
0100
0101
0001
1000
0100
1100
1000
,
0001
0000
0010
0000
0011
0000
0001
0000
1000
0000
0010
0000
00M0
0000
0010
2000
,
0002
0000
0000
0000
,
0000
0000
0000
0000
,
0000
0000
0000
0000
,
0000
0000
0000
0000
,
3003
0000
0000
0000
;
