#TITLE:Jetstingren Stage;
#SUBTITLE:[Megaman X4];
#ARTIST:Kissing the Mirror;
#TITLETRANSLIT:;
#SUBTITLETRANSLIT:;
#ARTISTTRANSLIT:;
#GENRE:;
#CREDIT:;
#BANNER:jetstingrenstage-bn.png;
#BACKGROUND:jetstingrenstage-bg.png;
#LYRICSPATH:;
#CDTITLE:;
#MUSIC:Kissing the Mirror - Jetstingren Stage.ogg;
#OFFSET:-10.220;
#SAMPLESTART:23.090;
#SAMPLELENGTH:12.000;
#SELECTABLE:YES;
#BPMS:0.000=167.000;
#STOPS:;
#BGCHANGES:;
#KEYSOUNDS:;

//---------------dance-single - C.Sanabria----------------
#NOTES:
     dance-single:
     C.Sanabria:
     Challenge:
     12:
     0.284,0.277,0.018,0.269,0.291:
1000
0010
1000
0010
1000
0010
1000
0010
1000
0010
1000
0010
1000
0010
1000
0010
,
0100
0001
0100
0001
0100
0001
0100
0001
0100
0001
0100
0001
0100
0001
0100
0001
,
1000
0100
1000
0100
1000
0100
1000
0100
1000
0100
1000
0100
1000
0100
1000
0100
,
0010
0001
0010
0001
0010
0001
0010
0001
0010
0001
0010
0001
0010
0001
0010
0001
,
1000
0000
0010
1000
0001
0000
0100
0000
0001
0000
1000
0100
1000
0000
0010
0000
,
0100
0000
0001
1000
0010
0000
1000
0000
0001
0000
0010
0001
0010
0000
0100
0000
,
1000
0000
0010
1000
0001
0000
0100
0000
0010
0000
1000
0100
1000
0000
0010
0000
,
0100
0000
0001
1000
0010
0000
0100
0000
0001
0000
1000
0100
1000
0000
0010
0000
,
0100
0001
1000
0010
1000
0001
0100
0001
1000
0100
0010
0001
1000
0100
0010
0100
,
2000
0000
0000
0000
0000
0000
3010
0100
0002
0000
0000
0000
0000
0000
0000
0000
,
0000
0023
0230
2300
0000
3020
0230
0000
,
0302
0000
0000
0203
0000
0000
0310
0000
2000
0000
0000
3200
0000
0000
0310
0000
,
0002
0000
0000
1003
0020
0000
0000
0000
,
2030
0000
0000
0000
0000
0000
3100
0010
0002
0000
0000
0000
0000
0000
0000
0000
,
0000
2003
3200
0320
0000
0031
2000
0000
,
3020
0000
0000
0230
0000
0000
0301
0000
0020
0000
0230
0000
2300
0000
3001
0000
,
0001
0000
1000
0010
0M00
0010
1000
0000
0001
0000
1000
0100
0010
0001
1000
0010
,
1000
0020
0230
0302
0023
0032
0000
1003
,
0020
0000
0230
0000
0302
0000
0023
0000
0130
0000
1000
0001
1000
0000
0010
0000
,
0100
0002
0023
0230
2300
3020
0000
1030
,
0200
0000
1300
0002
0000
0103
0010
1000
,
0001
2000
3020
0230
0302
0023
0000
0130
,
2000
3020
0230
0302
0000
0203
0320
2030
,
3001
0010
0001
0200
0000
0310
1000
0001
,
1000
0100
0010
0001
1000
0100
0010
0001
1000
0010
0100
0001
1000
0001
1000
0000
,
0100
0000
1000
0001
1000
0000
0010
0000
0100
0000
0001
1000
0010
0100
0010
0000
,
1000
0000
0001
1000
0001
0000
0200
0000
0000
0000
0301
1000
0001
1000
0001
1000
,
0010
0000
0100
0010
1000
0001
1000
0000
0020
0000
0000
0000
0230
0000
0000
0000
,
0301
1000
0001
0010
0100
1000
0001
0010
0100
1000
0001
1000
0010
0100
0001
1000
,
0001
0100
0010
1000
0001
1000
0001
1000
0200
0000
0000
0000
0320
0000
0000
0000
,
0031
0100
0010
1000
0001
0000
0020
0000
0000
0000
0000
0000
0130
0000
2000
0000
,
0000
0001
0000
0001
0000
0001
0000
3001
,
1000
0000
0010
0000
0100
0000
0001
0000
1000
0100
0010
0001
1000
0010
0100
0001
,
1000
0100
1000
0100
1000
0100
1000
0100
1000
0100
1000
0100
1000
0100
1000
0100
,
0010
0001
0010
0001
0010
0001
0010
0001
0010
0001
0010
0001
0010
0001
0010
0001
,
1000
0010
1000
0010
1000
0010
1000
0010
1000
0010
1000
0010
1000
0010
1000
0010
,
0100
0001
0100
0001
0100
0001
0100
0001
0100
0001
0100
0001
0100
0001
0100
0001
,
2000
0000
0000
0000
0000
0000
3010
0200
,
0000
0000
0000
0000
0000
0000
0301
0020
,
0000
0000
0000
0000
0000
0000
0130
2000
,
0000
0001
0001
0001
,
3001
0100
0010
1000
0001
0100
0010
1000
0001
0010
0001
0010
0100
1000
0001
1000
,
0002
0000
0000
0000
0000
0000
0013
0100
2000
0000
0000
0000
0000
0000
0000
0000
,
0000
3020
0230
0302
0000
0023
0230
0000
,
2300
0000
0000
3200
0000
0000
0310
0000
0002
0000
0000
0203
0000
0000
0310
0000
,
2000
0000
0000
3001
0020
0000
0000
0000
,
0032
0000
0000
0000
0000
0000
0103
0010
2000
0000
0000
0000
0000
0000
0000
0000
,
0000
3002
0203
0320
0000
1030
0002
0000
,
0023
0000
0000
0230
0000
0000
1300
0000
0020
0000
0230
0000
0320
0000
1030
0000
,
1000
0000
0001
0010
0M00
0010
0001
0000
1000
0000
0001
0100
0010
1000
0001
0010
,
0001
0020
0230
2300
3020
2030
0000
3001
,
0020
0000
0230
0000
2300
0000
3020
0000
0130
0000
0001
1000
0001
0000
0010
0000
,
0100
2000
3020
0230
0302
0023
0000
0031
,
0200
0000
0301
2000
0000
3100
0010
0001
,
1000
0002
0023
0230
2300
3020
0000
0130
,
0002
0023
0230
2300
0000
3200
0320
0032
,
1003
0010
1000
0200
0000
0310
0001
1000
,
0001
0010
0001
0000
1000
0001
0100
0000
0010
1000
0001
0000
1000
0001
0100
0010
,
1000
0000
0001
1000
0001
0000
0010
0000
0100
0000
1000
0001
0010
0100
0010
0000
,
0001
0000
1000
0001
1000
0000
0200
0000
0000
0000
1300
0001
1000
0001
1000
0001
,
0010
0000
0100
0010
0001
1000
0001
0000
0020
0000
0000
0000
0230
0000
0000
0000
,
1300
0001
1000
0010
0100
0001
1000
0010
0100
0001
1000
0001
0010
0100
1000
0001
,
1000
0100
0010
0001
1000
0001
1000
0001
0200
0000
0000
0000
0320
0000
0000
0000
,
2030
0000
0000
3020
0000
0000
0130
0002
,
0000
1000
0000
1000
0000
1000
0000
1003
,
0001
0000
0010
0000
0100
0000
1000
0000
0001
0100
0010
1000
0001
0010
0100
1000
,
0001
0100
0001
0100
0001
0100
0001
0100
0001
0100
0001
0100
0001
0100
0001
0100
,
0010
1000
0010
1000
0010
1000
0010
1000
0010
1000
0010
1000
0010
1000
0010
1000
,
0001
0010
0001
0010
0001
0010
0001
0010
0001
0010
0001
0010
0001
0010
0001
0010
,
0100
1000
0100
1000
0100
1000
0100
1000
0100
1000
0100
1000
0100
1000
0100
1000
,
0001
0000
0010
0001
1000
0000
0010
0000
0100
0001
0100
0000
0010
0000
2000
0000
,
0000
0000
3010
1000
0001
0000
0100
0000
0010
1000
0010
0000
0100
0000
0002
0000
,
0000
0000
0013
0001
1000
0000
0010
0000
0100
0001
0100
0000
0010
0000
2000
0000
,
0000
0000
3010
1000
0001
0000
0100
0000
0010
0000
1000
0001
1000
0000
0010
0000
,
M101
0000
0000
011M
0000
0000
1M10
0000
1000
0001
1000
0001
1000
0000
0100
0000
,
0010
0001
1000
0100
0010
0100
1000
0001
0010
0001
1000
0100
0010
0100
1000
0001
,
0010
0001
1000
0100
0010
0100
1000
0001
0010
0001
1000
0100
0010
0100
1000
0001
,
1000
0010
0100
0001
1000
0001
0100
0010
1000
0001
0100
0010
1000
0001
0100
0010
,
1000
0100
1000
0001
0010
0100
1000
0001
1000
0010
0100
0001
1000
0010
0100
0001
,
0010
0001
1000
0100
0010
0100
1000
0001
0010
0001
1000
0100
0010
0100
1000
0001
,
0010
0001
1000
0100
0010
0100
1000
0001
0010
0001
1000
0100
0010
0100
1000
0001
,
1000
0010
0100
0001
1000
0001
0100
0010
1000
0001
0100
0010
1000
0001
0100
0010
,
1000
0100
1000
0001
0010
0100
1000
0001
1000
0010
0100
0001
1000
0010
0100
0001
,
1000
0000
0001
1000
0010
0000
0200
0000
M000
0000
0302
0000
00M0
0000
0013
0000
,
0100
0000
0010
0001
1000
0000
0020
0000
0M00
0000
0130
0000
0001
1000
0001
0000
,
0010
0000
0100
1000
0001
0000
0200
0000
00M0
0000
0320
0000
M000
0000
1030
0000
,
0100
1000
0001
1000
0001
0000
0200
0000
0000
0000
0310
0000
1000
0001
1000
0000
,
0100
0000
0010
0001
M000
0001
0010
0000
0100
0000
1000
0000
0001
0100
0001
0000
,
0100
0010
1000
0001
1000
0000
0100
0000
0010
0000
0001
1000
00M0
1000
0001
0000
,
01M0
0000
0000
M010
0000
0000
200M
0000
00M1
0000
0000
0M01
0000
0000
30M1
0000
,
1000
0010
0100
0001
1000
0010
0100
0001
1000
0100
1000
0100
0010
0001
0010
0001
,
2000
0000
0000
0000
0000
0000
3010
0100
0002
0000
0000
0000
0000
0000
0000
0000
,
0000
0023
0230
2300
0000
3020
0230
0000
,
0302
0000
0000
0203
0000
0000
0310
0000
2000
0000
0000
3200
0000
0000
0310
0000
,
0001
0000
0000
01M1
0000
0000
01M1
0000
1000
0000
0000
1M10
0000
0000
1M10
0000
,
2000
0000
0000
0000
0000
0000
3100
0010
0002
0000
0000
0000
0000
0000
0000
0000
,
0000
2003
3200
0320
0000
0031
2000
0000
,
3020
0000
0000
0230
0000
0000
0301
0000
0020
0000
0230
0000
2300
0000
3002
0000
,
1003
0000
0000
1M10
0000
0000
10M1
0000
0001
0000
0000
0M11
0000
0000
10M1
0000
,
1000
0020
0230
0302
0023
0032
0000
1003
,
0020
0000
0230
0000
0302
0000
0023
0000
0130
0000
1000
0001
1000
0000
0010
0000
,
0100
0002
0023
0230
2300
3020
0000
1030
,
0200
0000
1300
0002
0000
0103
0010
1000
,
0001
0000
2000
0000
3010
0100
0001
1000
0002
0000
0013
0100
1000
0001
1000
0001
,
2000
3020
0230
0302
0000
0203
0320
2030
,
3001
0010
0001
0200
0000
0310
1000
0001
,
1000
0000
0000
1010
0000
0000
0110
0000
0001
0000
0010
0100
1000
0001
1000
0000
,
0001
0000
1000
0001
1000
0000
0010
0000
0100
0000
0001
1000
0010
0100
0010
0000
,
1000
0000
0001
1000
0001
0000
0200
0000
0000
0000
0301
1000
0001
1000
0001
1000
,
0010
0000
0100
0010
1000
0001
1000
0000
0020
0000
0000
0000
0230
0000
0000
0000
,
0301
1000
0001
0010
0100
1000
0001
0010
0100
1000
0001
1000
0010
0100
0001
1000
,
0001
0100
0010
1000
0001
1000
0001
1000
0200
0000
0000
0000
0320
0000
0000
0000
,
0031
0100
0010
1000
0001
0000
0020
0000
0000
0000
0000
0000
0130
0000
2000
0000
,
0000
0001
0000
0001
0000
0001
0000
3001
,
1000
0010
1000
0000
0001
0100
0001
0000
1000
0100
0010
0001
1000
0100
0010
0001
,
1000
0100
1000
0001
0010
0001
1000
0010
0100
0001
1000
0001
0010
0100
1000
0001
,
1000
0100
1000
0001
0010
0001
1000
0010
0100
0001
0100
0010
1000
0001
1000
0001
,
1000
0100
1000
0001
0010
0001
1000
0010
0100
0001
1000
0001
0010
0100
1000
0001
,
1000
0100
1000
0001
0010
0001
1000
0010
0100
0001
0100
0010
1000
0001
1000
0001
,
1000
0010
1000
0010
0100
0001
0100
0001
1000
0100
1000
0100
0010
0001
0010
0001
,
1000
0010
0100
0001
1000
0010
0100
0001
1000
0100
0010
0001
1000
0100
0010
0001
,
1000
0010
0100
0001
0010
0001
1000
0010
0100
0001
0010
0001
0100
0010
1000
0001
,
1000
0000
0100
0010
0000
M001
0000
10M0
0000
0M01
0000
0010
0100
1000
0001
1000
,
00M2
0000
0000
0003
;
