#TITLE:In For The Kill;
#SUBTITLE:(Subsonik DnB Remix);
#ARTIST:La Roux;
#TITLETRANSLIT:;
#SUBTITLETRANSLIT:;
#ARTISTTRANSLIT:;
#GENRE:;
#CREDIT:;
#BANNER:inforthekill-bn.png;
#BACKGROUND:inforthekill-bg.png;
#LYRICSPATH:;
#CDTITLE:;
#MUSIC:La Roux - In For The Kill (Subsonik DnB Remix).ogg;
#OFFSET:-0.140;
#SAMPLESTART:76.510;
#SAMPLELENGTH:12.000;
#SELECTABLE:YES;
#BPMS:0.000=176.000;
#STOPS:;
#BGCHANGES:;
#KEYSOUNDS:;

//---------------dance-single - C.Sanabria----------------
#NOTES:
     dance-single:
     C.Sanabria:
     Challenge:
     13:
     0.915,1.000,0.156,0.563,0.787:
0000
0000
0000
0000
,
0000
0000
0000
0000
,
0000
0000
0000
0000
,
0000
0000
0000
0000
,
0000
0000
0000
0000
,
0000
0000
0000
0000
,
0000
0000
0000
0000
,
0000
0000
0000
0000
,
0000
0000
0000
0000
0000
0000
0000
2000
,
3020
0230
0302
0000
0023
0000
0130
2000
,
0000
0000
0000
0000
0000
0000
0000
3002
,
0203
0320
2030
0000
3200
0000
0310
0002
,
0000
0000
0000
0000
0000
1003
0020
0000
,
0230
0302
2003
0000
3200
0000
0310
0002
,
0000
0000
0000
0000
,
0000
2003
3020
0230
0302
2003
3002
0000
,
2003
0000
0000
0000
,
0000
0000
0000
3020
,
0230
0000
0000
0000
,
0000
0000
0000
0000
,
0302
0000
0000
0000
,
0000
0000
0000
0023
,
0230
0000
0000
0000
,
0000
0000
0000
0000
,
1300
0010
1000
0001
00M0
1001
1000
0010
,
0100
0001
1000
0001
0010
0100
0010
0001
,
1000
0010
0100
0002
M000
0013
0100
1000
,
0010
0100
0010
0100
0001
0010
0001
0010
,
0100
1000
0010
1000
0000
1001
0001
0010
,
0001
2000
0010
3010
100M
0002
0100
0103
,
M010
1000
0100
0010
00M0
0010
0100
1000
,
0001
0100
0010
1000
0010
0100
0001
00M0
,
1001
0001
1000
0020
0000
1030
0001
0100
,
0010
1000
0001
1000
0100
0010
0100
1000
,
0001
0100
0010
2000
0000
3100
0010
0001
,
0100
0010
0100
0010
1000
0100
1000
0100
,
0010
0001
0100
0010
0000
1010
0010
1000
,
0001
2000
0100
3100
100M
0002
0010
0013
,
M100
1000
0010
0100
0M00
0100
0010
1000
,
0001
0010
0100
1000
0100
0010
0001
0M00
,
1001
0000
1000
0000
0100
0000
1000
0010
1000
0000
0010
0000
0100
0000
0001
0000
,
1000
0010
4000
0000
3001
0100
0004
0000
,
1003
0000
0001
0000
0100
0000
0010
1000
0010
0000
0100
0000
0010
0000
1000
0000
,
0001
0100
0040
0000
1030
0100
0040
0000
,
0031
0000
0100
0000
0010
0000
1000
0100
1000
0000
0001
0000
0100
0000
0010
0000
,
1000
0100
4000
0000
3001
0010
0004
0000
,
1003
0010
1000
0002
0000
0013
0100
1000
,
0010
0100
0010
0100
0001
1000
0001
0MM0
,
1001
0001
0100
0020
0000
1030
0100
0010
,
0001
0020
0230
2300
3002
0203
0320
1030
,
1010
0010
1000
0002
0000
1003
0010
1000
,
0001
0200
0320
2030
3002
0023
0230
2300
,
3001
0100
0001
0020
0000
0130
0010
0001
,
0100
0010
4000
0000
3100
0010
0004
0000
,
1003
0010
0100
0001
0100
0010
1000
0001
,
0M00
00M0
M000
000M
,
1MM1
1000
0100
0020
0000
0130
1000
0001
,
1000
0000
0010
0100
0001
0000
1000
0000
0001
0010
0001
0000
1000
0000
0100
0000
,
1100
1000
0010
0200
0000
0301
0100
0010
,
1000
0100
1000
0000
0010
0000
0100
0000
0002
0000
0000
0000
0013
0000
0000
0000
,
2100
0000
0000
0000
3001
0000
0100
0000
0M00
0000
0100
0000
0001
0000
1000
0100
,
1000
0000
0010
0000
0100
0000
0001
0000
0010
0000
0001
1000
0001
0000
0100
0000
,
0010
1000
0100
2000
0000
3001
0101
0100
,
0010
0000
1000
0000
0001
0000
0010
0100
1000
0001
1000
0000
1001
0000
0001
0000
,
0100
0010
1000
0020
0000
0130
0001
2000
,
0000
0000
3001
0100
0010
0000
1000
0000
0001
0010
0001
0000
0100
0000
0010
0000
,
1000
0000
0100
0000
1000
0000
0002
0000
0000
0000
0103
0000
0010
0000
1000
0001
,
1000
0000
0001
0000
0100
0000
0010
0100
0001
1000
0001
0000
4001
0000
0000
0000
,
3010
0000
0100
0000
0001
0000
0010
0100
1000
0001
1000
0000
0010
0000
0100
0000
,
0101
0001
1000
0100
0010
0100
2000
0000
,
3010
0100
0001
1000
M000
1000
0001
0100
,
0010
0000
1000
0000
0001
0000
0010
0100
1000
0001
1000
0000
0010
0000
0100
0000
,
0101
0000
0001
0000
1000
0000
0200
0000
0000
0000
0310
0100
1000
0000
0002
0000
,
1003
0000
0010
0000
0100
0000
0001
1000
0001
0000
1000
0000
0100
0010
0001
1000
,
0001
0100
0010
1000
M000
1000
0100
0010
,
0001
0000
1000
0000
0001
0000
0010
0100
1000
0001
1000
0000
1004
0000
0000
0000
,
0013
0100
1000
0002
0000
0103
0101
0001
,
0010
0000
0100
0000
1000
0000
0010
0100
0001
1000
0001
0000
2001
0000
0000
0000
,
3010
0100
0001
1000
0000
1100
1000
0001
,
0010
0000
0100
0000
1000
0000
0010
0100
0001
1000
0001
0000
0010
0000
0100
0000
,
1000
0010
0100
0002
0000
0103
0101
0001
,
0010
0100
1000
0000
0001
0000
1000
0010
1000
0000
0100
0000
0010
0000
0001
0000
,
1000
0001
1001
2000
0000
3100
1100
1000
,
0010
0100
0001
0000
1000
0000
0100
0010
0001
1000
0001
0000
4001
0000
0000
0000
,
3010
0100
0001
1000
M000
1000
0100
0010
,
0001
0100
0001
0000
1000
0000
0010
0100
0001
1000
0001
0000
0010
0000
0100
0000
,
0000
000M
00M0
000M
0000
M000
0M00
M000
,
0000
000M
00M0
000M
0000
0000
0000
0000
,
1000
0100
0010
0100
1000
0001
0100
0010
1000
0010
0100
0001
1000
0100
0010
0100
,
1000
0100
0010
0100
1000
0001
0100
0010
1000
0010
0100
0001
1000
0100
0010
0100
,
1000
0001
1000
0010
0100
0001
0100
0010
1000
0001
1000
0010
0100
0001
0100
0010
,
1000
0001
0010
0100
0010
0001
1000
0010
1000
0001
0010
0100
0010
0001
1000
0010
,
1000
0001
0100
0010
1000
0001
1000
0010
0100
0001
1000
0001
0010
0100
1000
0001
,
1000
0010
0100
0001
1000
0001
0010
0001
1000
0010
0100
0001
1000
0001
0010
0001
,
1000
0100
0010
0100
1000
0001
0010
0100
1000
0100
0010
0100
1000
0001
0010
0100
,
1000
0001
0010
0100
0010
0001
1000
0010
0100
0001
1000
0010
0100
0001
1000
0001
,
1000
0100
0010
0100
1000
0001
0100
0010
1000
0010
0100
0001
1000
0010
0100
0001
,
1000
0001
0010
0100
1000
0001
0100
0010
1000
0010
0100
0001
1000
0100
0010
0100
,
1000
0001
1000
0010
0100
0001
0100
0010
1000
0001
1000
0010
0100
0001
0100
0010
,
1000
0001
0010
0100
0010
0001
1000
0010
1000
0001
0010
0100
0010
0001
1000
0010
,
1000
0001
0100
0010
1000
0001
1000
0010
0100
0001
1000
0001
0010
0100
1000
0001
,
1000
0010
0100
0001
1000
0001
0010
0001
1000
0010
0100
0001
1000
0001
0010
0001
,
1000
0100
0010
0100
1000
0001
0100
0010
1000
0001
0010
0100
1000
0001
0100
0010
,
1000
0001
0010
0100
0010
0001
1000
0010
0100
0001
1000
0010
0100
0001
1000
0001
,
0100
0000
00M0
0M00
000M
M000
0M00
0000
,
00M0
000M
M000
0000
,
00M0
0000
0M00
0000
,
000M
0000
M000
0000
,
00M0
0000
0000
0000
,
0M00
0000
0000
0000
,
000M
0000
0000
0000
,
M000
0000
0000
0000
,
2000
0000
0000
3020
0000
0000
0230
0000
,
0000
0302
0000
0000
2003
0000
3200
0000
,
0320
0000
0000
0000
,
0032
0000
0000
0000
,
2003
0000
0000
0000
,
0000
0000
0000
0000
,
3020
0000
0000
0000
,
0000
0000
0000
0000
,
2030
0000
3000
0000
0000
M000
0000
0000
2000
0000
3000
0000
0000
M000
0000
0000
,
2000
0000
3000
0000
0000
M000
0000
0000
0200
0000
0300
0000
0000
0M00
0000
0000
,
0002
0000
0003
0000
0000
000M
0000
0000
0002
0000
0003
0000
0000
000M
0000
0000
,
0002
0000
0003
0000
0000
000M
0000
0000
0002
0000
0003
0000
0000
000M
0000
0000
,
0020
0000
0030
0000
0000
00M0
0000
0000
0020
0000
0030
0000
0000
00M0
0000
0000
,
0020
0000
0030
0000
0000
00M0
0000
0000
0200
0000
0300
0000
0000
0M00
0000
0000
,
2000
0000
3000
0000
0000
M000
0000
0000
2000
0000
3000
0000
0000
M000
0000
0000
,
2000
0000
3000
0000
0000
M000
0000
0000
2000
0000
3000
0000
0000
M000
0000
0000
,
2000
0000
3000
0M00
0020
0000
0030
000M
0200
0000
0300
M000
0002
0000
0003
00M0
,
2000
0000
3000
0M00
0020
0000
0030
000M
0200
0000
0300
M000
0002
0000
0003
00M0
,
2000
0000
3000
000M
0200
0000
0300
M000
0020
0000
0030
0M00
0002
0000
0003
00M0
,
2000
0000
3000
000M
0200
0000
0300
M000
0020
0000
0030
0M00
0200
0000
0300
00M0
,
2000
3020
2030
3020
0230
0302
0203
0302
,
2003
3200
2300
3200
0320
0032
0023
0032
,
0003
0000
0000
0000
,
0000
0000
0000
0000
,
1000
0010
1000
0001
00M0
1001
1000
0010
,
0100
0001
1000
0001
0010
0100
0010
0001
,
1000
0010
0100
0002
M000
0013
0100
1000
,
0010
0100
0010
0100
0001
0010
0001
0010
,
0100
1000
0010
1000
0000
1001
0001
0010
,
0001
2000
0010
3010
100M
0002
0100
0103
,
M010
1000
0100
0010
00M0
0010
0100
1000
,
0001
0100
0010
1000
0010
0100
0001
00M0
,
1001
0001
1000
0020
0000
1030
0001
0100
,
0010
1000
0001
1000
0100
0010
0100
1000
,
0001
0100
0010
2000
0000
3100
0010
0001
,
0100
0010
0100
0010
1000
0100
1000
0100
,
0010
0001
0100
0010
0000
1010
0010
1000
,
0001
2000
0100
3100
100M
0002
0010
0013
,
M100
1000
0010
0100
0M00
0100
0010
1000
,
0001
0010
0100
1000
0100
0010
0001
0M00
,
1001
0000
1000
0000
0100
0000
1000
0010
1000
0000
0010
0000
0100
0000
0001
0000
,
1000
0010
4000
0000
3001
0100
0004
0000
,
1003
0000
0001
0000
0100
0000
0010
1000
0010
0000
0100
0000
0010
0000
1000
0000
,
0001
0100
0040
0000
1030
0100
0040
0000
,
0031
0000
0100
0000
0010
0000
1000
0100
1000
0000
0001
0000
0100
0000
0010
0000
,
1000
0100
4000
0000
3001
0010
0004
0000
,
1003
0010
1000
0002
0000
0013
0100
1000
,
0010
0100
0010
0100
0001
1000
0001
0MM0
,
1001
0001
0100
0020
0000
1030
0100
0010
,
0001
0020
0230
2300
3002
0203
0320
1030
,
1010
0010
1000
0002
0000
1003
0010
1000
,
0001
0200
0320
2030
3002
0023
0230
2300
,
3001
0100
0001
0020
0000
0130
0010
0001
,
0100
0010
4000
0000
3100
0010
0004
0000
,
1003
0010
0100
0001
0100
0010
1000
0001
,
0000
0000
0000
0000
,
1000
0100
0010
0001
1000
0010
1000
0001
1000
0100
0010
0001
1000
0010
1000
0001
,
1000
0100
0010
0001
1000
0100
1000
0001
1000
0100
0010
0001
1000
0100
1000
0001
,
1000
0010
0100
0001
1000
0100
1000
0001
1000
0010
0100
0001
1000
0010
1000
0001
,
1000
0010
0100
0001
1000
0100
1000
0001
1000
0010
0100
0001
1000
0010
1000
0001
,
1000
0010
0100
0001
1000
0100
0010
0001
1000
0010
0100
0001
1000
0100
0010
0100
,
1000
0001
0100
0010
1000
0001
0010
0001
1000
0001
0100
0010
1000
0001
0010
0100
,
1000
0001
0010
0100
1000
0001
1000
0010
0100
0001
1000
0001
0010
0100
1000
0001
,
1000
0100
0010
0001
1000
0010
0100
0001
1000
0100
0010
0001
1000
0010
1000
0001
,
1000
0010
0100
0001
1000
0100
1000
0001
1000
0010
0100
0001
1000
0100
1000
0001
,
1000
0010
0100
0001
1000
0010
1000
0001
1000
0010
0100
0001
1000
0010
1000
0001
,
1000
0100
0010
0001
1000
0010
1000
0001
1000
0100
0010
0001
1000
0100
1000
0001
,
1000
0100
0010
0001
1000
0010
1000
0001
1000
0100
0010
0001
1000
0100
1000
0001
,
1000
0010
0100
0001
1000
0001
0010
0100
1000
0010
0100
0001
1000
0010
0100
0010
,
1000
0001
0010
0100
1000
0001
0100
0001
1000
0001
0010
0100
1000
0001
0100
0010
,
1000
0001
0100
0010
1000
0001
1000
0100
0010
0001
1000
0001
0100
0010
1000
0001
,
1000
0010
0100
0001
1000
0100
0010
0001
1000
0010
0100
0001
1000
0100
1000
0001
,
1000
0100
0010
0001
1000
0010
1000
0001
1000
0100
0010
0001
1000
0010
1000
0001
,
1000
0100
0010
0001
1000
0100
1000
0001
1000
0100
0010
0001
1000
0100
1000
0001
,
1000
0010
0100
0001
1000
0100
1000
0001
1000
0010
0100
0001
1000
0010
1000
0001
,
1000
0010
0100
0001
1000
0100
1000
0001
1000
0010
0100
0001
1000
0010
1000
0001
,
1000
0100
0010
0001
1000
0100
0010
0100
1000
0100
0010
0001
1000
0100
0010
0100
,
1000
0001
0100
0010
1000
0001
0010
0001
1000
0001
0100
0010
1000
0001
0010
0100
,
1000
0001
0010
0100
1000
0001
1000
0010
0100
0001
1000
0001
0010
0100
1000
0001
,
1000
0100
0010
0001
1000
0010
0100
0001
1000
0100
0010
0001
1000
0010
1000
0001
,
1000
0010
0100
0001
1000
0100
1000
0001
1000
0010
0100
0001
1000
0100
1000
0001
,
1000
0010
0100
0001
1000
0010
1000
0001
1000
0010
0100
0001
1000
0010
1000
0001
,
1000
0100
0010
0001
1000
0010
1000
0001
1000
0100
0010
0001
1000
0100
1000
0001
,
1000
0100
0010
0001
1000
0010
1000
0001
1000
0100
0010
0001
1000
0100
1000
0001
,
1000
0010
0100
0001
1000
0010
0100
0010
1000
0010
0100
0001
1000
0010
0100
0010
,
1000
0001
0010
0100
1000
0001
0100
0001
1000
0001
0010
0100
1000
0001
0100
0010
,
1000
0001
0100
0010
1000
0001
1000
0100
0010
0001
1000
0001
0100
0010
1000
0002
,
0000
0000
0003
M11M
,
1100
0000
1000
0000
0001
0000
0010
0100
1000
0001
1000
0000
1MM1
0000
0001
0000
,
0010
0000
0100
0000
1000
0000
0010
0100
0001
1000
0001
0000
1MM1
0000
1000
0000
,
0100
0000
0010
0000
0001
0000
0100
0010
1000
0001
1000
0000
1MM1
0000
0001
0000
,
1000
0000
0010
0000
0100
0000
0001
1000
0001
0010
0100
0000
11MM
0000
1000
0000
,
0001
0000
0100
0000
0010
0000
0100
0010
1000
0001
1000
0000
1MM1
0000
0001
0000
,
0010
0000
0100
0000
1000
0000
0010
0100
0001
1000
0001
0000
1MM1
0000
1000
0000
,
0001
0000
0100
0000
0010
0000
1000
0100
1000
0100
1000
0000
11MM
0000
0100
0000
,
0010
0000
0001
0000
1000
0000
0001
0100
0001
0100
0001
0000
M1M1
0000
0100
0000
,
0010
1000
0001
0020
0000
0130
2100
0000
,
3010
0100
0001
2000
0000
3001
0021
0000
,
0130
1000
0001
0200
0000
0310
0120
0000
,
1030
0100
0010
0002
0000
1003
1020
0000
,
0130
0001
1000
0200
0000
1300
2100
0000
,
3010
0100
0001
0020
0000
0031
0012
0000
,
1003
0010
0100
0001
0010
0002
2000
0000
,
0000
0000
0000
0000
,
3003
00M0
0M00
000M
,
M000
000M
0M00
00M0
;
