#TITLE:Humanoids;
#SUBTITLE:;
#ARTIST:TVXQ!;
#TITLETRANSLIT:;
#SUBTITLETRANSLIT:;
#ARTISTTRANSLIT:;
#GENRE:;
#CREDIT:;
#BANNER:humanoids-bn.png;
#BACKGROUND:humanoids-bg.png;
#LYRICSPATH:;
#CDTITLE:;
#MUSIC:Humanoids.ogg;
#OFFSET:-0.730;
#SAMPLESTART:75.910;
#SAMPLELENGTH:12.000;
#SELECTABLE:YES;
#BPMS:0.000=120.000;
#STOPS:;
#BGCHANGES:0.000=humanoids-bg.png=1.000=0=0=0=StretchNoLoop====,
22.000=Humanoids.avi=1.000=1=0=1===CrossFade==,
375.500=humanoids-bg.png=1.000=0=0=1=====,
99999=-nosongbg-=1.000=0=0=0 // don't automatically add -songbackground-
;
#KEYSOUNDS:;

//---------------dance-single - C.Sanabria----------------
#NOTES:
     dance-single:
     C.Sanabria:
     Challenge:
     9:
     0.618,0.697,0.058,0.893,0.277:
0000
0000
0000
0000
,
0000
0000
0000
0000
,
0000
0000
0000
0000
,
0000
0000
0000
0000
0000
0000
0000
0000
0000
M000
0000
0000
00M0
0000
0000
0M00
,
0000
0000
000M
0000
0000
M000
0000
0000
0M00
0000
0000
0000
0000
0000
0000
0000
,
0000
0000
0000
0000
0000
0000
0000
0000
00M0
00M0
00M0
00M0
00M0
00M0
00M0
00M0
,
00M0
00M0
00M0
00M0
00M0
00M0
00M0
00M0
00M0
0000
M000
0000
00M0
0000
0M00
0000
,
000M
M000
00M0
0M00
000M
0000
0000
0000
,
0000
0000
0000
0000
,
0000
0000
0000
0000
,
M000
00M0
0M00
000M
M000
00M0
0M00
000M
M000
000M
00M0
0M00
M000
0000
0000
0000
,
000M
0000
M000
0000
,
000M
0000
M000
0000
,
00M0
0000
0M00
0000
,
2001
0000
0000
0000
3001
0000
0010
0100
1000
0000
0001
0010
0100
0000
1000
0001
,
2000
0000
0000
0000
3001
0000
1000
0010
0100
0000
0010
0100
0001
0000
1000
0001
,
2000
0000
0000
0000
3001
0000
0010
0100
1000
0000
0010
1000
0010
0000
1000
0001
,
2000
0000
0000
0000
3001
0000
0100
0010
1000
0000
0001
0010
0001
0000
1000
0000
,
1002
0000
0000
0000
1003
0000
0010
0100
0001
0000
1000
0010
0100
0000
0001
1000
,
0002
0000
0000
0000
1003
0000
0001
0010
0100
0000
0010
0100
1000
0000
0001
1000
,
0002
0000
0000
0000
1003
0000
0010
0100
0001
0000
0010
0001
0010
0000
0001
1000
,
0002
0000
0000
0000
1003
0000
0001
2000
00M0
0000
0M00
0000
000M
0000
00M0
0000
,
3002
0000
1003
0010
2000
0000
3200
0000
,
0320
0000
0000
0000
0031
0000
1000
0000
M000
0000
1001
0000
0MM0
0000
0001
1000
,
0001
1000
0010
0100
0002
0000
0013
0100
,
2000
0000
3010
0200
0000
0302
M023
0230
,
230M
3001
0100
0001
0020
0000
0130
1000
,
0020
0000
0000
0000
0130
0000
0001
0000
000M
0000
1001
0000
0MM0
0000
0001
1000
,
0001
1000
0010
0100
0002
0000
0013
0100
,
1000
0010
0100
0002
0000
2003
3M20
0230
,
M302
0100
2003
0100
3002
0100
2003
0100
,
3001
0100
0001
0000
0100
0010
0100
0000
0010
1000
0010
0000
1000
0001
1000
0001
,
2000
0100
3002
0100
2003
0100
3002
0100
,
1003
0100
1000
0000
0100
0010
0100
0000
0010
0001
0010
0000
0001
1000
0001
1000
,
0002
0100
2003
0010
3002
0100
2003
0010
,
3001
0010
0001
0000
1000
0100
1000
0000
0010
1000
0010
0000
0100
0001
1000
0000
,
0002
0010
2003
0100
3002
0100
2003
0010
,
3001
0000
1000
0001
1000
0000
1MM1
0000
0000
0000
2000
0000
3020
0000
0230
0000
,
0304
0000
0203
0320
4030
0000
3200
0320
,
0034
1000
4003
0001
,
3010
0100
0002
0023
0230
2300
3001
1000
,
0010
0000
0100
0000
0001
0000
1000
0100
1000
0000
0001
0010
0001
0000
1000
0000
,
0004
0000
0203
0320
4030
0000
3200
0320
,
0034
0010
4003
0010
,
3001
0000
1000
0000
0001
0000
1000
0100
0010
0000
0100
0010
0001
0000
0100
0000
,
0001
0010
0100
2000
3020
0230
0302
0000
,
1003
0100
1000
0001
1000
0010
0100
0001
,
1000
0000
0100
0000
1000
0000
0001
0000
2M00
0000
3020
0000
013M
0000
0001
1000
,
0002
0000
1003
0100
1000
0010
0100
0001
,
0010
0001
0100
0010
2M00
30M2
0203
M000
,
0301
0100
0001
1000
0001
0010
0100
1000
,
0001
0000
0100
0000
0001
0000
1000
0000
0M02
0000
0023
0000
M130
0000
1000
0001
,
2000
0000
3001
0100
0001
0010
0100
1000
,
0020
2030
3200
0320
0M32
20M3
3200
000M
,
1300
0001
1000
0001
1000
0000
0010
0000
0100
0000
0001
0000
0010
0000
0001
0000
,
1000
0000
0100
0000
0010
0000
0001
0000
1000
0000
0001
0100
0001
0000
1000
0010
,
2000
0000
0000
3200
0000
0000
0320
0000
0032
0000
0000
0000
0103
0000
0010
0000
,
2000
0000
0000
3200
0000
0000
0320
0000
0031
0000
1000
0010
1000
0000
0001
0100
,
0001
0010
0100
1000
0010
1000
0001
0100
,
0001
0000
0010
0000
0100
0000
1000
0000
0010
0000
1000
0001
1000
0000
0001
1000
,
0001
0020
0230
2300
3002
0000
0103
0010
,
1000
0100
0010
0001
000M
M002
02M3
0320
,
203M
0000
0100
0000
3002
0000
0100
0000
2003
0000
0100
0000
3002
0000
0100
0003
,
1000
0100
1000
0000
0100
0010
0100
0000
0010
0001
0010
0000
0001
1000
0001
1000
,
0002
0100
2003
0100
3002
0100
2003
0100
,
3001
0100
0001
0000
0100
0010
0100
0000
0010
1000
0010
0000
1000
0001
1000
0001
,
2000
0100
3002
0010
2003
0100
3002
0010
,
1003
0010
1000
0000
0001
0100
0001
0000
0010
0001
0010
0000
0100
1000
0001
0000
,
2000
0010
3002
0100
2003
0100
3002
0010
,
1003
0000
0001
1000
0001
0000
1MM1
0000
0000
0000
0002
0000
0023
0000
0230
0000
,
4300
0000
3200
0320
0034
0000
0203
0320
,
4030
0001
3004
1000
,
0013
0100
2000
3020
0230
0302
1003
0001
,
0010
0000
0100
0000
1000
0000
0001
0100
0001
0000
1000
0010
1000
0000
0001
0000
,
4000
0000
3200
0320
0034
0000
0203
0320
,
4030
0010
3004
0010
,
1003
0000
0001
0000
1000
0000
0001
0100
0010
0000
0100
0010
1000
0000
0100
0000
,
0010
0001
1000
0002
0023
0230
2300
3002
,
1003
0000
0010
0000
1000
0000
0001
0100
0001
0000
1000
0100
1000
0000
0001
0100
,
0001
0000
0010
0000
0001
0000
1000
0100
2000
0000
0100
0000
3002
0000
0010
0000
,
1003
0000
0010
0000
1000
0000
0001
0010
0001
0000
1000
0010
1000
0000
0001
0100
,
0001
0000
0010
0000
0001
0000
1000
0010
2000
0000
3200
0000
0320
0000
0000
0000
,
0031
0000
0010
0000
0001
0000
1000
0100
1000
0000
0001
0100
0001
0000
1000
0100
,
1000
0000
0010
0000
1000
0000
0001
0100
0002
0000
0100
0000
2003
0000
0010
0000
,
3001
0100
0002
0023
0230
2300
3002
2003
,
3020
0230
0302
2003
3002
0023
0230
0000
,
1300
0010
1000
0001
10M1
2M02
00M0
3003
,
0001
0010
0001
1000
1M01
20M2
0M00
3003
,
2000
0000
0000
0000
3010
0000
0100
0000
0002
0000
0003
000M
0002
0000
0003
000M
,
0002
0000
0000
0000
0013
0000
0100
0000
2000
0000
3000
M000
2000
0000
3010
0000
,
0100
0002
0023
0230
2300
3001
0100
0010
,
1000
0002
0203
0320
1030
0100
0010
0001
,
20M0
0000
0M20
3000
,
020M
0000
0030
0000
M002
0300
1003
10M1
,
0M00
00M0
0M00
0000
0000
0000
0000
0000
;
