#TITLE:Hookie Mammoth;
#SUBTITLE:;
#ARTIST:Entity & Darwin;
#TITLETRANSLIT:;
#SUBTITLETRANSLIT:;
#ARTISTTRANSLIT:;
#GENRE:;
#CREDIT:;
#BANNER:hookiemammoth-bn.png;
#BACKGROUND:hookiemammoth-bg.png;
#LYRICSPATH:;
#DISPLAYBPM:175.000;
#CDTITLE:;
#MUSIC:Entity & Darwin - Hookie Mammoth.mp3;
#OFFSET:-1.480;
#SAMPLESTART:35.690;
#SAMPLELENGTH:12.000;
#SELECTABLE:YES;
#BPMS:0.000=175.000,100.000=350.000,102.500=175.000,103.000=350.000,103.500=175.000,108.000=350.000,110.500=175.000,111.000=350.000,111.500=175.000,116.000=350.000,118.500=175.000,119.000=350.000,119.500=175.000,120.000=350.000,124.000=175.000,240.000=350.000,252.000=175.000,260.000=350.000,263.000=175.000,268.000=350.000,270.500=175.000,276.000=350.000,278.500=175.000,279.000=350.000,279.500=175.000,292.000=350.000,294.500=175.000,295.000=350.000,295.500=175.000,300.000=350.000,302.500=175.000,303.000=350.000,303.500=175.000;
#STOPS:100.000=0.086
,100.500=0.086
,101.000=0.086
,101.500=0.086
,102.000=0.086
,103.000=0.086
,108.000=0.086
,108.500=0.086
,109.000=0.086
,109.500=0.086
,110.000=0.086
,111.000=0.086
,116.000=0.086
,116.500=0.086
,117.000=0.086
,117.500=0.086
,118.000=0.086
,119.000=0.086
,120.000=0.086
,120.500=0.086
,121.000=0.086
,121.500=0.086
,122.000=0.086
,122.500=0.086
,123.000=0.086
,123.500=0.086
,240.000=0.086
,240.500=0.086
,241.000=0.086
,241.500=0.086
,242.000=0.086
,242.500=0.086
,243.000=0.086
,243.500=0.086
,244.000=0.086
,244.500=0.086
,245.000=0.086
,245.500=0.086
,246.000=0.086
,246.500=0.086
,247.000=0.086
,247.500=0.086
,248.000=0.043
,248.250=0.043
,248.500=0.043
,248.750=0.043
,249.000=0.043
,249.250=0.043
,249.500=0.043
,249.750=0.043
,250.000=0.043
,250.250=0.043
,250.500=0.043
,250.750=0.043
,251.000=0.043
,251.250=0.043
,251.500=0.043
,251.750=0.043
,260.000=0.086
,260.500=0.086
,261.000=0.086
,261.500=0.086
,262.000=0.086
,262.500=0.086
,268.000=0.086
,268.500=0.086
,269.000=0.086
,269.500=0.086
,270.000=0.086
,276.000=0.086
,276.500=0.086
,277.000=0.086
,277.500=0.086
,278.000=0.086
,279.000=0.086
,292.000=0.086
,292.500=0.086
,293.000=0.086
,293.500=0.086
,294.000=0.086
,295.000=0.086
,300.000=0.086
,300.500=0.086
,301.000=0.086
,301.500=0.086
,302.000=0.086
,303.000=0.086
;
#BGCHANGES:;
#KEYSOUNDS:;

//---------------dance-single - C.Sanabria----------------
#NOTES:
     dance-single:
     C.Sanabria:
     Challenge:
     11:
     0.958,1.000,0.107,0.595,0.981:
0000
0000
0000
0000
,
0000
0000
0000
0000
,
0000
0000
0000
0000
,
0000
0000
0000
0000
,
0020
0000
1030
0001
0100
0000
0001
1000
0001
0000
0000
0010
0000
0000
0100
0000
,
0020
0000
0031
1000
0100
0000
1000
0001
1000
0000
0000
0010
0000
0000
0100
0000
,
0002
0000
0013
0100
1000
0000
0010
1000
0001
0000
0000
0100
0000
0000
0010
0000
,
1000
0100
1000
0001
0010
0001
1000
0010
1000
0001
0100
0001
,
0101
0000
0100
0001
0100
0001
1000
0000
0100
0000
0010
0001
1000
0000
0100
0000
,
1000
0000
0010
0100
0001
1000
0001
0000
0010
0000
0100
1000
0010
0000
0100
0000
,
0010
0000
1000
0100
0010
0001
1000
0000
0010
0000
0100
0001
0010
0000
0100
0000
,
1000
0000
0010
0100
0001
1000
0001
0000
0010
0000
0100
1000
0001
0000
1000
0000
,
0010
0100
0001
1000
0001
0100
0010
1000
0001
0000
0010
0100
1000
0000
0001
0000
,
0100
0010
1000
0001
1000
0010
0100
0001
1000
0000
0100
0010
0001
0000
0100
0000
,
0010
1000
0001
0010
0001
1000
0010
1000
0100
0000
0010
0001
1000
0000
0010
0000
,
0110
0000
0100
0001
0000
1000
0100
0010
0001
0100
0010
1000
,
1001
0000
0000
0000
1000
0000
0100
0000
0010
0000
0001
0000
0100
0000
0001
0000
2000
0000
0000
0M00
0000
0000
3020
0000
0000
000M
0000
0000
0130
0000
M000
0000
,
0101
0000
0000
0000
0001
0000
0010
0000
0100
0000
1000
0000
0010
0000
1000
0000
0002
0000
0000
00M0
0000
0000
0203
0000
0000
M000
0000
0000
0310
0000
000M
0000
,
1010
0000
0000
0000
1000
0000
0100
0000
0010
0000
0100
0000
1000
0000
0010
0000
2000
0000
0000
000M
0000
0000
3200
0000
0000
00M0
0000
0000
0310
0000
M000
0000
,
0011
0000
0000
0000
0001
0000
0100
0000
0010
0000
0100
0000
0001
0000
0010
0000
0002
0000
0000
0M00
0000
0000
0023
0000
0000
M000
0000
0000
0130
0000
000M
0000
,
1000
0000
0010
0000
0100
0000
0001
0000
0010
0000
0001
0000
1000
0000
0100
0000
0020
0000
0000
M000
0000
0000
0230
0000
0000
000M
0000
0000
2300
0000
00M0
0000
,
3001
0000
0100
0000
0010
0000
1000
0000
0100
0000
1000
0000
0001
0000
0010
0000
0200
0000
0000
M000
0000
0000
0320
0000
0000
000M
0000
0000
0032
0000
0M00
0000
,
1003
0000
0010
0000
0100
0000
0001
0000
1000
0000
0010
0000
0100
0000
0001
0000
2000
0000
0000
00M0
0000
0000
3200
0000
0000
000M
0000
0000
0310
0000
0000
0000
,
0011
0000
0001
0100
0000
0010
1000
0000
0001
0010
0000
0100
,
1000
0001
0000
1000
0100
0000
0010
0000
0100
1000
0000
0001
1000
0000
0010
0000
,
0100
0100
0001
0001
1000
0100
0010
0001
,
1000
0010
0000
0100
0010
0000
1000
0000
0001
0010
0000
0100
1000
0000
0010
0000
,
0100
0100
0001
0001
0010
0100
1000
0001
,
1000
0010
0000
0100
0001
0000
0010
0000
0001
0100
0000
0010
1000
0000
0100
0000
,
0010
0010
0100
0100
1000
0010
0100
0001
,
4000
00M0
3400
000M
0340
M000
0034
0M00
,
2003
0000
0000
0000
,
3001
0000
0100
0000
0010
0100
0000
0001
0100
0000
0010
0100
0000
0010
1000
0000
,
0001
0000
0010
0000
0100
1000
0000
0100
0010
0000
0100
1000
0000
0100
0010
0100
,
1000
0000
0010
0000
0100
0010
0000
1000
0010
0000
1000
0010
0000
1000
0010
0000
,
0100
0000
0001
0000
0010
0100
0000
0010
0001
0000
0010
0100
0000
0010
0001
1000
,
0001
0000
0100
0000
0010
0100
0000
0001
0100
0000
0010
0100
0000
0010
1000
0000
,
0001
0000
0010
0000
0100
1000
0000
0100
0010
0000
0100
1000
0000
0100
0010
0100
,
1000
0000
0010
0000
0100
0010
0000
1000
0010
0000
1000
0010
0000
1000
0010
0000
,
0100
0000
0001
0000
0010
0100
0000
0010
0001
0000
0010
0100
0000
0010
0001
1000
,
0001
0000
0000
0100
0010
0000
1000
0001
1000
0001
1000
0000
0100
0000
0010
0100
,
1000
0000
0000
0001
0100
0000
0010
1000
0010
1000
0010
0000
0100
0000
0001
1000
,
0001
0000
0000
1000
0100
0000
0010
0001
0010
0001
0010
0000
0100
0000
1000
0010
,
0100
0000
0000
0001
0010
0000
0001
1000
0001
1000
0001
0000
0100
0000
0010
1000
,
0001
0000
0000
0010
0100
0000
1000
0001
1000
0001
1000
0000
0010
0000
0100
0010
,
1000
0000
0000
0001
0010
0000
0100
1000
0100
1000
0100
0000
0010
0000
0001
1000
,
0001
0000
0000
1000
0010
0000
0100
0001
0100
0001
0100
0000
0010
0000
1000
0000
,
0001
0010
0100
1000
0001
0010
0100
1000
0001
0100
0010
1000
0001
0100
0010
1000
,
0002
0M00
0013
0200
M000
2300
000M
3020
,
0M00
0230
M000
0310
2000
00M0
3002
0M00
,
0023
M000
0130
2000
000M
3020
0M00
0230
,
M000
0302
00M0
0103
0020
M000
2030
0M00
,
3002
00M0
0013
0200
M000
2300
000M
3020
,
0M00
0230
M000
0301
0020
M000
0230
000M
,
0320
M000
0031
0200
000M
0320
M000
2030
,
0M00
0000
3200
0000
00M0
0000
1300
0000
0020
0000
000M
0130
0001
0000
1000
0000
,
0001
0010
0001
0100
0010
1000
0100
1000
,
0010
0000
0100
0000
0001
0000
1000
0000
0001
0000
0100
0000
0010
0000
1000
0001
,
1000
0010
0100
0001
0010
0001
1000
22M0
,
3300
202M
3030
0100
M202
0303
0M22
0033
,
1000
1000
0010
0010
0100
0100
0001
0001
,
4000
0M00
3400
00M0
0340
000M
0034
M000
,
1003
0010
0100
0001
1000
0001
0100
0010
1000
0001
1000
0100
0010
0001
0100
0001
,
4M00
0004
0000
00M0
0000
0000
0M00
0000
0000
0000
0000
0000
00M0
0000
0000
0000
0000
0000
0000
0000
0000
3M03
0000
0000
,
1000
0000
0000
0010
0100
0000
0001
0000
1000
0000
0000
0001
0010
0000
0100
0000
,
1000
1000
0010
0010
0100
0100
0002
0000
,
1003
0000
0000
0100
1000
0000
0001
0000
0100
0000
0000
0010
1000
0000
0010
0000
,
0100
0100
0001
0001
0010
0200
0000
1300
,
0001
0000
0100
0010
1000
0000
0001
0000
0010
0000
0001
0100
0010
0000
1000
0000
,
0001
0001
0010
0010
0100
1000
0001
0100
,
0010
2000
00M0
3001
0200
0010
M000
0301
,
1000
0000
0000
0100
0000
0000
1000
0000
0000
0001
0000
0000
0010
0000
0000
0001
0000
0000
1000
0000
0000
0010
0000
0000
1000
0000
0000
0001
0000
0000
0100
0000
0000
0001
0000
0000
1000
0000
0001
0000
1000
0000
0001
0000
1000
0000
0001
0000
,
1000
0100
0000
0010
0100
0000
1000
0000
0001
0100
0000
0010
0100
0000
0001
0000
,
4000
0000
3400
0000
0310
0001
1000
0010
,
1000
0000
0100
0010
0001
0000
0100
0000
0010
0000
0100
0001
1000
0000
0100
0000
,
0040
0000
0430
0000
1300
0001
1000
0001
,
0100
0020
0M00
2030
0M00
3001
0010
0100
,
100M
0002
00M0
2003
0M00
3010
0100
0001
,
1000
0100
0010
0002
00M0
0103
0001
1000
,
0010
0100
0001
0020
000M
0031
0100
0010
,
2002
0000
0000
0000
,
3003
0000
0000
0000
;
