#TITLE:Enigma;
#SUBTITLE:;
#ARTIST:Flashburn;
#TITLETRANSLIT:;
#SUBTITLETRANSLIT:;
#ARTISTTRANSLIT:;
#GENRE:;
#CREDIT:;
#BANNER:enigma-bn.png;
#BACKGROUND:enigma-bg.png;
#LYRICSPATH:;
#CDTITLE:;
#MUSIC:Flashburn - Enigma.ogg;
#OFFSET:-0.030;
#SAMPLESTART:62.230;
#SAMPLELENGTH:12.000;
#SELECTABLE:YES;
#BPMS:0.000=185.000;
#STOPS:;
#BGCHANGES:;
#KEYSOUNDS:;

//---------------dance-single - C.Sanabria----------------
#NOTES:
     dance-single:
     C.Sanabria:
     Challenge:
     11:
     0.803,1.000,0.043,0.934,0.181:
0000
0000
0000
0000
,
0000
0000
0000
0000
,
0000
0000
0000
0000
,
0000
0000
0000
0000
,
M000
0M00
00M0
M000
0M00
00M0
0M00
000M
,
M000
0M00
00M0
M000
0M00
00M0
0M00
000M
,
M000
0M00
00M0
M000
0M00
00M0
0M00
000M
,
M000
0M00
00M0
M000
0M00
00M0
0M00
000M
,
0020
0000
0000
0000
,
0000
0000
0000
0000
,
0000
0000
0000
0000
,
0000
0000
0000
0000
,
0032
0000
0000
0000
,
0000
0000
0000
0000
,
0203
0000
0000
0000
,
0000
0000
0000
0000
,
0310
1000
0002
0000
0000
0000
0000
0000
,
0013
0001
1M00
0010
1000
01M0
1000
00M1
,
0010
0001
2000
0000
0000
0000
0000
0000
,
3010
1000
00M1
0010
0001
M100
0001
10M0
,
0010
1000
0200
0000
0000
0000
0000
0000
,
1300
0001
0M10
0001
1000
0M10
1000
00M1
,
1000
0100
0020
0000
0000
0000
0000
0000
,
0031
1000
0M10
1000
0001
0M10
0001
1M00
,
0100
0010
0002
0000
0000
0000
0000
0000
,
1003
0100
10M0
0001
0010
0M01
1000
0M10
,
1000
0100
0020
0000
0000
0000
0000
0000
,
0031
0100
00M1
1000
0010
1M00
0001
M010
,
0001
0010
0200
0000
0000
0000
0000
0000
,
1300
0010
1M00
0001
0100
00M1
0010
M001
,
0010
0100
2000
0000
0000
0000
0000
0000
,
3001
0010
010M
1000
0010
M100
0001
10M0
,
0002
0203
0320
0130
0001
1000
0001
0010
,
0200
2300
3002
0023
0032
2003
3200
0320
,
0032
0203
0320
1030
0001
1000
0010
0100
,
0002
0023
0230
2300
3200
0320
0032
2003
,
3002
0023
0230
1300
0010
0100
0001
1000
,
0002
0203
0320
2030
3200
0320
0032
2003
,
3002
0023
0230
1300
0001
1000
0100
0010
,
0002
0203
0320
2030
3200
0320
0230
2300
,
3002
0203
0320
1000
M000
1000
M000
1030
,
0100
0000
M01M
0M00
M01M
0000
1000
0000
01MM
M000
01MM
0000
0010
0000
1000
0000
,
0200
0320
0032
0100
0M00
0100
0M00
0103
,
0010
0000
M10M
00M0
M10M
0000
1000
0000
0M1M
M000
0M1M
0000
0001
0000
1000
0000
,
0002
0023
0230
1000
M000
1000
M000
1300
,
0010
0000
M10M
00M0
M10M
0000
0010
0000
M10M
00M0
M10M
0000
0010
0000
1000
0000
,
0200
0320
0032
1000
M000
1000
M000
1003
,
0010
0000
M10M
00M0
M10M
0000
1000
0000
0M1M
M000
0M1M
0000
0100
0000
1000
0000
,
0001
0100
1000
0001
0010
1000
0001
1000
,
0001
0010
1000
0001
0100
1000
0001
1000
,
0001
0100
1000
0001
0010
1000
0100
0010
,
0001
0010
1000
0001
0100
1000
0010
0100
,
0010
1000
0100
0010
0001
0100
0010
1000
,
0100
1000
0010
0100
0001
0010
0100
1000
,
0001
0010
1000
0010
0001
1000
0010
1000
,
0001
0100
1000
0100
0001
1000
0100
0010
,
0001
0100
0010
1000
0100
0010
0001
1000
,
0001
0010
0100
1000
0010
0100
0001
1000
,
0001
0010
0001
1000
0010
1000
0100
0010
,
0001
0100
0001
1000
0010
1000
0100
0010
,
0001
0100
0001
0100
0010
1000
0010
1000
0001
0010
0001
0010
0100
1000
0100
1000
,
0001
0100
0010
1000
0001
0010
0100
1000
0001
0100
0001
1000
0010
1000
0001
0010
,
0001
1000
0100
1000
0001
0100
0010
1000
0001
0100
0010
1000
0001
0010
0100
1000
,
0001
0010
0001
1000
0001
0100
0010
1000
0100
0010
0100
0010
0001
1000
0001
1000
,
0002
0000
0203
0000
2300
0000
3200
0010
,
0000
0010
0000
0010
0320
0000
1030
0001
,
2000
0000
3200
0000
0302
0000
0203
0010
,
0000
0001
0000
1300
2100
0000
3010
0100
,
0002
0000
0023
0000
2030
0000
3020
0100
,
0000
0001
0000
1030
0020
0000
0130
1000
,
0002
0000
0203
0000
2300
0000
3200
0010
,
0000
1000
0000
0301
2001
0000
3100
0010
,
0002
0000
0203
0000
0320
0000
1030
1100
,
0000
0011
0000
0001
2000
0000
3010
0100
,
0002
0000
0023
0000
2030
0000
3010
0011
,
0000
1010
0000
0100
0002
0000
0013
0100
,
2000
0000
3020
0000
0230
0000
0301
0101
,
0000
1100
0000
1000
0020
0000
0130
0001
,
2000
0000
3200
0000
0320
0000
0031
0200
,
0000
0320
0000
1030
1001
0000
0100
1000
,
0001
0100
0001
0100
0010
1000
0010
1000
,
0001
0000
0010
0000
0001
0000
0010
0000
0100
0000
1000
0000
0100
0000
1000
0001
,
1000
0000
0100
0000
1000
0000
0100
0000
0010
0000
0001
0000
0010
0000
0001
1000
,
0001
0000
0010
0000
0001
0000
0010
0000
0100
0000
1000
0000
0100
0000
1000
0001
,
1000
0100
1000
0100
0010
0001
0010
0001
1000
0010
1000
0010
0100
0001
0100
0001
,
1000
0100
0010
0001
1000
0010
0100
0001
1000
0100
0010
0001
1000
0010
0100
0001
,
1000
0100
1000
0100
0010
0001
0010
0001
0100
0001
0100
0001
1000
0010
1000
0010
,
1000
0100
0010
0001
0100
0010
1000
0001
0010
0100
1000
0001
0100
0001
1000
0010
,
2000
0000
3200
0000
0320
0000
0032
0100
,
0M00
0023
0000
0230
0000
1300
0010
0100
,
0002
0000
0023
0000
0230
0000
2300
0010
,
00M0
3200
0000
0320
0000
0031
0100
0010
,
2000
0000
3200
0000
0302
0000
0203
0010
,
00M0
2300
0000
3020
0000
1030
0100
0010
,
0002
0000
0203
0000
2300
0000
3200
0010
,
00M0
0302
0000
0023
0000
0130
1000
0001
,
1000
0010
1000
0100
0010
0001
0100
0020
,
0000
2030
0000
3200
0000
0310
0001
0100
,
0010
1000
0100
1000
0010
0100
0001
0020
,
0000
0032
0000
0203
0000
0310
1000
0100
,
0010
0001
1000
0001
0100
0010
1000
0200
,
0000
0320
0000
0032
0000
1003
0010
0100
,
0001
0010
0100
1000
0010
1000
0001
0200
,
0000
0320
0000
2030
0000
3100
0010
0001
,
0200
0001
0000
0010
,
0000
1000
0000
0010
,
0000
0001
0000
0010
,
0000
1000
0000
0001
,
0320
0100
0000
1000
,
0000
0001
0000
0100
,
2030
0010
0000
0001
,
0000
0100
0000
0010
,
3002
0203
0320
0130
0001
1000
0001
0010
,
0200
2300
3002
0023
0032
2003
3200
0320
,
0032
0203
0320
1030
0001
1000
0010
0100
,
0002
0023
0230
2300
3200
0320
0032
2003
,
3002
0023
0230
1300
0010
0100
0001
1000
,
0002
0203
0320
2030
3200
0320
0032
2003
,
3002
0023
0230
1300
0001
1000
0100
0010
,
0002
0203
0320
2030
3200
0320
0230
2300
,
3001
0100
1000
0001
0010
1000
0001
1000
,
0001
0010
1000
0001
0100
1000
0001
1000
,
0001
0100
1000
0001
0010
1000
0100
0010
,
0001
0010
1000
0001
0100
1000
0010
0100
,
0010
1000
0100
0010
0001
0100
0010
1000
,
0100
1000
0010
0100
0001
0010
0100
1000
,
0001
0010
1000
0010
0001
1000
0010
1000
,
0001
0100
1000
0100
0001
1000
0100
0010
,
0001
0100
0010
1000
0100
0010
0001
1000
,
0001
0010
0100
1000
0010
0100
0001
1000
,
0001
0010
0001
1000
0010
1000
0100
0010
,
0001
0100
0001
1000
0010
1000
0100
0010
,
0001
0100
1000
0001
0010
1000
0001
1000
,
0001
0010
1000
0001
0100
1000
0001
1000
,
0001
0100
1000
0001
0010
1000
0100
0010
,
0001
0010
1000
0001
0100
1000
0010
0100
,
0010
1000
0100
0010
0001
0100
0010
1000
,
0100
1000
0010
0100
0001
0010
0100
1000
,
0001
0010
1000
0010
0001
1000
0010
1000
,
0001
0100
1000
0100
0001
1000
0100
0010
,
0001
0100
0010
1000
0100
0010
0001
1000
,
0001
0010
0100
1000
0010
0100
0001
1000
,
0001
0010
0001
1000
0010
1000
0100
0010
,
0001
0100
0001
1000
0010
1000
0100
0010
,
0100
1000
0002
0000
0000
0000
0000
0000
,
0013
0001
10M0
0100
1000
0M10
1000
0M01
,
0100
0001
2000
0000
0000
0000
0000
0000
,
3100
1000
0M01
0100
0001
M010
0001
1M00
,
0100
1000
0020
0000
0000
0000
0000
0000
,
1030
0001
01M0
0001
1000
01M0
1000
0M01
,
1000
0010
0200
0000
0000
0000
0000
0000
,
0301
1000
01M0
1000
0001
01M0
0001
10M0
,
0020
0000
0000
0000
,
0000
0000
0000
0000
,
0000
0000
0000
0000
,
0000
0000
0000
0000
,
2030
0000
0000
0000
,
0000
0000
0000
0000
,
3002
0000
0000
0000
,
0000
0000
0000
0000
,
0003
0000
0000
0000
;
