#TITLE:End Game;
#SUBTITLE:;
#ARTIST:DarkShadow859;
#TITLETRANSLIT:;
#SUBTITLETRANSLIT:;
#ARTISTTRANSLIT:;
#GENRE:;
#CREDIT:;
#BANNER:;
#BACKGROUND:;
#LYRICSPATH:;
#CDTITLE:;
#MUSIC:DarkShadow859 - End Game.mp3;
#OFFSET:-0.040;
#SAMPLESTART:52.990;
#SAMPLELENGTH:12.000;
#SELECTABLE:YES;
#BPMS:0.000=145.000;
#STOPS:;
#BGCHANGES:;
#KEYSOUNDS:;

//---------------dance-single - C.Sanabria----------------
#NOTES:
     dance-single:
     C.Sanabria:
     Challenge:
     10:
     0.434,0.501,0.123,0.126,0.531:
0000
0000
0000
0000
,
0000
0000
0000
0000
,
0000
0000
0000
0000
,
0000
0000
0000
0000
,
0000
0000
0000
0000
,
0000
0000
0000
0000
,
0000
0000
0000
0000
,
0000
0000
0000
0000
,
210M
0000
3200
M000
0320
0M00
0031
0000
,
210M
0000
3200
M000
0320
0M00
0130
000M
,
2M01
0000
3020
M000
0230
00M0
0301
0M00
,
201M
0000
3020
M000
0230
00M0
0301
0M00
,
210M
0000
3200
M000
0320
0M00
0031
00M0
,
210M
0000
3200
M000
0320
0M00
0031
000M
,
M201
0000
0320
0M00
2030
00M0
3001
M000
,
0M12
0000
0023
000M
0230
00M0
1300
0M00
,
M001
0000
1000
0010
0000
0010
0100
0000
0001
0000
1000
0010
0000
0010
0100
0000
,
0001
0000
1000
0010
0000
0010
0100
0000
0001
0000
1000
0010
0000
0010
0100
0000
,
0001
0000
1000
0100
0000
0100
1000
0000
0001
0000
1000
0010
0000
0010
1000
0000
,
0100
0000
0010
0001
0000
0001
1000
0000
0010
0000
1000
0001
0000
0001
0010
0000
,
0100
0000
1000
0010
0000
0010
1000
0000
0001
0000
1000
0010
0000
0010
1000
0000
,
0100
0000
1000
0010
0000
0010
1000
0000
0001
0000
0100
0010
0000
0010
1000
0000
,
0001
0000
1000
0100
0000
0100
0010
0000
0001
0000
0100
0010
0000
0010
1000
0000
,
0001
0000
1000
0100
0000
0100
0010
0000
0001
0000
1000
0100
0000
0100
0010
0000
,
0001
0100
0101
0001
0000
0001
1001
0000
,
1010
0010
1000
0001
0000
0001
1001
0000
,
1100
0100
1000
0010
0000
0010
1010
0000
,
0101
0001
1000
0001
0000
0001
0011
0000
,
1100
0000
0000
0100
1000
0000
0001
0000
0000
0000
0010
0000
0101
0000
0000
0000
,
0011
0000
0000
1000
0100
0000
0010
0000
0000
0000
0100
0000
1100
0000
0000
0000
,
0101
0000
0000
0100
0010
0000
1000
0000
0000
0000
0001
0000
0011
0000
0000
0000
,
1100
0000
0000
0100
1000
0000
0010
0000
1010
0000
0000
0110
0000
0000
0101
0000
,
1001
0000
1000
0100
1000
0000
1000
0001
1000
0000
1000
0010
1000
0000
1000
0100
,
0010
0000
0001
0010
0001
0000
0001
1000
0001
0000
0001
0100
0001
0000
0001
0100
,
0010
0000
0010
1000
0100
0000
0100
0010
0100
0000
0100
1000
0010
0000
0010
0100
,
0010
0000
0100
0001
0010
0000
0010
0100
0010
0000
0010
0001
0100
0000
0100
0010
,
0100
0000
0001
0100
0001
0000
0001
1000
0001
0000
1000
0100
1000
0000
1000
0001
,
1000
0000
0001
0010
0001
0000
0001
0100
0001
0000
1000
0010
1000
0000
1000
0100
,
1000
0000
0010
0100
0001
0000
0001
1000
0001
0000
0010
0100
1000
0000
1000
0001
,
1000
0000
0100
0010
0001
0000
0001
0100
0001
0000
0100
0010
1000
0000
1000
0100
,
1000
0000
0001
0100
0001
0000
0001
1000
0010
0000
0010
1000
0010
0000
1000
0001
,
1000
0000
1000
0100
1000
0000
1000
0001
0010
0000
0010
0001
0010
0000
0001
1000
,
0001
0000
0001
0100
0001
0000
0001
0100
0010
0000
0010
0100
0010
0000
0010
1000
,
0010
0000
0010
0001
0010
0000
1000
0001
0010
0000
0010
0100
0010
0000
0010
0001
,
0010
0000
0001
0100
0001
0000
0001
0100
1000
0000
1000
0100
1000
0000
0100
0010
,
0100
0000
0001
0100
0001
0000
1000
0100
0001
0000
0001
0100
0001
0000
0100
0010
,
0100
0000
1000
0100
1000
0000
1000
0010
0001
0000
0001
0010
0001
0000
0010
0100
,
0010
0000
1000
0001
1000
0000
1000
0100
0001
0000
0001
0100
0001
0000
0100
0010
,
0100
1000
0000
0001
0000
1000
0010
0000
0100
0001
0100
0000
0010
1000
0010
0000
,
0100
0001
0000
1000
0000
0001
0010
0000
0100
1000
0100
0000
0010
0001
0010
0000
,
0100
1000
0000
0010
0000
0100
0001
0000
0100
0010
1000
0000
0001
1000
0001
0000
,
0100
0010
0000
1000
0000
0001
0010
0000
0100
0010
0001
0000
1000
0100
1000
0000
,
0010
1000
0000
0001
0000
1000
0100
0000
0010
0001
0010
0000
0100
1000
0100
0000
,
0010
0001
0000
1000
0000
0001
0100
0000
0010
1000
0010
0000
0100
0001
0100
0000
,
0010
1000
0000
0100
0000
0010
0001
0000
0010
0100
1000
0000
0001
1000
0001
0000
,
0010
0100
0000
1000
0000
0001
0100
0000
0010
0100
0001
0000
1000
0010
1000
0000
,
1001
0000
0001
0100
0001
1000
0010
1000
0001
0000
1000
0100
0010
0100
0010
0001
,
1001
0000
0001
0100
0010
1000
0001
1000
0010
0000
1000
0001
1000
0000
0100
1000
,
1100
0000
1000
0010
1000
0000
0100
0010
0100
0000
1000
0010
1000
0000
0001
0100
,
0101
0000
0100
0001
1000
0010
1000
0001
0100
0010
0100
0001
1000
0010
1000
0000
,
1001
0000
1000
0100
1000
0001
0010
0001
1000
0000
0001
0100
0010
0100
0010
1000
,
1001
0000
1000
0100
0010
0001
1000
0001
0010
0000
0001
1000
0001
0000
0100
0001
,
0101
0000
0001
0010
0001
0000
0100
0010
0100
0000
0001
0010
0001
0000
1000
0100
,
1100
0000
0100
1000
0001
0010
0001
1000
0100
0010
0100
1000
0001
0010
0001
0000
,
1000
0100
0010
0100
0010
0001
1000
0001
1000
0100
0010
0100
0010
0001
1000
0001
,
1000
0100
0010
0100
0010
0001
1000
0001
1000
0100
0010
0100
0010
0001
1000
0001
,
1000
0010
0100
0001
1000
0100
1000
0001
1000
0010
0100
0001
1000
0100
1000
0001
,
0010
0100
1000
0001
1000
0100
0010
0001
0010
0100
1000
0001
1000
0100
0010
0001
,
1000
0100
0010
0100
0010
0001
1000
0001
1000
0100
0010
0100
0010
0001
1000
0001
,
1000
0100
0010
0100
0010
0001
1000
0001
1000
0100
0010
0100
0010
0001
1000
0001
,
1000
0010
0100
0001
1000
0100
1000
0001
1000
0010
0100
0001
1000
0100
1000
0001
,
0010
0100
1000
0001
1000
0100
0010
0001
0020
0030
0000
0020
0030
0000
0020
0030
,
1001
0000
0010
0001
0100
0000
0100
0001
0010
0000
0010
1000
0100
0000
0100
1000
,
0010
0000
0010
0001
1000
0000
0001
0010
0001
0000
0001
0100
0001
0000
1000
0001
,
0010
0000
0100
1000
0010
0000
0010
0001
0100
0000
0001
0100
1000
0000
1000
0100
,
0001
0000
1000
0100
0001
0000
0001
0100
1000
0000
1000
0010
1000
0000
0001
0100
,
0001
0000
1000
0010
1000
0000
0010
1000
0100
0000
0010
0001
0010
0000
0100
1000
,
0010
0000
0010
0001
0100
0000
0100
0001
0010
0000
0010
1000
0100
0000
0001
0100
,
1000
0000
1000
0010
1000
0000
1000
0100
1000
0000
0001
0100
1000
0000
1000
0100
,
0001
0000
0001
0010
0001
0000
0001
0100
0001
0000
1000
0100
0001
0000
0001
0010
,
1000
0010
0001
0000
0001
0100
0010
2000
0000
3010
0100
0001
1000
0100
0010
0100
,
1000
0010
0100
0001
1000
0001
0100
0020
0000
1030
0100
0010
0001
0010
0100
1000
,
0001
0010
0100
0010
0001
0100
0010
2000
0000
3010
0100
0001
1000
0100
0010
0001
,
0100
0001
1000
0100
0010
0001
0100
0020
0000
0130
0001
1000
0001
1000
0001
1000
,
0100
0010
0001
0100
0001
0010
0100
2000
0000
3100
0010
0100
1000
0010
0100
0001
,
1000
0001
0100
0010
1000
0001
0010
0200
0000
0310
0001
0100
0010
1000
0001
1000
,
0010
0100
0001
1000
0100
0010
0001
0200
0000
0301
0010
0100
1000
0010
1000
0001
,
0100
0010
1000
0001
1000
0010
0100
0001
0202
0303
0000
0220
0330
0000
2020
3030
;
