#TITLE:Empty Night Street;
#SUBTITLE:;
#ARTIST:SoundLift;
#TITLETRANSLIT:;
#SUBTITLETRANSLIT:;
#ARTISTTRANSLIT:;
#GENRE:;
#CREDIT:;
#BANNER:emptynightstreet-bn.png;
#BACKGROUND:emptynightstreet-bg.png;
#LYRICSPATH:;
#CDTITLE:;
#MUSIC:SoundLift - Empty Night Street.ogg;
#OFFSET:-1.755;
#SAMPLESTART:169.730;
#SAMPLELENGTH:12.000;
#SELECTABLE:YES;
#BPMS:0.000=140.000;
#STOPS:;
#BGCHANGES:;
#KEYSOUNDS:;

//---------------dance-single - C.Sanabria----------------
#NOTES:
     dance-single:
     C.Sanabria:
     Challenge:
     11:
     0.866,0.928,0.013,0.334,1.000:
0000
0000
0000
0000
,
0000
0000
0000
0000
,
0000
0000
0000
0000
,
0000
0000
0000
0000
,
2000
0000
0000
0000
3010
0000
0100
0001
0100
0000
0010
0000
1000
0000
0100
0000
,
2000
0000
0000
0000
3100
0000
0010
0001
0010
0000
0100
0000
1000
0000
0001
0100
,
0000
0000
0010
1000
0000
0000
0001
0010
0000
0000
0100
1000
0001
0000
1000
0000
,
0001
0100
0010
1000
0100
1000
0010
0100
,
0002
0023
0032
0023
0230
1300
0001
1000
,
0010
0000
1000
0100
1000
0000
0001
1000
0001
0000
0100
0001
0100
0000
0001
1000
,
0001
0000
0010
0100
1000
0000
0001
0100
0001
0000
0010
0100
1000
0000
0001
0010
,
0002
0000
0000
0000
0103
0000
0010
1000
0010
0000
0100
0000
0001
0000
1000
0000
,
0002
0000
0000
0000
0013
0000
0100
1000
0100
0000
0010
0000
0001
0000
1000
0000
,
0001
0000
1000
0010
0000
0000
0100
0001
0000
0000
1000
0100
0000
0000
0010
0001
,
0000
0000
1000
0000
0000
0000
0010
0000
0000
0100
0000
0000
0001
0000
0000
0000
,
2000
0000
0000
0000
3001
0000
0010
0100
1000
0000
0001
0000
1000
0000
0010
0000
,
2000
3200
2300
3200
0320
0031
1000
0001
,
1000
0000
0010
0100
0001
0000
1000
0100
1000
0000
0020
0000
0230
0000
0301
0000
,
1000
0000
0001
0010
0001
0000
1000
0100
0010
0000
0001
0000
1000
0000
0010
0000
,
0100
0000
0001
0100
0001
0000
0010
0100
1000
0000
0002
0000
0203
0000
0310
0000
,
1000
0100
0010
0001
0100
0010
1000
0010
,
0100
0001
1000
0010
0100
0002
0000
0000
0000
0023
0000
0000
0230
0000
0000
0000
,
1300
0010
1000
0001
0100
0010
1000
0001
0010
0001
0010
0100
1000
0001
0100
0010
,
1000
0010
1000
0001
0100
0010
1000
0001
0010
0001
0010
0100
1000
0001
0100
0010
,
1000
0100
1000
0001
0010
0100
1000
0001
0100
0001
0100
0010
1000
0001
0010
0100
,
1000
0100
1000
0001
0010
0100
1000
0001
0100
0001
0100
0010
1000
0001
0010
0100
,
1000
0010
0100
0001
1000
0100
0010
0100
1000
0001
0100
0010
1000
0001
1000
0010
,
0100
0001
1000
0100
0010
0001
0010
0100
1000
0001
0100
0010
0100
0001
0010
0100
,
1000
0010
0100
0001
1000
0100
0010
0100
1000
0001
0100
0010
1000
0001
1000
0010
,
0100
0001
1000
0100
0010
0001
0010
0100
1000
0001
0100
0010
0100
0001
0010
0100
,
1000
0100
1000
0001
0100
0001
1000
0010
1000
0001
0010
0001
1000
0010
0100
0001
,
1000
0100
1000
0001
0010
0001
1000
0010
1000
0001
0100
0001
1000
0100
0010
0001
,
0100
0010
0100
0001
1000
0001
0010
0100
0010
0001
1000
0001
0100
0010
1000
0001
,
0010
0100
1000
0001
0100
0001
0010
0100
1000
0001
0100
0001
1000
0100
0010
0001
,
1000
0100
1000
0001
0100
0001
1000
0010
1000
0001
0010
0001
1000
0010
0100
0001
,
1000
0100
1000
0001
0010
0001
1000
0010
1000
0001
0100
0001
1000
0100
0010
0001
,
0100
0010
0100
0001
1000
0001
0010
0100
0010
0001
1000
0001
0100
0010
1000
0001
,
0010
0100
1000
0001
0100
0001
0010
0100
1000
0001
0100
0001
1000
0100
0010
0001
,
1000
0000
0000
0010
0000
0000
0100
0000
0000
0000
0000
0001
0000
0000
0010
0000
,
0000
0000
0000
0100
0000
0000
1000
0000
0000
0000
0002
0000
0203
0000
0320
0000
,
1030
0000
0000
0100
0000
0000
0010
0000
0001
0000
0000
0100
0000
0000
0010
0000
,
1000
0000
0000
0100
0000
0000
0010
0000
0001
0000
0000
2000
0000
0000
3020
0000
,
0130
0000
0000
0001
0000
0000
1000
0000
0100
0000
0000
0010
0000
0000
0001
0000
,
0100
0000
0000
0010
0000
0000
1000
0000
0001
0000
0020
0000
0230
0000
2300
0000
,
3001
0000
0000
0001
0000
0000
0001
0000
0100
0000
0000
0100
0000
0000
0100
0000
,
0010
0000
0000
0010
0000
0000
0010
0000
1000
0000
0002
0000
0023
0000
0230
0000
,
1300
0000
0010
1000
0000
0000
0001
1000
0000
0000
0010
0100
0000
0000
0001
0100
,
0000
0000
0001
0010
0000
0000
0100
1000
0000
0000
0020
0000
2030
0000
3002
0000
,
0103
0000
0010
1000
0000
0000
0010
0100
0000
0000
0010
1000
0000
0000
0001
1000
,
0000
0000
0100
0010
0000
0000
0001
0010
0000
0000
0100
2000
0000
0000
3010
0000
,
0200
0000
0000
0000
,
0302
0000
0000
0000
0000
0023
0230
2300
,
3020
0000
0000
0000
,
0230
0000
0000
0000
0000
0302
2003
0000
,
3002
0000
0000
0000
,
0023
0000
0000
0000
0000
0230
2300
3002
,
0203
0000
0000
0000
,
0320
0000
0000
0000
,
2030
0000
0000
0000
,
3200
0000
0000
0000
0000
0320
0032
2003
,
3020
0000
0000
0000
,
0230
0000
0000
0000
0000
0302
2003
0000
,
3002
0000
0000
0000
,
0023
0000
0000
0000
0000
0230
2300
3002
,
0203
0000
0000
0000
,
0320
0000
0000
0000
,
2030
0000
0000
0000
,
3020
0000
0000
0000
,
0230
0000
0000
0000
,
0302
0000
0000
0000
,
1003
0000
0000
0100
0000
0000
1000
0000
0000
0010
0000
0000
0100
0000
0001
0000
,
1000
0000
0000
0100
0000
0000
0010
0000
0000
0001
0000
0000
0100
0000
0010
0000
,
1000
0000
0000
0001
0000
0000
0010
0000
0000
0100
0000
0000
0010
0000
0001
0000
,
0100
0000
0000
0010
0000
0000
1000
0000
0000
0001
0000
0000
1000
0000
0010
0000
,
0100
0000
0000
0001
0010
0000
0100
0010
0000
0001
0000
1000
0010
0000
0100
0000
,
0010
0000
0000
1000
0100
0000
0010
0001
0000
0100
0000
0001
0010
0000
0100
0000
,
1000
0000
0000
0001
0100
0000
0010
1000
0000
0001
0000
1000
0100
0000
0010
0000
,
0001
0000
0000
1000
0010
0000
0100
0001
0000
0010
0000
0001
1000
0000
0010
0000
,
0100
0000
0000
0001
0000
0000
0100
0000
0000
0001
0000
0000
0100
0000
0001
0000
,
1000
0000
0000
0100
0000
0000
1000
0000
0000
0100
0000
0000
1000
0000
0001
0000
,
0010
0000
0000
0100
0000
0000
1000
0000
0000
0001
0000
0000
1000
0000
0010
0000
,
0100
0000
0000
0001
0000
0000
1000
0000
0000
0001
0000
0000
0010
0000
0100
0000
,
1001
0000
0000
1000
0001
0000
0010
0001
0000
1000
0000
0001
0100
0000
0010
0100
,
0000
0001
0000
1000
0100
0000
0010
0100
0000
1000
0000
0001
0010
0000
0100
1000
,
0000
0001
0000
1000
0010
0000
0100
0001
0000
1000
0000
0001
0100
0000
0010
1000
,
0000
0001
0000
1000
0100
0000
0010
0001
0000
1000
0000
0001
0010
0000
0100
1000
,
0000
0001
0000
1000
0010
0000
0100
0001
0000
0010
0000
0001
0100
0000
0010
1000
,
0000
0100
0000
1000
0001
0000
0010
0001
0000
0100
0000
0001
1000
0000
0010
1000
,
0000
0100
0000
1000
0010
0000
0100
0001
0000
0010
0000
0100
1000
0000
0001
0010
,
0000
0100
0000
0010
0001
0000
1000
0010
0000
0100
0000
0001
1000
0000
0001
0000
,
1001
0000
1000
0100
0010
0001
1000
0001
0000
0010
0100
1000
0001
1000
0010
0100
,
0000
0001
0100
0010
1000
0001
1000
0001
0000
1000
0100
0010
0001
0010
0100
1000
,
0000
0001
0100
0010
1000
0001
1000
0010
0000
0100
0001
1000
0001
0010
0100
1000
,
0000
0001
0100
0010
1000
0001
1000
0001
1000
0010
0100
0001
1000
0001
0010
0100
,
1000
0001
1000
0001
1000
0001
1000
0001
0010
0100
0010
0100
0010
0100
0010
0100
,
1000
0001
0100
0010
1000
0010
0100
0001
1000
0100
0010
0001
0010
0100
1000
0001
,
1000
0010
1000
0010
0100
0001
0100
0001
1000
0100
1000
0100
0010
0001
0010
0001
,
1000
0100
0010
0001
1000
0100
0010
0001
1000
0010
0100
0001
0000
0000
1001
0000
,
0001
0100
0001
1000
0010
0100
0001
1000
0100
1000
0100
0010
0001
1000
0010
0100
,
0001
0100
0001
1000
0010
0100
0001
1000
0100
1000
0100
0010
0001
1000
0010
0100
,
0001
0010
0001
1000
0100
0010
0001
1000
0010
1000
0010
0100
0001
1000
0100
0010
,
0001
0010
0001
1000
0100
0010
0001
1000
0010
1000
0010
0100
0001
1000
0100
0010
,
0001
0100
0010
1000
0001
0010
0100
0010
0001
1000
0010
0100
0001
1000
0001
0100
,
0010
1000
0001
0010
0100
1000
0100
0010
0001
1000
0010
0100
0010
1000
0100
0010
,
0001
0100
0010
1000
0001
0010
0100
0010
0001
1000
0010
0100
0001
1000
0001
0100
,
0010
1000
0001
0010
0100
1000
0100
0010
0001
1000
0010
0100
0010
1000
0100
0010
,
0001
0010
0001
1000
0010
1000
0001
0100
0001
1000
0100
1000
0001
0100
0010
1000
,
0001
0010
0001
1000
0100
1000
0001
0100
0001
1000
0010
1000
0001
0010
0100
1000
,
0010
0100
0010
1000
0001
1000
0100
0010
0100
1000
0001
1000
0010
0100
0001
1000
,
0100
0010
0001
1000
0010
1000
0100
0010
0001
1000
0010
1000
0001
0010
0100
1000
,
0001
0010
0001
1000
0010
1000
0001
0100
0001
1000
0100
1000
0001
0100
0010
1000
,
0001
0010
0001
1000
0100
1000
0001
0100
0001
1000
0010
1000
0001
0010
0100
1000
,
0010
0100
0010
1000
0001
1000
0100
0010
0100
1000
0001
1000
0010
0100
0001
1000
,
0100
0010
0001
1000
0010
1000
0100
0010
0001
1000
0010
1000
0001
0010
0100
1000
,
0001
0100
0001
1000
0010
0100
0001
1000
0100
1000
0100
0010
0001
1000
0010
0100
,
0001
0100
0001
1000
0010
0100
0001
1000
0100
1000
0100
0010
0001
1000
0010
0100
,
0001
0010
0001
1000
0100
0010
0001
1000
0010
1000
0010
0100
0001
1000
0100
0010
,
0001
0010
0001
1000
0100
0010
0001
1000
0010
1000
0010
0100
0001
1000
0100
0010
,
0001
0100
0010
1000
0001
0010
0100
0010
0001
1000
0010
0100
0001
1000
0001
0100
,
0010
1000
0001
0010
0100
1000
0100
0010
0001
1000
0010
0100
0010
1000
0100
0010
,
0001
0100
0010
1000
0001
0010
0100
0010
0001
1000
0010
0100
0001
1000
0001
0100
,
0010
1000
0001
0010
0100
1000
0100
0010
0001
1000
0010
0100
0010
1000
0100
0010
,
0001
0010
0001
1000
0010
1000
0001
0100
0001
1000
0100
1000
0001
0100
0010
1000
,
0001
0010
0001
1000
0100
1000
0001
0100
0001
1000
0010
1000
0001
0010
0100
1000
,
0010
0100
0010
1000
0001
1000
0100
0010
0100
1000
0001
1000
0010
0100
0001
1000
,
0100
0010
0001
1000
0010
1000
0100
0010
0001
1000
0010
1000
0001
0010
0100
1000
,
0001
0010
0001
1000
0010
1000
0001
0100
0001
1000
0100
1000
0001
0100
0010
1000
,
0001
0010
0001
1000
0100
1000
0001
0100
0001
1000
0010
1000
0001
0010
0100
1000
,
0010
0100
0010
1000
0001
1000
0100
0010
0100
1000
0001
1000
0010
0100
0001
1000
,
0100
0010
0001
1000
0010
1000
0100
0010
0001
1000
0010
1000
0001
0010
0100
1000
,
0001
0010
0001
1000
0100
0010
0001
1000
0010
1000
0010
0100
0001
1000
0100
0010
,
0001
0010
0001
1000
0100
0010
0001
1000
0010
1000
0010
0100
0001
1000
0100
0010
,
0001
0100
0001
1000
0010
0100
0001
1000
0100
1000
0100
0010
0001
1000
0010
0100
,
0001
0100
0001
1000
0010
0100
0001
1000
0100
1000
0100
0010
0001
1000
0010
0100
,
0001
0010
0100
1000
0001
0100
0010
0100
0001
1000
0100
0010
0001
1000
0001
0010
,
0100
1000
0001
0100
0010
1000
0010
0100
0001
1000
0100
0010
0100
1000
0010
0100
,
0001
0010
0100
1000
0001
0100
0010
0100
0001
1000
0100
0010
0001
1000
0001
0010
,
0100
1000
0001
0100
0010
1000
0010
0100
0001
1000
0100
0010
0100
1000
0010
0100
,
0001
0000
1000
0010
0000
0000
1000
0010
0000
0000
0100
0001
0000
0000
0100
0001
,
0000
0000
0010
0001
0000
0000
0010
0001
0000
0000
1000
0100
0000
0000
1000
0100
,
0000
0000
0010
0100
0000
0000
1000
0001
0000
0000
1000
0010
0000
0000
1000
0001
,
0000
0000
0010
0100
0000
0000
0010
0001
0000
0000
1000
0010
0000
0000
0100
0001
,
1000
0100
0010
0001
0000
0000
0100
0001
1000
0100
0010
0001
0000
0000
0100
0001
,
1000
0010
0100
0001
0000
0000
0010
0001
1000
0010
0100
0001
0000
0000
1000
0100
,
0010
0001
1000
0001
0000
0000
1000
0010
0100
0001
1000
0001
0000
0000
0010
0100
,
1000
0001
1000
0010
0000
0000
0100
0010
1000
0001
1000
0100
0010
0001
1000
0000
,
0002
0003
0100
0002
0003
0100
0002
0013
,
0200
0300
1000
0200
0300
1000
0200
0310
,
0002
0003
0100
0002
0003
0010
0002
0103
,
0020
0030
1000
0020
0030
0100
0020
1030
,
0002
0003
0010
0002
0003
1000
0200
0310
,
0002
0003
0100
0020
0030
1000
0200
0310
,
0002
0003
1000
0020
0030
0100
0002
1003
,
0200
0300
0010
0200
0300
1000
0002
0103
,
0010
0000
0000
1000
0000
0000
0001
0000
0000
1000
0000
0000
0100
0000
0010
0000
,
0001
0000
0000
0100
0000
0000
0010
0000
0000
1000
0000
0000
0001
0000
0010
0000
,
0100
0000
0000
1000
0000
0000
0001
0000
0000
1000
0000
0000
0010
0000
0100
0000
,
0001
0000
0000
1000
0000
0000
0100
0000
0000
0010
0000
0000
0001
0000
0100
0000
,
0010
0000
0000
1000
0000
0000
0100
0000
0000
0010
0000
0000
0001
0000
1000
0000
,
0001
0000
0000
0010
0000
0000
0100
0000
0000
1000
0000
0000
0010
0000
0100
0000
,
0001
0000
1000
0100
0000
0000
0010
0001
0000
0000
1000
0010
0000
0000
0100
0001
,
0000
0000
1000
0100
0000
0000
0010
0100
0000
0000
0010
0001
0000
0000
1000
0001
,
1000
0010
0100
0001
0010
0001
1000
0100
,
1000
0010
0100
0001
0010
0001
1000
0100
,
1000
0010
0100
0001
0010
0001
1000
0100
,
0010
0001
0100
0010
1000
0100
1000
0001
,
1000
0010
0100
0001
0010
0001
1000
0010
,
1000
0100
0010
0001
0100
0001
1000
0010
,
1000
0100
0010
0001
0100
0010
1000
0001
,
1000
0000
0010
0100
0000
0000
0001
1000
0000
0100
0000
0000
0010
0000
0000
0000
,
2002
0000
0000
0000
,
0000
0000
0000
0000
,
3003
0000
0000
0000
;
