#TITLE:Electric Shock;
#SUBTITLE:;
#ARTIST:Unknown artist;
#TITLETRANSLIT:;
#SUBTITLETRANSLIT:;
#ARTISTTRANSLIT:;
#GENRE:;
#CREDIT:;
#BANNER:electrickshock-bn.png;
#BACKGROUND:electricshock-bg.png;
#LYRICSPATH:;
#CDTITLE:;
#MUSIC:Electric Shock.ogg;
#OFFSET:-2.240;
#SAMPLESTART:55.990;
#SAMPLELENGTH:12.000;
#SELECTABLE:YES;
#BPMS:0.000=125.000;
#STOPS:;
#BGCHANGES:0.000=Electric Shock.avi=1.000=1=0=0=StretchNoLoop==CrossFade==,
397.500=electrickshock-bn.png=1.000=0=0=1=====,
99999=-nosongbg-=1.000=0=0=0 // don't automatically add -songbackground-
;
#KEYSOUNDS:;

//---------------dance-single - C.Sanabria----------------
#NOTES:
     dance-single:
     C.Sanabria:
     Challenge:
     9:
     0.652,0.566,0.082,0.902,0.353:
1000
0000
0000
0100
0000
0000
2000
0000
3000
0000
1000
0000
0010
0000
0100
0000
,
0001
0000
0000
0010
0000
0000
0002
0000
0003
0000
0010
0000
0100
0000
2000
0000
,
0000
3020
0000
0000
0130
0000
0001
0000
0000
0000
0010
0000
0100
0000
0020
0000
,
0000
0032
0000
0000
1003
0000
0010
0000
0100
0000
0001
0000
1000
0000
0000
0000
,
0011
0000
0000
0110
0000
0000
2000
0000
3000
0000
0010
0000
0100
0000
0001
0000
,
1100
0000
0000
0110
0000
0000
0002
0000
0003
0000
0100
0000
0002
0000
1003
0000
,
0101
0000
0000
0110
0000
0000
2000
0000
3000
0000
0001
0000
1000
0000
0010
0000
,
0101
0000
0000
0110
0000
0000
2000
0000
3000
0000
0010
0000
0100
0000
0001
0000
,
2000
3000
2000
3000
1000
0010
0100
0001
,
0010
0100
1000
0001
1000
0100
0010
0010
,
0002
0003
0002
0003
0001
0100
0010
1000
,
0100
0010
0001
1000
0002
0100
0100
0103
,
0010
0000
0000
1000
0000
0000
220M
0000
3300
0000
1000
0100
1000
0000
0010
0000
,
0100
0000
0000
0001
0000
0000
0020
0000
0230
0000
1300
0001
1000
0000
0010
0000
,
0100
0000
0000
0001
0000
0000
M202
0000
0303
0000
0001
0000
0100
0000
0010
0000
,
1000
0000
0000
0001
0000
0000
2MM2
0000
3003
0000
1000
0000
0100
0000
0010
0000
,
0001
0000
0000
0100
0000
0000
202M
0000
3030
0000
1000
0000
0100
0000
0010
0000
,
0002
0000
0000
0000
0103
0000
0020
0000
0000
0000
1030
0001
1000
0000
0010
0000
,
0100
0000
0000
0100
0000
0000
0002
0000
2003
0000
3100
0000
0010
0000
0001
0000
,
2000
0000
3010
0200
0000
0301
0020
0000
,
0130
1000
0100
1000
,
0001
0100
0001
0100
,
0010
1000
0010
1000
,
0001
0010
0001
0010
,
0100
0000
0000
0100
1000
0000
0001
0000
0000
0100
0001
0000
0010
0000
0100
0000
,
1000
0000
0000
1000
0010
0000
0100
0000
0000
0001
0100
0000
0010
0000
1000
0000
,
0002
0000
2003
0000
3010
0200
0302
2003
,
0000
3002
0203
0320
0000
1030
0200
0000
,
1300
0000
0000
1000
0010
0000
1000
0001
1000
0000
0100
0010
0000
0100
1000
0000
,
0M02
0000
0000
M203
0000
0000
0301
1000
0001
0000
0010
0100
0000
0010
0001
0000
,
2M00
0000
0000
302M
0000
0000
0130
0001
1000
0000
0001
0010
0000
0100
0010
0000
,
M000
0001
0M00
0000
01M0
0000
0020
0000
2030
0000
3002
0000
0023
0000
0000
0000
,
0031
0000
0000
0001
0010
0000
0001
1000
0001
0000
0100
0010
0000
0100
0001
0000
,
20M0
0000
0000
320M
0000
0000
1300
0001
1000
0000
0010
0100
0000
0010
1000
0000
,
0M02
0000
0000
M023
0000
0000
0130
1000
0001
0000
1000
0010
0000
0100
0010
0000
,
000M
1000
0M00
0000
01M0
0000
0020
0000
0032
0000
2003
0000
3020
0000
0000
0000
,
2030
3000
2000
3000
0100
0010
0001
0001
,
1000
0010
0100
0100
0001
0001
1000
0100
,
2000
3000
1000
0010
0100
0001
1000
0100
,
0010
0010
0100
1000
0001
0100
0020
0000
,
2030
3000
1000
1000
0010
0100
0100
0001
,
1000
0000
0100
0000
0010
0000
0001
0000
1000
0000
0010
0000
0100
0000
0001
1000
,
0002
0000
0013
0010
0100
1000
1000
0001
,
1000
0000
0010
0000
0100
0000
0001
0000
1000
0000
0001
0010
0001
0000
1000
0000
,
0010
0000
0000
0100
0000
0000
M202
0000
0303
0000
0001
0000
1000
0000
0001
0000
,
0010
0000
0000
0100
0000
0000
2000
0000
3002
0000
0103
0010
0100
0000
0001
0000
,
0010
0000
0000
0100
0000
0000
220M
0000
3300
0000
1000
0000
0010
0000
0100
0000
,
0001
0000
0000
0010
0000
0000
2M02
0000
3003
0000
0001
0000
0100
0000
0010
0000
,
1000
0000
0000
0001
0000
0000
M220
0000
0330
0000
1000
0000
0010
0000
0100
0000
,
0002
0000
0013
0200
0000
1300
0010
0100
,
0001
0000
0000
0010
0000
0000
0200
0000
2300
0000
3001
0100
0001
0000
1000
0000
,
0200
0000
0310
0002
0000
0103
0020
0000
,
1030
0000
0100
0000
1000
0020
0000
0230
,
0000
0302
0000
0023
0000
0230
0000
2300
,
0000
3020
0000
0030
0000
0200
0302
2003
,
0000
3200
2300
3002
0000
0103
0020
0000
,
0130
0000
0000
0100
0001
0000
1000
0000
0000
0100
1000
0000
0010
0000
0100
0000
,
0001
0000
0000
0001
0010
0000
0100
0000
0000
1000
0100
0000
0010
0000
0001
0000
,
2000
0000
3002
0000
0013
0200
2300
3002
,
0000
2003
3200
0320
0000
0031
0200
0000
,
0301
0000
0000
0001
0010
0000
0001
1000
0001
0000
0100
0010
0000
0100
0001
0000
,
20M0
0000
0000
320M
0000
0000
1300
0001
1000
0000
0010
0100
0000
0010
1000
0000
,
0M02
0000
0000
M023
0000
0000
0130
1000
0001
0000
1000
0010
0000
0100
0010
0000
,
000M
1000
0M00
0000
01M0
0000
0020
0000
0032
0000
2003
0000
3020
0000
0000
0000
,
1030
0000
0000
1000
0010
0000
1000
0001
1000
0000
0100
0010
0000
0100
1000
0000
,
00M2
0000
0000
M203
0000
0000
0301
1000
0001
0000
0010
0100
0000
0010
0001
0000
,
2M00
0000
0000
302M
0000
0000
0130
0001
1000
0000
0001
0010
0000
0100
0010
0000
,
M000
0001
0M00
0000
01M0
0000
0020
0000
2030
0000
3002
0000
0023
0000
0000
0000
,
0031
0000
0000
0001
0000
0000
0001
0000
0000
0000
0100
0000
0010
0000
1000
0000
,
0100
0000
0000
0100
0000
0000
0100
0000
0000
0000
0010
0000
0001
0000
0100
0000
,
0010
0000
0000
0010
0000
0000
0010
0000
0000
0000
1000
0000
0001
0000
0010
0000
,
0100
0000
0000
1000
0000
0000
0001
0000
0100
0000
0010
0000
1000
0000
0002
0000
,
0023
0000
0230
2300
3002
0000
0103
0010
,
2000
3010
0100
0001
2000
0000
3000
0001
,
0010
0001
0100
0100
0010
1000
0200
0000
,
1300
0000
0020
0000
0000
0000
0130
0001
1000
0000
0200
0000
0000
0000
1300
0000
,
0002
0000
0203
0320
2030
0000
3001
0010
,
0200
1300
0001
1000
0020
0000
0130
0100
,
0001
0010
0001
0001
2000
0000
3020
0000
,
0130
0000
0002
0000
0000
0000
1003
0100
1000
0000
0020
0000
0000
0000
0030
0000
,
0200
0000
0302
0000
0103
0001
1000
0200
,
0000
0320
0000
0130
1000
0001
0100
0020
,
0000
2030
0000
3002
0000
1003
0010
0200
,
0000
0301
0010
0200
0000
1300
0020
0000
,
0130
0000
0000
0100
0001
0000
1000
0000
0000
0100
1000
0000
0010
0000
0100
0000
,
0001
0000
0000
0001
0010
0000
0100
0000
0000
1000
0100
0000
0010
0000
0001
0000
,
2000
0000
3002
0000
0013
0200
2300
3002
,
0000
2003
3200
0320
0000
0031
0200
0000
,
0301
0000
0000
0001
0010
0000
0001
1000
0001
0000
0100
0010
0000
0100
0001
0000
,
20M0
0000
0000
320M
0000
0000
1300
0001
1000
0000
0010
0100
0000
0010
1000
0000
,
0M02
0000
0000
M023
0000
0000
0130
1000
0001
0000
1000
0010
0000
0100
0010
0000
,
000M
1000
0M00
0000
01M0
0000
0020
0000
0032
0000
2003
0000
3020
0000
0000
0000
,
1030
0000
0000
1000
0010
0000
1000
0001
1000
0000
0100
0010
0000
0100
1000
0000
,
00M0
0001
0M00
0000
M100
0000
0001
1000
0001
0000
0010
0100
0000
0010
0001
0000
,
0M00
1000
00M0
0000
001M
0000
0100
0001
1000
0000
0001
0010
0000
0100
0010
0000
,
M000
0001
0M00
0000
01M0
0000
0020
0000
2030
0000
3002
0000
0023
0000
0000
0000
,
0130
0000
1000
0100
1000
0000
0001
1000
0001
0000
0100
0001
0000
0100
0010
0000
,
1000
0000
0001
0100
0001
0000
1000
0001
1000
0000
0100
0010
0000
0100
1000
0000
,
0000
0010
0000
0100
0001
0000
1000
0100
1000
0000
0010
0100
0000
0001
1000
0000
,
00M0
0001
0M00
0000
M100
0000
0020
0000
0230
0000
0302
0000
2003
0000
3000
0000
;
