#TITLE:Collision;
#SUBTITLE:;
#ARTIST:Zafrece;
#TITLETRANSLIT:;
#SUBTITLETRANSLIT:;
#ARTISTTRANSLIT:;
#GENRE:;
#CREDIT:;
#BANNER:;
#BACKGROUND:;
#LYRICSPATH:;
#CDTITLE:;
#MUSIC:Zafrece - Collision.mp3;
#OFFSET:-0.040;
#SAMPLESTART:28.230;
#SAMPLELENGTH:12.000;
#SELECTABLE:YES;
#BPMS:0.000=170.000;
#STOPS:;
#BGCHANGES:;
#KEYSOUNDS:;

//---------------dance-single - C.Sanabria----------------
#NOTES:
     dance-single:
     C.Sanabria:
     Challenge:
     13:
     1.000,1.000,0.086,0.585,1.000:
0000
0000
0000
0000
,
0000
0000
0000
0000
,
0000
0000
0000
0000
,
0000
0000
0000
0000
,
0000
0000
0000
0000
,
0000
0000
0000
0000
,
0000
0000
0000
0000
,
0000
0000
0000
0000
,
1000
0100
1000
0010
0100
0001
0010
0100
,
1000
0010
1000
0100
0010
0001
0100
0001
,
0010
0100
1000
0010
1000
0001
0100
0010
,
1000
0000
0100
0000
100M
0000
0000
1M10
0000
0000
01M1
0000
0000
1M10
0000
0000
,
0101
0100
0010
1000
0100
0010
0001
0100
,
0001
0010
0100
1000
0010
0100
0001
1000
,
0001
0100
0010
1000
0100
0010
0001
0100
,
0001
0000
0010
0000
0001
0000
0000
11M0
0000
0000
0M11
0000
0000
M110
0000
0000
,
1100
1000
0010
0100
0001
0010
0100
1000
,
0100
0010
0100
0001
0100
1000
0010
0100
,
0001
0100
0010
1000
0100
0010
0001
0010
,
0100
0000
1000
0000
0010
1000
0001
0000
1000
0010
0100
0001
1000
0001
1000
0000
,
0100
0020
0001
0031
01M0
0010
1000
0002
,
0M00
0023
M000
2030
000M
3020
0M00
0031
,
1000
0020
0100
0130
00M1
0010
0100
2000
,
00M0
0000
0000
0000
3200
0000
0000
0000
001M
0000
0000
0000
0000
0000
0310
0000
0100
0000
0000
0000
100M
0000
0000
0000
0001
0000
0200
0000
0000
M000
0000
0000
,
0301
2000
0010
3010
M100
0001
0010
2000
,
0M00
3020
000M
0032
M000
0203
00M0
0310
,
1000
0200
0010
0310
0M01
1000
0010
0100
,
0001
0000
0001
0000
0010
0001
1000
0000
0100
1000
0001
0010
0001
1000
0100
0000
,
1000
0100
0010
0000
0001
0000
0010
0100
1000
0001
1000
0000
1000
0010
0100
0001
,
1000
0010
0100
0001
1000
0100
0010
0001
,
0100
0010
1000
0000
0001
0000
1000
0100
0010
0001
1000
0000
1000
0010
0100
0001
,
1000
0000
0000
0000
0100
0000
0000
0000
0020
0000
0000
0000
0000
0000
0130
0000
0010
0000
0000
0000
0001
0000
0000
0000
1000
0000
0020
0000
0000
0M00
0000
0000
,
0130
0001
1000
0000
0001
0000
1000
0100
0010
0001
1000
0000
1000
0001
0100
0010
,
0100
0001
1000
0001
0100
0010
1000
0001
,
0100
0010
1000
0000
0001
0000
0100
0001
1000
0001
0010
0000
0010
0100
1000
0001
,
1000
0000
0010
0000
0100
0001
1000
0000
0001
0010
0100
1000
0001
1000
0001
0000
,
1000
0100
1000
0000
1000
0100
0010
0001
0100
0001
0010
0000
0010
0100
1000
0100
,
0020
0000
0031
1000
0002
0000
0023
0000
0230
0000
1300
0001
2000
0000
3020
0000
,
1030
0100
1000
0000
0010
0000
1000
0010
0100
0001
1000
0000
1000
0100
0020
0000
,
M00M
0032
MM00
0203
M0M0
1300
0200
00M0
,
0301
0100
0010
0000
1000
0000
0010
0100
0001
1000
0001
0000
0001
0010
0100
1000
,
0010
0000
1000
0100
2000
0000
3020
0000
0230
0000
0301
0010
0002
0000
0203
0000
,
0310
1000
0001
0000
0100
0000
0001
1000
0100
0010
0100
0000
0100
1000
0002
0000
,
0MM0
0203
M0M0
0320
M00M
1030
0002
0M00
,
1003
0100
1000
0000
0001
0000
1000
0010
0100
0001
0010
0000
0010
0001
0100
0010
,
1000
0100
1000
0000
0010
0000
1000
0010
0100
0001
0010
0000
0010
0100
1000
0001
,
0010
0001
0100
0000
0010
0000
0100
0010
1000
0001
1000
0000
1000
0100
0010
0001
,
0010
0100
0010
0000
0001
0000
0010
0001
0100
0010
1000
0000
1000
0010
0100
0010
,
0100
0001
1000
0000
0010
0000
1000
0100
0010
0001
0100
0000
0100
0010
1000
0001
,
1000
0100
0010
0000
0001
0000
0010
0100
1000
0001
0100
0000
0100
0010
1000
0001
,
0010
0100
0010
0000
0100
0000
0010
0100
1000
0001
1000
0000
1000
0010
0100
0001
,
1000
0000
0100
0000
0010
0100
1000
0000
0001
0100
0010
0000
1000
0100
0010
0000
,
0001
0100
0010
1000
0100
1000
0010
0100
0001
0010
0001
0100
0010
1000
0100
1000
,
0010
0100
0001
1000
0001
0010
0100
1000
0010
1000
0100
0010
0001
0100
0001
1000
,
0001
0010
0100
1000
0010
1000
0001
0100
0010
1000
0100
1000
0001
0010
0001
0100
,
0010
1000
0100
1000
0010
0100
0001
1000
0001
0010
0100
1000
0010
0100
0010
1000
,
0001
0010
0100
1000
0010
1000
0100
0010
0001
0100
0001
1000
0010
0100
0001
0010
,
0100
1000
0010
0100
0001
0010
0100
0010
0001
0100
0010
1000
0100
1000
0010
0100
,
0001
0010
0100
1000
0010
1000
0100
0010
0001
0100
0010
1000
0100
0010
0001
0010
,
0100
1000
0001
0000
1000
0000
0010
0100
0001
0000
1000
0000
0001
0010
0100
0000
,
2000
0000
0000
0000
0000
0000
3020
0230
,
0000
0302
0000
2003
0000
0000
3200
0000
,
0000
0000
0320
0000
0000
0000
0032
0000
0000
0000
2003
0000
3020
0000
0130
0001
,
1000
0001
0020
0000
0000
0000
0230
0000
0000
0000
2300
0000
3002
0000
0000
0000
,
0003
000M
0002
0000
0003
000M
0002
0000
,
2003
0000
0000
0000
3020
0000
0230
0000
0301
1000
0001
0000
0200
0000
0320
0000
,
0030
00M0
0020
0000
0030
00M0
0020
0000
0130
0000
0001
0000
1000
0000
0100
0000
,
0010
0000
0200
0000
0000
1300
0001
0000
0100
0010
1000
0001
1000
0010
0100
0000
,
0001
0100
0010
0000
1000
0000
0010
0100
0001
1000
0001
0000
0001
0010
0100
1000
,
0001
0200
0000
0320
0000
2030
0000
3000
,
0001
0010
0100
0000
1000
0000
0100
1000
0001
1000
0010
0000
0010
0100
0001
1000
,
0001
2000
0000
3200
0000
0320
0000
0030
,
0100
1000
0001
0000
0010
0000
0001
1000
0010
0100
0001
0000
0001
0010
0100
1000
,
0001
0200
0000
0320
0000
2030
0000
3000
,
0001
1000
0010
0000
0100
0000
0010
1000
0001
1000
0100
0000
0100
0010
0001
1000
,
0010
0000
1010
0000
0000
1000
0001
0000
1000
0100
0010
0001
1000
0010
0100
0000
,
0001
0100
0001
0000
1000
0000
0001
0010
0100
1000
0010
0000
0010
1000
0100
0010
,
0001
0100
0001
0000
1000
0000
0001
0010
0100
1000
0010
0000
0010
0100
0001
1000
,
0010
1000
0100
0000
0010
0000
0100
0010
0001
1000
0001
0000
0001
0100
0010
1000
,
0010
0100
0010
0000
1000
0000
0010
1000
0100
0010
0001
0000
0001
0010
0100
0010
,
0100
1000
0001
0000
1000
0000
0001
0100
0010
1000
0100
0000
0100
0010
0001
1000
,
0001
0100
0010
0000
1000
0000
0010
0100
0001
1000
0100
0000
0100
0010
0001
1000
,
0010
0100
0010
0000
0100
0000
0010
0100
0001
1000
0001
0000
0001
0010
0100
1000
,
0001
0100
0001
0000
1000
0000
0001
0010
0100
1000
0001
1000
0010
1000
0001
0000
,
0001
0100
0001
0000
0001
0100
0010
1000
0100
1000
0010
0000
0010
0100
0001
0100
,
0020
0000
1030
0001
2000
0000
3020
0000
0230
0000
0301
1000
0002
0000
0023
0000
,
0031
0100
0001
0000
1000
0000
0001
0010
0100
1000
0001
0000
0001
0100
0020
0000
,
M00M
2030
0M0M
3200
00MM
0301
0200
00M0
,
1300
0100
0010
0000
0001
0000
0010
0100
1000
0001
1000
0000
1000
0010
0100
0001
,
0010
0000
0001
0100
0002
0000
0023
0000
0230
0000
1300
0010
2000
0000
3200
0000
,
0310
0001
1000
0000
0001
0000
1000
0001
0100
0010
0100
0000
0100
0001
2000
0000
,
0MM0
3200
00MM
0320
M00M
0031
2000
0M00
,
3010
0100
0001
0000
0010
0000
0001
0010
0001
0100
0010
0000
0010
1000
0100
1000
,
0001
0010
0100
0000
1000
0000
0100
0010
0001
1000
0010
0000
0010
1000
0001
1000
,
0100
0010
0001
0000
0100
0000
0001
0100
0010
1000
0100
0000
0100
1000
0010
0100
,
0001
0010
0001
0000
1000
0000
0001
1000
0100
0010
0100
0000
0100
0010
0100
0010
,
0001
0100
0010
0000
1000
0000
0010
1000
0100
1000
0010
0000
0010
0100
0001
1000
,
0001
0010
0100
0000
1000
0000
0100
1000
0010
0100
0001
0000
0001
0010
0001
0100
,
0010
1000
0001
0000
0100
0000
0001
1000
0100
0010
0100
0000
0100
1000
0010
0100
,
0001
0000
1000
0000
0100
0010
0100
0000
1000
0010
0100
0001
1000
0100
0010
0000
,
0100
1000
0001
0000
0010
0000
0001
1000
0100
0000
1000
0000
0100
0010
0001
1000
,
0001
0101
1010
1001
,
0010
1000
0001
0000
0100
0000
0001
1000
0100
0000
0010
0000
0100
0010
0001
1000
,
0001
1100
0011
1001
,
0001
0100
0001
0000
0010
0000
0001
0010
0100
0000
1000
0000
0100
1000
0001
1000
,
0010
1000
0001
0000
0100
0000
0001
0010
0100
0000
1000
0000
0100
1000
0001
1000
,
0010
0100
0001
0000
0010
0000
0001
1000
0010
0000
0100
0000
0010
0100
0001
1000
,
0100
0000
1000
0000
0001
0010
0100
0000
1000
0010
0100
0001
1000
0001
1000
0000
,
0001
0010
0100
1000
0010
1000
0100
0010
0001
0100
0001
0010
0100
1000
0010
1000
,
0100
0010
0001
1000
0001
0100
0010
1000
0100
1000
0010
0100
0001
0010
0001
1000
,
0001
0100
0010
1000
0100
1000
0001
0010
0100
1000
0010
1000
0001
0100
0001
0010
,
0100
1000
0010
1000
0100
0010
0001
1000
0001
0100
0010
1000
0100
0010
0100
1000
,
0001
0100
0010
1000
0100
1000
0010
0100
0001
0010
0001
1000
0100
0010
0001
0100
,
0010
1000
0100
0010
0001
0100
0010
0100
0001
0010
0100
1000
0010
1000
0100
0010
,
0001
0100
0010
1000
0100
1000
0010
0100
0001
0010
0100
1000
0010
0100
0001
0100
,
0010
1000
0100
1000
0001
0010
0001
0100
0010
1000
0100
1000
0010
0100
0001
0010
,
0001
0100
0010
1000
0001
0100
0010
2000
,
0000
3200
0000
0320
0000
0032
1000
0003
,
1000
0100
0010
0001
1000
0100
0010
0002
,
0000
0203
0000
0320
0000
2030
0001
3000
,
1000
0010
0100
0001
0010
0100
1000
0002
,
0000
0203
0000
0320
0000
2030
0001
3000
,
0001
0100
0010
1000
0100
0010
0001
1000
,
0110
0000
1001
0000
1000
0001
1000
0000
0001
0010
0100
1000
0001
0100
0010
0000
,
1000
0100
0010
0100
1000
0001
0010
0100
1000
0100
0010
0001
1000
0100
0010
0001
,
1000
0010
0100
0010
1000
0001
0100
0010
1000
0100
0010
0001
1000
0100
0010
0001
,
1000
0010
1000
0001
0100
0001
0010
0100
1000
0010
0100
0001
1000
0010
0100
0001
,
1000
0100
1000
0001
0010
0001
0100
0010
1000
0100
0010
0001
0010
0100
1000
0001
,
1000
0010
1000
0010
0100
0001
1000
0001
0010
0001
0010
0001
1000
0100
1000
0100
,
0010
0001
1000
0001
0100
0010
1000
0001
1000
0100
0010
0001
1000
0100
0010
0001
,
1000
0010
0100
0001
0100
0010
1000
0001
1000
0100
0010
0001
1000
0100
1000
0001
,
1000
0100
1000
0001
0100
0010
1000
0100
1000
0001
0010
0001
0100
0010
1000
0001
,
2000
0000
0000
0000
0000
0000
3200
0320
,
0000
0032
0000
2003
0000
0000
3020
0000
,
0000
0000
0230
0000
0000
0000
0302
0000
0000
0000
2003
0000
3200
0000
0310
0001
,
1000
0001
0200
0000
0000
0000
0320
0000
0000
0000
2030
0000
3002
0000
0000
0000
,
0003
000M
0002
0000
0003
000M
0002
0000
,
2003
0000
0000
0000
3200
0000
0320
0000
0031
1000
0001
0000
0020
0000
0230
0000
,
0300
0M00
0200
0000
0300
0M00
0200
0000
0320
0000
0032
0000
2003
0000
0000
0000
,
3001
0000
0100
0000
0010
1000
0001
1000
0010
0100
0001
1000
0001
1000
0001
0000
,
1000
0100
0010
0000
0001
0000
0010
0100
1000
0000
1000
0010
0100
0001
1000
0010
,
0100
0001
1000
0000
0001
0000
1000
0100
0010
0000
0010
0001
1000
0001
0100
0000
,
0100
0010
1000
0000
0100
0000
1000
0001
0010
0000
0010
0100
1000
0001
1000
0010
,
0100
0001
0010
0000
0100
0000
0010
0100
1000
0001
1000
0000
0010
0100
0001
0000
,
1000
0010
0100
0000
0001
0000
0100
0010
1000
0000
1000
0100
0010
0001
1000
0100
,
0010
0001
1000
0000
0001
0000
1000
0010
0100
0000
0100
0001
1000
0001
0010
0000
,
0010
0100
1000
0000
0010
0000
1000
0001
0100
0000
0100
0010
1000
0001
1000
0000
,
1001
0000
0110
0000
0010
0001
0100
0010
1000
0100
1000
0010
0100
0001
0010
0000
,
0001
0100
0010
0100
0001
1000
0010
0100
0001
0100
0010
1000
0001
0100
0010
1000
,
0001
0010
0100
0010
0001
1000
0100
0010
0001
0100
0010
1000
0001
0100
0010
1000
,
0001
0010
0001
1000
0100
1000
0010
0100
0001
0010
0100
1000
0001
0010
0100
1000
,
0001
0100
0001
1000
0010
1000
0100
0010
0001
0100
0010
1000
0010
0100
0001
1000
,
0001
0010
0001
0010
0100
1000
0001
1000
0010
1000
0010
1000
0001
0100
0001
0100
,
0010
1000
0001
1000
0100
0010
0001
1000
0001
0100
0010
1000
0001
0100
0010
1000
,
0001
0010
0100
1000
0100
0010
0001
1000
0001
0100
0010
1000
0001
0100
0001
1000
,
0001
0100
0001
1000
0100
0010
0001
0100
0001
1000
0010
1000
0100
0010
0001
1000
,
0020
0000
1030
0001
1000
0000
0200
0000
1300
0001
1000
0000
0020
0000
1030
0001
,
1000
0200
0300
0000
0000
0000
0000
0000
;
