#TITLE:Cafe con Classe;
#SUBTITLE:;
#ARTIST:Synthapse;
#TITLETRANSLIT:;
#SUBTITLETRANSLIT:;
#ARTISTTRANSLIT:;
#GENRE:;
#CREDIT:;
#BANNER:;
#BACKGROUND:;
#LYRICSPATH:;
#CDTITLE:;
#MUSIC:Synthapse - Cafe con Classe.mp3;
#OFFSET:-0.020;
#SAMPLESTART:30.770;
#SAMPLELENGTH:12.000;
#SELECTABLE:YES;
#BPMS:0.000=121.000;
#STOPS:;
#BGCHANGES:;
#KEYSOUNDS:;

//---------------dance-single - C.Sanabria----------------
#NOTES:
     dance-single:
     C.Sanabria:
     Challenge:
     11:
     0.699,0.753,0.028,0.748,1.000:
0000
0000
0000
0000
,
0000
0000
0000
0000
,
1010
0000
0000
0100
0001
0000
1000
0000
1010
0000
0000
0001
0100
0000
0010
0000
,
1010
0000
0000
0000
0000
0000
0000
0000
0000
0100
0000
0000
0001
0000
0000
0000
0000
0000
1000
0000
0000
0000
0000
0000
0001
0000
0000
0010
0000
0000
0100
0000
0000
1000
0000
0000
0001
0000
1000
0000
0001
0000
1000
0000
0001
0000
1000
0000
,
0001
0000
0000
1000
0010
0000
0100
0000
0101
0000
0000
0010
1000
0000
0001
0000
,
0101
0000
0000
1000
0010
0000
0100
0000
0101
0000
0000
0010
1000
0000
0001
0001
,
0020
0230
2300
3002
0023
0230
2300
3002
,
0203
0000
0000
0000
0000
0000
0000
0000
0300
0000
0M00
0000
0200
0000
0000
0000
0000
0000
0000
0000
0300
0000
0000
0000
0100
0000
0000
0001
0000
0000
1000
0000
0000
0010
0000
0000
0100
0000
0000
0001
0000
0000
1000
0000
0000
0010
0000
0000
,
0100
0010
0000
0010
1000
0000
1000
0001
0000
0001
0010
0000
0010
0100
0010
0002
,
0000
0000
0000
0000
1003
0000
0200
0000
0000
0000
0310
0000
0100
00M0
0100
0000
0001
0000
1000
0000
0100
0000
0010
0000
0000
0000
0100
1000
0100
0000
1000
0000
,
0001
0000
0100
000M
0100
0000
1000
0000
0100
M000
0100
0000
0001
0000
0100
000M
0100
0000
1000
0000
0100
M000
0100
0000
0001
0000
1000
0010
1000
0000
0001
0000
,
0100
0010
0100
0010
1000
0001
1000
0200
0000
0000
0320
0000
0000
0032
0000
0000
,
1003
0000
1000
0100
0000
0100
0010
0000
0010
0001
0000
0001
0100
0010
1000
0002
,
0000
0000
0000
0000
1003
0000
0020
0000
0000
0000
0130
0000
0010
0M00
0010
0000
0001
0000
1000
0000
0010
0000
0100
0000
0000
0000
0001
0010
0001
0000
0010
0000
,
0100
0000
1000
0000
0100
M000
0100
0000
0001
0000
0100
000M
0100
0000
1000
0000
0100
M000
0100
0000
0001
0000
0010
0000
0100
0000
1000
0100
1000
0000
0100
0000
,
0010
0001
1000
0010
0100
0001
1000
0200
0000
0000
2300
0000
0000
3002
0000
0000
,
0013
0100
0000
0100
1000
0000
1000
0001
0000
0001
0100
0000
0100
0010
0100
0002
,
0000
0000
0000
0000
1003
0000
0020
0000
0000
0000
0130
0000
0010
0M00
0010
0000
0001
0000
1000
0000
0010
0000
0100
0000
0000
0000
0001
0100
0001
0000
0100
0000
,
0001
0000
0010
000M
0010
0000
1000
0000
0010
M000
0010
0000
0001
0000
0010
000M
0010
0000
1000
0000
0010
M000
0010
0000
0001
0000
1000
0100
1000
0000
0001
0000
,
0010
0100
0010
0100
1000
0001
1000
0020
0000
0000
0230
0000
0000
0302
0000
0000
,
1003
0000
1000
0010
0000
0010
0100
0000
0100
0001
0000
0001
0010
0100
1000
0002
,
0000
0000
0000
0000
1003
0000
0200
0000
0000
0000
0310
0000
0100
00M0
0100
0000
0001
0000
1000
0000
0100
0000
0010
0000
0000
0000
0001
0100
0001
0000
0100
0000
,
0010
0000
1000
0000
0010
M000
0010
0000
0001
0000
0010
000M
0010
0000
1000
0000
0010
M000
0010
0000
0001
0000
0100
0000
0010
0000
1000
0010
1000
0000
0010
0000
,
0100
0001
1000
0100
0010
0001
1000
0020
0000
0000
2030
0000
0000
3002
0000
0000
,
1003
0000
0010
0000
0000
0000
1000
0000
0001
0000
0000
0000
1000
0000
0200
0000
0000
0000
0310
0000
0100
00M0
0100
0000
0001
0000
1000
0000
0001
0000
0020
0000
,
0000
0000
0000
0000
0130
0000
2000
0000
0000
0000
3001
0000
0100
000M
0100
0000
0010
0000
0100
0000
1000
0000
0001
0000
0000
0000
1000
0001
1000
0000
0100
M000
,
0100
0000
0001
0000
0010
000M
0010
0000
1000
0000
0100
M000
0100
0000
0010
0000
0100
00M0
0100
0000
0010
0000
0001
0000
0100
0000
0010
0000
1000
0000
0100
0000
,
0010
0000
0001
0000
0100
0000
0010
0000
1000
0000
0001
0000
1000
0000
1001
0000
0000
0000
0001
0000
0010
0000
0100
0000
2000
0000
0002
0003
0000
0000
0002
3003
,
1000
0100
0010
0100
0000
0100
2000
0000
0000
3001
0200
0000
0310
1000
0010
0200
,
0000
0000
0000
0000
0301
0000
0020
0000
0000
0000
0031
0000
0100
000M
0100
0000
0010
0000
0001
0000
1000
0000
0100
0000
0000
0000
0010
0001
0010
0000
0100
00M0
,
0100
0000
0001
0000
0100
000M
0100
0000
1000
0000
0100
M000
0100
0000
0001
0000
0100
000M
0100
0000
1000
0000
0100
0000
0010
0000
0001
1000
0001
0000
0100
0000
,
0010
1000
0001
0100
0010
0100
0001
2000
3000
0002
0103
0000
0200
0310
0000
0020
,
1030
0100
1000
0100
0010
0100
0010
0100
0001
0100
0001
0100
0010
0100
0010
0100
,
1000
0010
0100
0001
1000
0010
0100
0001
1000
0100
0010
0001
1000
0100
0001
0100
,
1000
0000
0010
0000
0100
0000
0010
0M00
0010
0000
0001
0000
0010
0000
0100
0000
1000
0000
0010
0000
1000
0000
0001
0000
1000
0000
0001
0000
0010
0000
0100
0000
,
1000
0010
0100
0001
1000
0100
0010
0100
1000
0001
0000
0001
1000
0010
0100
0001
,
1000
0100
1000
0000
0100
0000
1000
0000
0100
0010
0100
0000
0010
0000
0100
0000
0001
0100
0001
0000
0100
0000
0001
0000
0100
0010
0100
0000
0010
0000
0100
0000
,
1000
0000
0010
0000
0100
0000
0001
0000
1000
0000
0000
0010
0100
0000
0001
0000
1000
0000
0100
0000
0010
0000
0001
0000
1000
0000
0000
1000
0001
0000
0010
0000
,
0100
1000
0001
0100
0010
1000
0001
1000
0100
0010
0001
0010
0100
1000
0010
0100
,
0001
0010
0100
1000
0001
0010
0100
1000
0002
0200
0000
0000
0303
0000
0000
0000
,
1000
0000
0000
0010
0000
0000
1000
0000
0001
0100
0001
0100
0001
0000
1000
0000
0100
0000
0000
0010
0000
0000
0001
0000
1000
0100
1000
0100
1000
0000
0001
0000
,
1000
0010
0100
0001
2000
3020
0230
0302
2003
3200
0320
0230
2300
3002
0203
0320
,
1030
0000
0000
0100
0010
0000
0001
0000
1000
0000
0100
0000
0010
0000
0001
0000
1000
0000
0100
0000
0010
0000
0100
0000
1000
0000
0001
0000
0100
0000
0010
0000
,
1000
0100
1000
0100
0010
0001
0010
0001
1000
0100
0000
0200
0020
0000
0330
0000
,
0001
0000
0000
0100
0000
0000
0010
0000
1000
0001
1000
0001
1000
0000
0100
0000
1000
0000
0000
0100
0000
0000
0010
0000
0001
1000
0001
1000
0001
0000
0100
0000
,
0010
1000
0001
0100
0020
2030
3002
0203
0320
2030
3002
2003
3200
0320
0032
2003
,
3001
0000
0000
0100
0001
0000
1000
0000
0010
0000
0100
0000
0010
0000
0100
0000
0001
0000
1000
0000
0001
0000
1000
0000
0100
0000
0010
0000
0100
0000
1000
0000
,
0001
0100
0010
1000
0001
0010
0100
1000
0001
0100
0000
0002
2000
0000
3003
0000
,
0001
0000
0010
0000
0000
0000
0001
0000
1000
0000
0000
0000
0001
0000
0200
0000
0000
0000
0310
0000
0100
00M0
0100
0000
1000
0000
0001
0000
1000
0000
0020
0000
,
0000
0000
0000
0000
0130
0000
0002
0000
0000
0000
1003
0000
0100
M000
0100
0000
0010
0000
0100
0000
0001
0000
1000
0000
0000
0000
0001
1000
0001
0000
0100
000M
,
0100
0000
1000
0000
0010
M000
0010
0000
0001
0000
0100
000M
0100
0000
0010
0000
0100
00M0
0100
0000
0010
0000
1000
0000
0100
0000
0010
0000
0001
0000
0100
0000
,
0010
1000
0100
0010
0001
1000
0001
0020
0000
0000
0230
0000
0000
2300
0000
0000
,
3001
0000
0010
0000
0000
0000
0001
0000
1000
0000
0000
0000
0001
0000
0200
0000
0000
0000
0310
0000
0100
00M0
0100
0000
1000
0000
0001
0000
1000
0000
0020
0000
,
0000
0000
0000
0000
0130
0000
0002
0000
0000
0000
1003
0000
0100
M000
0100
0000
0010
0000
0100
0000
0001
0000
1000
0000
0000
0000
0001
1000
0001
0000
0100
000M
,
0100
0000
1000
0000
0010
M000
0010
0000
0001
0000
0100
000M
0100
0000
0010
0000
0100
00M0
0100
0000
0010
0000
1000
0000
0100
0000
0010
0000
0001
0000
0100
0000
,
0010
1000
0100
0010
0001
1000
0001
1000
0020
0230
0320
0230
0302
2000
0000
3003
,
0001
0000
0100
0000
0000
0000
0010
0000
1000
0000
0000
0M00
0000
0000
1000
0000
0000
000M
0000
0000
0000
0000
0100
0000
0010
0000
0000
M000
0001
0000
0000
0000
,
0M00
0000
0001
0000
0000
0000
0100
0000
0010
0000
0000
000M
0000
0000
1000
0000
0000
0000
0M00
0000
0000
0000
1000
0000
0100
0000
000M
0000
0100
0000
0000
0000
,
0000
0000
0010
0000
0000
0M00
0001
0000
1000
0000
0000
0M00
0000
0000
0010
0000
0000
0000
0000
000M
0000
0000
1000
0000
0001
0M00
0000
0000
0010
0000
0000
0000
,
M000
0000
0010
0000
0000
0000
0001
0000
0100
0000
0000
00M0
0000
0000
0010
0000
0000
M000
0000
0000
0000
0000
1000
0000
0100
0000
000M
0000
0100
0000
0000
0000
,
0010
0000
0001
0000
0010
0000
0200
0000
0000
0000
0310
0M00
0010
0000
2000
0000
0000
0000
0000
0000
3010
0000
1000
0000
0010
0000
0100
0000
0001
0000
0000
0000
,
0002
0000
0000
0023
0000
0000
0230
0000
0000
2300
0000
0000
3020
0000
0000
0230
0000
0000
0302
0000
0000
0023
0000
0000
0230
0000
0000
0000
2300
0000
0000
0000
3002
0000
0000
0000
0203
0000
0000
0000
0000
0000
0000
0000
0000
0000
0000
0000
,
0302
0000
0013
0100
2000
0000
3010
0100
0002
0000
0013
0100
1000
0001
1000
0010
,
0100
0000
0000
0001
0000
0000
0100
0000
0000
0010
0000
0000
1000
0000
0000
0010
0000
0000
0100
0000
0000
0001
0000
0000
1000
0000
0000
0000
0100
0000
0000
0000
0010
0000
0000
0000
0002
0000
0000
0000
0000
0000
0000
0000
0000
0000
0000
0000
,
1003
0000
0010
0000
1000
0000
0002
0000
0000
0000
0103
000M
0100
0000
0020
0000
0000
0000
0000
0000
0130
0000
1000
0000
0001
0000
1000
0000
0200
0000
0000
0000
,
0310
0000
0000
0001
0000
0000
0010
0000
0000
0100
0000
0000
1000
0000
0000
0001
0000
0000
1000
0000
0000
0100
0000
0000
0010
0000
0000
0000
0001
0000
0000
0000
1000
0000
0000
0000
0020
0000
0000
0000
0000
0000
0000
0000
0000
0000
0000
0000
,
2030
0000
3100
0010
0002
0000
0103
0010
2000
0000
3100
0010
0001
1000
0001
0010
,
0100
0000
0000
1000
0000
0000
0001
0000
0000
1000
0000
0000
0010
0000
0000
0100
0000
0000
0001
0000
0000
1000
0000
0000
0001
0000
0000
0000
0010
0000
0000
0000
0100
0000
0000
0000
1000
0000
0000
0010
0000
0000
0100
0000
0000
0001
0000
0000
,
1000
0000
0100
0000
1000
0000
0020
0000
0000
0000
0130
00M0
0100
0000
1000
0000
0002
0000
0203
0000
0310
0000
1000
0000
0001
0000
1000
0000
0200
0000
0000
0000
,
0310
0000
0000
0100
0000
0000
1000
0000
0000
0001
0000
0000
1000
0000
0000
0010
0000
0000
0100
0000
0000
0001
0000
0000
1000
0000
0000
0000
0100
0000
0000
0000
0010
0000
0000
0000
0002
0000
0000
0000
0000
0000
0000
0000
0000
0000
0000
0000
,
2003
0000
3010
0100
0002
0000
0013
0100
2000
0000
3010
0100
0002
2003
3001
0100
,
0020
0000
1030
0100
0020
0000
0031
0100
0020
0000
1030
0100
0010
0001
0010
0100
,
1000
0010
0100
0001
0000
0001
0100
0020
0000
0000
1030
0100
0010
0001
1000
0000
,
0002
0000
0000
0023
0000
0000
0230
0000
0000
0320
0000
0000
0032
0000
0000
1003
0000
0000
0002
0000
0000
0103
0000
0000
0010
0000
0000
0000
1000
0000
0000
0000
0001
0000
0000
0000
2000
0000
0000
0000
0000
0000
0000
0000
0000
0000
0000
0000
,
3200
0000
0000
0000
0000
0000
0310
0000
0000
0001
0000
0000
0200
0000
0000
0000
0000
0000
0310
0000
0000
1000
0000
0000
0200
0000
0000
0000
0000
0000
0310
0000
0000
0001
0000
0000
0200
0000
0000
0000
0000
0320
0000
0000
0000
0000
0000
0000
,
0230
0000
0301
0010
0200
0000
1300
0010
0200
0000
0301
0010
0200
0000
2300
0000
,
3001
0100
0001
1000
0000
1000
0100
0020
0000
0000
0031
0100
0010
1000
0001
0000
,
2000
0000
0000
3200
0000
0000
0320
0000
0000
0230
0000
0000
2300
0000
0000
3001
0000
0000
2000
0000
0000
3100
0000
0000
1000
0000
0000
0000
0010
0000
0000
0000
0100
0000
0000
0000
0002
0000
0000
0000
0000
0000
0000
0000
0000
0000
0000
0000
,
1003
0000
0000
0000
0000
0000
0010
0000
0000
1000
0000
0000
0010
0000
0000
0000
0000
0000
1000
0000
0000
0100
0000
0000
1000
0000
0000
0000
0000
0000
0100
0000
0000
0010
0000
0000
0200
0000
0000
0000
0000
0320
0000
0000
0000
0000
0000
0000
,
0031
0000
0010
0001
0010
0000
0001
0100
0001
0000
0100
0010
0200
0000
0320
0000
,
1030
0000
0100
0000
1000
0000
0002
0000
0000
0000
0103
000M
0100
0000
1000
0000
0002
0000
0203
0000
0320
0000
2030
0000
3000
0000
0001
0000
0100
0000
0000
0000
,
0002
0000
0000
0203
0000
0000
0320
0000
0000
2030
0000
0000
3002
0000
0000
0013
0000
0000
0200
0000
0000
0310
0000
0000
0001
0000
0000
0000
0100
0000
0000
0000
0010
0000
0000
0000
1000
0000
0000
0100
0000
0000
0010
0000
0000
0001
0000
0000
,
1000
0000
0010
1000
0010
0000
1000
0001
1000
0000
0100
0010
0200
0000
0310
0001
,
1000
0000
0010
1000
0010
0000
0100
0001
0100
0000
0001
1000
0002
0000
0013
0100
,
1000
0000
0010
0000
1000
0000
0002
0000
0000
0000
0103
000M
0100
0000
1000
0000
0002
0000
0023
0000
0230
0000
2300
0000
3000
0000
0001
0000
0100
0000
0000
0000
,
0100
0000
0000
0001
0000
0000
1000
0000
0000
0010
0000
0000
0100
0000
0000
0001
0000
0000
1000
0000
0000
0010
0000
0000
0100
0000
0000
0000
0001
0000
0000
0000
1000
0000
0000
0000
0100
0000
0000
0020
0000
0000
0230
0000
0000
2300
0000
0000
,
3002
0000
1003
0010
1000
0000
0001
0100
0001
0000
1000
0100
1000
0000
0002
0023
,
0130
0000
1000
0010
1000
0000
0001
0010
0001
0000
1000
0100
1000
0000
0001
0100
,
0001
0010
0100
1000
0000
1000
0100
0020
0000
0000
0031
0100
0010
1000
0001
0000
,
2000
0000
0000
3020
0000
0000
0230
0000
0000
0320
0000
0000
2030
0000
0000
3001
0000
0000
2000
0000
0000
3100
0000
0000
0010
0000
0000
0000
0001
0000
0000
0000
1000
0000
0000
0000
0002
0000
0000
0000
0000
0000
0000
0000
0000
0000
0000
0000
,
0203
0000
0000
0000
0000
0000
0310
0000
0000
1000
0000
0000
0200
0000
0000
0000
0000
0000
0310
0000
0000
0001
0000
0000
0200
0000
0000
0000
0000
0000
0310
0000
0000
1000
0000
0000
0200
0000
0000
0000
0000
0320
0000
0000
0000
0000
0000
0000
,
0230
0000
1300
0010
0200
0000
0301
0010
0200
0000
1300
0010
0200
0000
0302
0000
,
1003
0100
1000
0001
0000
0001
0100
0020
0000
0000
1030
0100
0010
0001
1000
0000
,
0002
0000
0000
0203
0000
0000
0320
0000
0000
0230
0000
0000
0302
0000
0000
1003
0000
0000
0002
0000
0000
0103
0000
0000
0001
0000
0000
0000
0010
0000
0000
0000
0100
0000
0000
0000
2000
0000
0000
0000
0000
0000
0000
0000
0000
0000
0000
0000
,
3001
0000
0000
0000
0000
0000
0010
0000
0000
0001
0000
0000
0010
0000
0000
0000
0000
0000
0001
0000
0000
0100
0000
0000
0001
0000
0000
0000
0000
0000
0100
0000
0000
0010
0000
0000
0200
0000
0000
0000
0000
0320
0000
0000
0000
0000
0000
0000
,
1030
0000
0010
1000
0010
0000
1000
0100
1000
0000
0100
0010
0200
0000
0320
0000
,
0031
0000
0100
0000
0001
0000
2000
0000
0000
0000
3100
M000
0100
0000
0001
0000
2000
0000
3200
0000
0320
0000
0032
0000
0003
0000
1000
0000
0100
0000
0000
0000
,
2000
0000
0000
3200
0000
0000
0320
0000
0000
0032
0000
0000
2003
0000
0000
3010
0000
0000
0200
0000
0000
0310
0000
0000
1000
0000
0000
0000
0100
0000
0000
0000
0010
0000
0000
0000
0001
0000
0000
0100
0000
0000
0010
0000
0000
1000
0000
0000
,
0001
0000
0010
0001
0010
0000
0001
1000
0001
0000
0100
0010
0200
0000
0310
1000
,
0001
0000
0010
0001
0010
0000
0100
1000
0100
0000
1000
0001
2000
0000
3010
0100
,
0001
0000
0010
0000
0001
0000
2000
0000
0000
0000
3100
M000
0100
0000
0001
0000
2000
0000
3020
0000
0230
0000
0302
0000
0003
0000
1000
0000
0100
0000
0000
0000
,
0100
0000
0000
1000
0000
0000
0001
0000
0000
0010
0000
0000
0100
0000
0000
1000
0000
0000
0001
0000
0000
0010
0000
0000
0100
0000
0000
0000
1000
0000
0000
0000
0001
0000
0000
0000
0100
0000
0000
0020
0000
0000
0230
0000
0000
0302
0000
0000
,
2003
0000
3001
0010
0001
0000
1000
0100
1000
0000
0001
0100
0001
0000
2000
3020
,
0130
0000
0001
0010
0001
0000
1000
0010
1000
0000
0001
0100
0001
0000
1000
0001
,
1000
0100
0010
0001
1000
0000
2200
3300
0022
0033
0000
0000
0000
0000
0000
0000
;
