#TITLE:Break Down;
#SUBTITLE:;
#ARTIST:Super Junior M;
#TITLETRANSLIT:;
#SUBTITLETRANSLIT:;
#ARTISTTRANSLIT:;
#GENRE:;
#CREDIT:;
#BANNER:breakdown-bn.png;
#BACKGROUND:breakdown-bg.png;
#LYRICSPATH:;
#CDTITLE:;
#MUSIC:Super Junior M - BREAK DOWN.ogg;
#OFFSET:-1.290;
#SAMPLESTART:34.770;
#SAMPLELENGTH:12.000;
#SELECTABLE:YES;
#DISPLAYBPM:65.000:130.000;
#BPMS:0.000=130.000,72.000=65.000,74.000=130.000,106.000=65.000,106.500=130.000,107.500=65.000,108.000=520.000,109.000=130.000,129.000=65.000,133.000=130.000,193.000=65.000,195.000=130.000,227.000=65.000,227.500=130.000,228.500=65.000,229.000=520.000,230.000=130.000,250.000=65.000,288.000=130.000,316.000=65.000,318.000=130.000,374.000=65.000;
#STOPS:108.000=0.160
,108.500=0.190
,229.000=0.160
,229.500=0.190
;
#BGCHANGES:0.000=breakdown-bg.png=1.000=0=0=0=StretchNoLoop====,
4.000=Super Junior M - Break Down.avi=1.000=1=0=1===CrossFade==,
378.000=breakdown-bg.png=1.000=0=0=1=====,
99999=-nosongbg-=1.000=0=0=0 // don't automatically add -songbackground-
;
#KEYSOUNDS:;

//---------------dance-single - C.Sanabria----------------
#NOTES:
     dance-single:
     C.Sanabria:
     Challenge:
     10:
     0.671,0.939,0.119,0.505,0.576:
0000
0000
0000
0000
,
0000
0000
0000
0000
,
0000
0000
0000
0000
,
1000
0100
1000
0001
0001
0010
0100
0010
,
0001
0100
0001
1000
1000
0010
0100
0010
,
1000
0100
1000
0010
0010
0100
0001
1000
,
0001
0100
0001
0010
0010
0100
1000
0001
,
1000
0010
2000
0100
3100
1000
0010
0100
,
0001
0010
0002
0100
0103
0001
0010
0100
,
1000
0010
0100
00M4
M000
0013
0100
1000
,
0001
0100
0010
4M00
000M
3100
0010
0001
,
2000
0000
3010
M000
1000
0100
1100
1000
,
0020
0100
0130
0001
000M
0001
0100
0010
,
1000
0001
0010
02M0
0010
0310
0001
1000
,
0001
0100
0010
1000
0001
0200
0320
2030
,
3002
0000
0023
0000
0230
0000
1300
0002
,
0000
0000
0203
0000
0320
0000
1030
0001
,
1000
0000
0000
0100
0000
0000
1000
0000
0000
0001
0000
0000
0100
0000
0000
0010
0000
0000
1000
0000
0000
0001
0000
0000
1000
0000
0000
0100
0000
0000
1000
0000
0000
0001
0000
0000
0100
0000
0010
0000
1000
0000
0001
0000
1000
0000
0001
0000
,
2000
30M0
0M00
000M
M000
000M
0M00
00M0
1000
0000
0100
0000
0010
0000
0001
0000
,
1000
0000
0010
1000
0000
0001
0100
0000
0010
1000
0000
0001
1000
0000
0000
0001
0000
0000
0010
0000
0000
0100
0000
0000
,
1000
0000
0010
0000
0100
0000
0001
0000
0000
1000
0000
0000
0100
0000
0000
0010
0000
0000
0001
0000
0000
1000
0000
0000
0002
0000
0000
0000
0000
0000
0000
0000
0000
0000
0000
0000
0203
0000
0000
0000
0000
0000
0000
0000
0000
0000
0000
0000
,
0320
0000
1030
0100
1000
0010
1000
0100
,
0010
0001
0100
0001
0201
000M
0301
0100
,
0010
1000
0100
1000
1200
M000
1300
0001
,
1000
0000
0010
0000
0100
0000
0002
0000
0003
000M
0002
0000
0003
000M
0002
0000
,
0003
000M
0002
0000
0003
000M
0002
0000
0003
000M
0002
0000
1003
0000
0100
0000
,
1000
0000
0001
0000
1000
0000
0001
0000
0000
0010
0000
0000
0100
0000
0000
1000
0000
0000
0001
0000
0000
1000
0000
0000
0001
0000
0000
0000
0000
0000
1MM1
0000
0000
0000
0000
0000
0M01
0000
0000
0000
0000
0000
M020
0000
0000
0000
0000
0000
,
0030
0000
0000
0000
0000
0000
0M00
0000
0000
0000
0000
0000
M00M
0000
0000
0000
0000
0000
1000
0000
0000
0000
0000
0000
0010
0000
0000
0000
0000
0000
0100
0000
0000
0000
0000
0000
0001
0000
0010
0000
0100
0000
1000
0000
0000
0001
0000
0000
,
1000
0010
0100
0001
2000
0000
0000
0000
3200
0000
0000
0000
0320
0000
0000
0000
,
0031
0000
0000
0000
0000
0000
0200
0000
0000
0000
0000
0000
0010
0000
0000
0000
0000
0000
0000
0000
0000
0000
0000
0000
0301
0000
0000
0000
0000
0000
1000
0000
0000
0000
0000
0000
0001
0000
0100
0000
0010
0000
1000
0000
0000
0001
0000
0000
,
0010
0000
0000
0100
0000
0000
1000
0000
0000
0001
0000
0000
1000
0000
0000
0000
0000
0000
M000
0000
0000
0000
0000
0000
1000
0000
0000
0000
0000
0000
0001
0000
0000
0000
0000
0000
1000
0000
0000
0000
0001
0000
0100
0000
0000
0000
0010
0000
,
1000
0000
0001
0100
0000
0010
2000
0000
0000
0000
0000
0000
3100
0000
0000
0010
0000
0000
0001
0000
0000
1000
0000
0000
,
0010
0000
2000
0000
3100
0010
0100
1000
1001
0001
0100
0010
0200
0000
0302
0000
,
1003
0100
2000
0000
3001
0000
0100
0000
0001
0000
0010
0000
0100
0000
1000
0000
,
1000
0010
1000
0100
1000
0010
0100
0001
,
0001
0010
0100
1000
0010
040M
M000
0301
,
1000
0001
0100
0001
0010
M400
000M
1300
,
0001
1000
0100
0001
0100
2000
0000
3001
,
0010
0001
0100
1000
0100
0002
0000
1003
,
0001
1000
0010
0100
0001
40M0
0M00
3001
,
0010
0001
0010
0100
1000
00M4
0M00
1003
,
0010
0000
0100
0000
0001
0000
0000
0010
0000
0000
0100
0000
0000
1000
0000
0000
,
0001
0000
0100
0000
0010
0000
1000
0000
0001
0000
1000
0000
0100
0000
0000
0010
,
0000
0000
0001
0000
1000
0000
0000
0010
0000
0000
0100
0000
0000
0001
0000
0000
,
1000
0100
0010
0001
1000
0001
1000
0010
,
0200
0302
1003
0100
0010
0001
000M
0001
,
0100
0010
1000
0100
1000
0010
0100
0001
,
0010
0000
0000
0000
0000
0000
0001
0000
0000
0000
0000
0000
1000
0000
0100
0000
0010
0000
0001
0000
0000
1000
0000
0000
0001
0000
0000
0100
0000
0000
0010
0000
0000
1000
0000
0000
0001
0000
0000
0010
0000
0000
0100
0000
0000
1000
0000
0000
,
0010
0000
0100
0000
0001
0000
1000
0000
0001
0000
1000
0000
0002
0000
0000
00M3
0000
0000
0M00
0000
0000
M000
0000
0000
000M
0000
0000
M000
0000
0000
00M0
0000
0000
0M00
0000
0000
0001
0000
0000
0000
0000
0000
0100
0000
0000
0000
0000
0000
,
0010
0000
0000
1000
0000
0000
0001
0000
0010
0001
0000
1000
0100
0000
0010
0001
0000
1000
0001
0000
0000
1000
0000
0000
,
0010
0000
0000
0000
0000
0000
0100
0000
0000
0000
0000
0000
0001
0000
0010
0000
0100
0000
1000
0000
0000
0001
0000
0000
0100
0000
0000
0010
0000
0000
1000
0000
0000
0001
0000
0000
2000
0000
0000
0000
0000
0000
0000
0000
0000
0000
0000
0000
,
3200
0000
0320
0000
0031
0100
0001
0010
,
0001
0100
0010
1000
0100
1000
1200
M000
,
1300
0100
0010
0001
0100
0001
0201
000M
,
0301
0000
1000
0000
0001
0000
0010
0000
0100
0000
2000
0000
3000
M000
2000
0000
,
3000
M000
2000
0000
3000
M000
2000
0000
3000
M000
2000
0000
3000
M000
2000
0000
,
3001
0000
0000
0000
0000
0000
0100
0000
0000
0000
0000
0000
0001
0000
1000
0000
0001
0000
1000
0000
0000
0010
0000
0000
0100
0000
0000
0001
0000
0000
1000
0000
0000
0001
0000
0000
1000
0000
0000
0000
0000
0000
1MM1
0000
0000
0000
0000
0000
,
1M00
002M
0030
0M00
M00M
0001
0010
0100
,
1000
0000
0010
0000
0100
0000
0001
0000
0000
1000
0000
0000
0001
0000
0000
0010
0000
0000
0100
0000
0000
1000
0000
0000
0002
0000
0000
0000
0000
0000
0000
0000
0000
0000
0000
0000
0203
0000
0000
0000
0000
0000
0000
0000
0000
0000
0000
0000
,
0320
0000
1030
0200
0010
0000
1300
0001
,
1000
0000
0100
0000
0010
0000
0001
0000
0000
1000
0000
0000
0010
0000
0000
0100
0000
0000
0001
0000
0000
1000
0000
0000
0001
0000
0000
0000
0000
0000
000M
0000
0000
0000
0000
0000
0001
0000
0000
0000
0000
0000
1000
0000
0000
0000
0000
0000
,
0001
0000
1000
0100
0000
0010
0001
0000
1000
0100
0000
0010
0002
0000
0000
0000
0000
0000
0103
0000
0000
0010
0000
0000
,
1000
0000
0001
0000
0010
0000
0002
0000
0103
0010
0100
0001
1001
1000
0100
0010
,
0200
0000
2300
0000
3001
0100
0002
0000
0023
0000
0130
1000
2100
0000
0000
0000
,
3010
0000
0100
0000
0001
0000
1000
0000
0001
0000
0010
0000
0100
0000
1000
0000
0001
0000
0000
0010
0000
0000
0100
0000
1200
0000
0000
0000
0000
0000
0000
0000
,
1300
0000
0000
0010
0000
0000
0100
0000
0201
0000
0000
0000
0000
0000
0000
0000
0301
0000
0000
0000
0010
0000
0100
0000
2100
0000
0000
0000
0000
0000
0000
0000
,
3010
0000
0100
0000
0001
0000
0010
0000
0001
0000
1000
0000
0100
0000
1000
0000
0001
0000
0000
0100
0000
0000
0010
0000
1020
0000
0000
0000
0000
0000
0000
0000
,
1030
0000
0000
0100
0000
0000
0010
0000
0021
0000
0000
0000
0000
0000
0000
0000
0230
0000
0000
0000
0310
0000
0001
0000
0012
0000
0000
0000
0000
0000
0000
0000
,
0103
0010
1000
0001
0100
0010
1000
0001
1000
0100
0010
0001
0010
0100
1000
0001
2000
0000
0000
0000
3010
0000
0100
0000
0102
0000
0000
0000
0000
0000
0000
0000
,
1003
0000
0000
0000
0100
0000
0000
0000
0010
0001
1000
0001
1000
0010
0100
0001
2000
0000
0000
0000
3100
0000
0010
0000
0012
0000
0000
0000
0000
0000
0000
0000
,
1003
0010
0100
0001
1000
0010
0100
0001
1000
0100
0010
0001
0010
0100
1000
0001
2000
0000
0000
0000
3001
0000
0100
0000
0201
0000
0000
0000
0000
0000
0000
0000
,
0310
0000
1000
0000
0001
0000
1000
0000
0001
0010
0100
1000
0001
0100
0010
1000
0001
0000
00M0
0000
0M00
0000
M000
0000
000M
0000
M000
0000
00M0
0000
0M00
0000
,
1000
0100
1000
0001
0001
0010
0100
0010
,
0001
0100
0001
1000
1000
0010
0100
0010
,
1000
0100
1000
0010
0010
0100
0001
1000
,
0001
0100
0001
0010
0100
1000
0010
1000
,
0200
M000
1300
0010
0100
0001
0010
0001
,
0200
000M
0301
0010
0100
1000
0001
0200
,
0300
0000
0M00
0000
0200
0000
0000
0000
0300
0000
0000
0000
0020
0000
0000
0000
0030
0000
00M0
0000
0020
0000
0000
0000
0030
0000
1000
0001
1000
0001
1000
0000
,
0000
0010
0100
0001
1000
0001
0010
0100
1000
0000
0010
0000
0100
0000
0001
0000
,
1000
0000
0100
1000
0000
0001
0010
0000
0100
1000
0000
0001
1000
0000
0000
0001
0000
0000
0100
0000
0000
0010
0000
0000
,
1000
0000
0100
0000
0010
0000
0001
0000
0000
1000
0000
0000
0010
0000
0000
0100
0000
0000
0001
0000
0000
1000
0000
0000
0002
0000
0000
0000
0000
0000
0000
0000
0000
0000
0000
0000
0023
0000
0000
0000
0000
0000
0000
0000
0000
0000
0000
0000
,
0230
0000
1300
0010
1000
0100
1000
0010
,
0200
0000
0301
0010
0021
000M
0031
0010
,
0100
1000
0010
1000
1020
M000
1030
0001
,
1000
0000
0100
0000
0010
0000
0002
0000
0003
000M
0020
0000
0030
00M0
0200
0000
,
0300
0M00
2000
0000
3001
0000
2000
0000
3000
0000
0100
0000
0010
0000
0001
0000
,
1000
0000
0010
0000
0100
0000
0001
0000
0000
1000
0000
0000
0001
0000
0000
0010
0000
0000
0100
0000
0000
1000
0000
0000
0001
0000
0000
0000
0000
0000
000M
0000
0000
0000
0000
0000
1001
0000
0000
0000
0000
0000
1000
0000
0000
0000
0000
0000
,
0001
0000
1000
0010
0000
0100
0001
0000
1000
0020
0000
0000
0130
0000
0000
0001
0000
0000
1000
0000
0000
0001
0000
0000
,
1000
0000
0100
0000
0010
0000
0001
0000
0000
1000
0000
0000
0010
0000
0000
0100
0000
0000
0001
0000
0000
1000
0000
0000
0001
0000
0000
0000
0000
0000
0100
0000
0000
0000
0000
0000
0001
0000
0000
0000
0000
0000
0010
0000
0000
0000
0000
0000
,
0100
0100
0M00
0100
1100
1000
0010
0100
,
0001
0000
0010
0000
0100
0000
1000
0000
0000
0001
0000
0000
0100
0000
0000
0010
0000
0000
1000
0000
0000
0001
0000
0000
2000
0000
0000
0000
0000
0000
0000
0000
0000
0000
0000
0000
3001
0000
0000
0000
0000
0000
1000
0000
0000
0000
0000
0000
,
0010
0000
0100
0001
0000
1000
0010
0000
0100
0001
0000
1000
0020
0000
0000
0000
0000
0000
0230
0000
0000
0000
0000
0000
,
0302
0000
0000
0000
2003
0000
0000
0000
3001
0010
0100
1000
1200
0000
0000
0000
,
1300
0010
0100
0001
1000
0010
0100
0001
1000
0100
0010
0001
0010
0100
1000
0001
1000
0000
M000
0000
0200
0000
0000
0000
0000
0000
0000
0000
0300
0000
0000
0000
;
