#TITLE:Because I'm Crazy;
#SUBTITLE:;
#ARTIST:SiegWin;
#TITLETRANSLIT:;
#SUBTITLETRANSLIT:;
#ARTISTTRANSLIT:;
#GENRE:;
#CREDIT:;
#BANNER:;
#BACKGROUND:;
#LYRICSPATH:;
#CDTITLE:;
#MUSIC:SiegWin - Because I'm Crazy.mp3;
#OFFSET:-0.040;
#SAMPLESTART:32.930;
#SAMPLELENGTH:12.000;
#SELECTABLE:YES;
#BPMS:0.000=175.000;
#STOPS:;
#BGCHANGES:;
#KEYSOUNDS:;

//---------------dance-single - C.Sanabria----------------
#NOTES:
     dance-single:
     C.Sanabria:
     Challenge:
     11:
     0.533,0.586,0.098,0.227,0.500:
0000
0000
0000
0000
,
0000
0000
0000
0000
,
0000
0000
0000
0000
,
0000
0000
0000
0000
,
1000
0010
0100
0001
,
1000
0100
0010
0001
,
1000
0010
0100
0010
,
1000
0001
0010
0100
,
0010
0000
0001
1000
0200
0000
0000
0000
0310
0000
0001
1000
0100
0010
0001
0000
,
0100
0000
0001
1000
0020
0000
0000
0000
0130
0000
0001
1000
0010
0100
0001
0000
,
1000
0000
0100
0010
0002
0000
0000
0000
1003
0000
0010
0100
0001
1000
0001
0000
,
1000
0000
0100
0010
0100
0000
1000
0000
0001
0000
0100
0010
0100
0000
0001
0000
,
0100
0000
0001
1000
0020
0000
0000
0000
0130
0000
0001
1000
0010
0100
0001
0000
,
0010
0000
0001
1000
0200
0000
0000
0000
0310
0000
0001
1000
0100
0010
0001
0000
,
0101
0101
1001
1001
1100
1100
1001
1001
,
1000
0100
0010
0100
1000
0001
0100
0010
0100
0001
1000
0100
0010
0001
1000
0010
,
1000
0000
0100
0000
0010
0000
0002
0000
1000
0003
0001
0000
0010
0000
0100
0000
,
0M00
0000
0100
0000
0010
0000
0002
0000
1000
0003
0001
0000
1000
0000
0010
0000
,
00M0
0000
0010
0000
1000
0000
0002
0000
0010
0003
0001
0000
0100
0000
0010
0000
,
00M0
0010
1000
0001
0M00
0010
0001
1000
,
00M0
0000
0010
0000
1000
0000
0002
0000
0010
0003
0001
0000
0100
0000
0010
0000
,
00M0
0000
0010
0000
0100
0000
0002
0000
1000
0003
0001
0000
0010
0000
0100
0000
,
0M00
0000
0100
0000
1000
0000
0020
0000
0100
0030
0010
0000
1000
0000
0001
0000
,
000M
0001
0010
0100
M000
1000
0010
0100
,
0001
0100
0010
1000
0001
0100
0010
1000
0001
0100
0010
0100
0001
0100
0010
0100
,
0001
0100
0010
1000
0001
0100
0010
1000
0001
0010
0100
1000
0100
0010
0001
1000
,
0001
0100
0001
0100
0010
1000
0010
1000
0001
0010
0001
0010
0100
1000
0100
1000
,
0001
0010
0100
1000
0001
0010
0100
1000
0001
0100
0010
1000
0001
0100
0010
1000
,
0001
0100
0010
1000
0001
0100
0010
1000
0001
0100
0010
0100
0001
0100
0010
0100
,
0001
0100
0010
1000
0001
0100
0010
1000
0001
0010
0100
1000
0100
0010
0001
1000
,
0001
0100
0001
0100
0010
1000
0010
1000
0001
0010
0001
0010
0100
1000
0100
1000
,
0001
0010
0100
1000
0001
0010
0100
1000
0001
0100
0010
1000
0001
0100
0010
1000
,
0001
0001
0002
0000
0023
000M
0130
010M
,
1000
1000
2000
0000
3020
M000
0130
M100
,
0001
0010
0020
000M
0230
00M0
1300
1000
,
0020
M000
0130
0100
0001
M001
0001
M001
,
1000
1000
2000
0000
3020
M000
0130
M100
,
0001
0001
0002
0000
0023
000M
0130
010M
,
1000
0010
0020
M000
0230
00M0
0301
0001
,
0020
0000
0031
0001
2000
3020
0230
0302
,
1003
0000
0010
0100
0001
0000
00M0
0000
1000
0000
0010
0100
0001
0000
1000
0000
,
0001
0000
0010
0100
1000
0000
00M0
0000
0001
0000
0010
0100
1000
0000
0001
0000
,
0100
0000
0010
1000
0001
0000
0M00
0000
0100
0000
0010
1000
0001
0000
0010
0000
,
0100
0000
0010
0001
0100
0000
0010
0000
0100
0000
0010
1000
0100
0000
0010
0000
,
0100
2000
0000
3002
0000
2003
0000
3010
,
0100
0002
0000
2003
0000
3002
0000
1003
,
0100
0020
0000
0032
0000
0203
0000
0310
,
1000
0002
0000
1003
0100
0020
0000
0031
,
1000
0100
0010
0100
1000
0001
0100
0001
1000
0100
0010
0100
1000
0001
0010
0001
,
1000
0100
1000
0100
0010
0001
0010
0001
1000
0010
0100
0001
1000
0100
0010
0001
,
1000
0100
0010
0100
1000
0001
0100
0010
0100
0001
1000
0001
0010
0100
0010
0001
,
1000
0100
0010
0001
1000
0100
0010
0001
1000
0010
0100
0001
1000
0010
0100
0001
,
1000
0010
0100
0010
1000
0001
0010
0001
1000
0010
0100
0010
1000
0001
0100
0001
,
1000
0010
1000
0010
0100
0001
0100
0001
1000
0100
0010
0001
1000
0010
0100
0001
,
1000
0010
0100
0010
1000
0001
0010
0100
0010
0001
1000
0001
0100
0010
0100
0001
,
1000
0010
0100
0001
1000
0010
0100
0001
1000
0100
0010
0001
1000
0100
0010
0001
,
1000
1000
0001
1000
1000
M000
1000
2000
,
0000
0001
0001
0001
3002
0M00
0013
0100
,
1000
100M
0010
0M10
0200
0000
M301
0002
,
0000
10M3
M000
1000
0010
0100
0001
0001
,
1000
0100
1000
0100
0010
0001
0010
0001
1000
0100
1000
0100
0010
0001
0010
0001
,
1000
0010
1000
0010
0100
0001
0100
0001
1000
0010
1000
0010
0100
0001
0100
0001
,
1000
0100
0010
0001
1000
0001
0100
0010
1000
0100
0010
0001
1000
0001
0100
0010
,
1000
0001
1000
0001
1000
0001
1000
0001
1000
0001
1000
0001
1000
0001
1000
0001
,
1000
0000
0010
0100
0002
0000
0000
0000
1003
0000
0010
0100
0001
0000
1001
0000
,
1000
0000
0100
0010
0002
0000
0000
0000
1003
0000
0100
0010
0001
0000
1001
0000
,
1000
0000
0010
0100
0002
0000
0000
0000
1003
0000
0100
0010
0001
0000
1001
0000
,
1000
0000
0100
0010
0001
0000
1000
0000
0001
0000
0100
0010
1000
0000
0001
0000
,
1000
0000
0100
0010
0002
0000
0000
0000
1003
0000
0100
0010
0001
0000
1001
0000
,
1000
0000
0010
0100
0002
0000
0000
0000
1003
0000
0010
0100
0001
0000
1001
0000
,
1000
0000
0100
0010
0002
0000
0000
0000
1003
0000
0010
0100
0001
0000
1001
0000
,
1000
0000
0010
0100
0001
0000
1000
0000
0001
0000
0010
0100
1000
0000
0001
0000
,
1000
0100
0010
0000
0110
0000
0010
0100
,
1000
0001
0100
0000
0110
0000
0010
0100
,
0001
1000
0001
0000
0011
0000
0100
1000
,
0002
0000
0103
0010
1000
0001
1000
0001
,
1000
0010
0100
0000
0110
0000
0100
0010
,
1000
0001
0010
0000
0110
0000
0100
0010
,
0001
1000
0001
0000
0101
0000
0010
1000
,
0002
0000
0013
0100
1000
0001
1000
0001
,
1000
0100
0010
0100
1000
0100
0010
0100
1000
0001
1000
0001
0100
0010
1000
0001
,
1000
0100
0010
0100
1000
0001
0010
0100
0010
0001
1000
0001
0100
0010
1000
0001
,
1000
0100
0010
0001
1000
0010
0100
0001
1000
0100
0010
0001
1000
0001
0010
0100
,
1000
0100
0010
0001
1000
0100
0010
0001
1000
0010
0100
0001
1000
0001
0100
0010
,
1000
0010
0100
0010
1000
0010
0100
0010
1000
0001
1000
0001
0010
0100
1000
0001
,
1000
0010
0100
0010
1000
0001
0100
0010
0100
0001
1000
0001
0010
0100
1000
0001
,
1000
0010
0100
0001
1000
0100
0010
0001
1000
0010
0100
0001
1000
0001
0200
0000
,
0000
0320
0000
2030
0001
3002
1000
1003
,
0001
0010
0001
0000
0012
0000
1000
1000
,
1003
0010
1000
0000
2010
0000
0001
0001
,
3001
0100
0010
0000
1001
0000
0001
0100
,
1000
0000
1000
0100
0001
0010
0100
1000
,
0001
0100
0001
0000
0102
0000
1000
1000
,
1003
0100
1000
0000
2100
0000
0001
0001
,
3001
0010
0100
0000
1001
0000
0001
0010
,
1000
0000
1000
0010
0001
0100
0010
1000
,
000M
0M00
00M0
M000
000M
0M00
00M0
0000
;
