#TITLE:Applause;
#SUBTITLE:;
#ARTIST:Lady GaGa;
#TITLETRANSLIT:;
#SUBTITLETRANSLIT:;
#ARTISTTRANSLIT:;
#GENRE:;
#CREDIT:;
#BANNER:applause-bn.png;
#BACKGROUND:applause-bg.png;
#LYRICSPATH:;
#CDTITLE:;
#MUSIC:Lady GaGa - Applause.ogg;
#OFFSET:-0.210;
#SAMPLESTART:55.030;
#SAMPLELENGTH:12.000;
#SELECTABLE:YES;
#DISPLAYBPM:140.000;
#BPMS:0.000=140.000,31.500=280.000,32.000=140.000,284.000=70.000,286.000=140.000;
#STOPS:31.500=0.107
;
#BGCHANGES:;
#KEYSOUNDS:;

//---------------dance-single - C.Sanabria----------------
#NOTES:
     dance-single:
     C.Sanabria:
     Challenge:
     10:
     0.718,0.926,0.205,0.695,0.294:
0000
0000
0000
0000
,
0000
0000
0000
0000
,
0000
0000
0000
0000
,
0000
0000
0000
0000
,
1000
0100
1000
0001
0100
0001
0010
0100
,
4000
0000
3040
0000
0430
0000
0301
1000
,
0001
0100
0001
1000
0010
1000
0100
0010
,
0001
0001
0100
0100
0010
0010
2000
3000
,
0100
0010
0002
0000
0203
0000
0320
0000
,
1030
0200
0000
0320
0000
0031
1001
0MM0
,
0001
0100
0010
2000
0000
3200
0000
0310
,
0100
1000
0001
1000
0010
0100
0101
0001
,
0010
0100
2000
0000
3020
0000
0230
0000
,
0301
0020
0000
0230
0000
2300
0000
3010
,
0400
0000
0301
1000
0400
0000
0320
0000
,
0031
0000
1100
0000
1000
0001
0101
0100
,
0020
1000
1030
0002
1000
1003
1100
0100
,
0010
0001
0010
0001
1000
0010
0100
0001
,
2000
0010
3010
0200
0001
0301
0102
0000
,
1003
0100
1100
00MM
0001
0100
0101
0100
,
0002
0010
0013
0002
1000
1003
1010
0010
,
0100
0001
0100
0001
1000
0100
0010
0100
,
2000
0010
3010
0200
0001
0301
0101
1000
,
0020
0000
1030
0001
0010
0001
0010
0100
,
2000
0000
0000
3001
2000
0000
0000
3010
,
2000
0000
0000
3001
0100
0010
1000
0100
,
20M0
0M00
3100
1000
0010
0100
0001
0010
,
0M02
00M0
0103
0001
0010
0100
1000
M000
,
2000
0000
3010
0100
0002
0000
0023
0000
,
0230
0000
1300
0002
0000
0000
0103
0010
,
4000
3400
0340
0034
,
1003
0000
0000
0000
0000
0000
0000
0000
0000
0000
0000
0000
0000
0000
0000
0000
0000
0000
0000
0000
0000
0000
0000
0000
0000
0000
0000
0000
0010
0000
0000
0000
0000
0000
0000
0000
0000
0000
0000
0000
0000
0000
0000
0000
0000
0000
0100
0000
0000
0000
0000
0000
0000
0000
0000
0000
0000
0000
0000
0000
0000
0000
0001
0000
0000
0000
0000
0000
0000
0000
0000
0000
0000
0000
0000
0000
0000
0000
0000
1000
0000
0000
0000
0000
0000
0000
0000
0000
0000
0000
0000
0000
0000
0000
0000
0000
0100
0000
0000
0000
0000
0000
0000
0000
0000
0000
0000
0000
0000
0000
0000
0010
0000
0000
0000
0000
0000
0000
0000
0000
0000
0000
0000
0000
0000
0000
0001
0000
0000
0000
0000
0000
0000
0000
0000
0000
0000
0000
0000
0000
0000
1000
0000
0000
0000
0000
0000
0000
0000
0000
0000
0000
0000
0000
0000
0001
0000
0000
0000
0000
0000
0000
0000
0000
0000
0000
0000
1000
0000
0000
0000
0000
0000
0000
0000
0000
0000
0000
0000
0001
0000
0000
0000
0000
0000
0000
0000
0000
0000
0000
0000
0000
,
2000
0000
3010
1020
M000
0130
0001
1000
,
1100
0100
0010
0001
2000
0000
3020
M000
,
0230
0000
0301
0102
0M00
0013
0110
10M0
,
2000
0000
0000
3000
0110
0000
00M1
0000
0002
0000
0000
0000
1003
0000
000M
0000
,
0002
0000
0013
0021
000M
0130
1000
0001
,
0101
0100
0010
1000
0002
0000
0023
000M
,
0230
0000
1300
2100
0M00
3010
0110
00M1
,
0002
0000
0000
0003
0110
0000
10M0
0000
2000
0000
0000
0000
3001
0000
M000
0000
,
0010
0100
1000
0002
0100
0000
0M13
0000
0200
0000
0000
0000
1300
0000
0020
0000
,
0000
0000
1030
0000
0001
0010
0100
1000
0001
0100
0001
0100
0010
0000
1000
0000
,
0100
2000
3020
0230
0000
0301
0010
0001
,
0002
0000
0M00
0003
M000
0000
1000
0000
2000
0000
0M00
3000
1001
0000
000M
0000
,
0010
0100
0001
2000
0100
0000
3M10
0000
0200
0000
0000
0000
0301
0000
0020
0000
,
0000
0000
0031
0000
1000
0010
0100
0001
1000
0100
1000
0100
0010
0000
0001
0000
,
0100
0002
0023
0230
0000
1300
0010
1000
,
2000
0000
0M00
3000
000M
0000
0001
0000
0002
0000
0M00
0003
1001
0000
000M
0000
,
0001
0100
0001
1000
0100
1000
0010
0100
,
0001
0010
0001
0010
0100
1000
0001
1000
,
0010
0010
0100
0001
0001
1000
0100
0100
,
0010
0001
1000
0010
1000
0001
0010
0100
,
1000
0010
1000
0001
0010
0001
0100
0100
,
0040
0000
4030
0000
3004
0000
0013
0100
,
2000
0010
3010
0200
0001
0301
1000
1000
,
0001
0100
0001
0100
0010
1000
1001
1001
,
0001
1000
0020
0000
0230
0000
0302
0000
,
1003
0200
0000
0320
0000
0031
0011
0M00
,
0001
0100
001M
1000
0100
M010
0001
0001
,
1000
0010
0100
0001
1000
0010
0100
0001
,
2000
0100
3100
0020
0001
0031
1000
0010
,
0400
0000
0304
0000
4003
0000
3010
0100
,
0001
0010
0M01
1000
0010
1M00
0100
0010
,
0004
0000
0000
1003
0010
1000
0010
0100
,
0002
0000
0000
1003
0002
0000
0000
0013
,
0002
0000
0000
1003
0100
0010
0001
0100
,
00M2
0M00
0103
0001
0010
0100
1000
0010
,
2M00
00M0
3100
1000
0010
0100
0001
000M
,
0002
0000
0013
0100
2000
0000
3020
0000
,
0230
0000
0301
2000
0000
0000
3100
0010
,
0004
0403
0340
4030
,
3002
0000
0000
0000
0000
0000
0000
0000
1003
0100
0010
0100
1000
0001
1000
0010
,
0100
0001
0100
0010
1000
0001
1000
0001
0010
0100
0010
0001
1000
0010
1000
0001
,
0100
0001
1000
0100
0010
0001
1000
0001
1000
0100
0010
0001
1000
0010
1000
0001
,
0010
0100
1000
0001
0100
0010
1000
0100
1000
0100
1000
0100
1000
0100
1000
0010
,
0100
0001
0100
0001
0100
0001
0100
0010
1000
0100
0010
0100
1000
0001
1000
0010
,
0100
0001
0100
0010
1000
0001
1000
0001
0010
0100
0010
0001
1000
0010
1000
0001
,
0100
0001
1000
0100
0010
0001
1000
0001
1000
0100
0010
0001
1000
0010
1000
0001
,
0010
0100
1000
0001
0100
0010
1000
0000
2000
0000
0000
3000
0101
0000
0001
0000
,
0002
0000
0000
0003
1100
0000
0M00
0000
0010
0100
0001
2000
0100
0000
3M10
0000
,
0200
0000
0000
0000
0301
0000
0020
0000
0000
0000
0031
0000
1000
0010
0100
0001
,
1000
0100
1000
0100
0010
0000
0001
0000
0100
0000
0002
0000
0023
0000
0230
0000
,
0000
0000
1300
0000
0010
0000
1000
0000
2000
0000
0M00
3000
1100
0000
0001
0000
,
0002
0000
0M00
0003
1001
0000
M000
0000
0010
0100
1000
0002
0100
0000
0M13
0000
,
0200
0000
0000
0000
1300
0000
0020
0000
0000
0000
1030
0000
0001
0010
0100
1000
,
0001
0100
0001
0100
0010
0000
1000
0000
0100
0000
2000
0000
3020
0000
0230
0000
,
0000
0000
0301
0000
0010
0000
0001
0000
0002
0000
0M00
0003
0101
0000
1000
0000
,
2000
0000
0M00
3000
1100
0000
0000
0000
M00M
0000
0000
0000
0000
0000
0000
0000
;
