#TITLE:Afterburner;
#SUBTITLE:;
#ARTIST:Waterflame;
#TITLETRANSLIT:;
#SUBTITLETRANSLIT:;
#ARTISTTRANSLIT:;
#GENRE:;
#CREDIT:;
#BANNER:;
#BACKGROUND:;
#LYRICSPATH:;
#CDTITLE:;
#MUSIC:Waterflame - Afterburners.mp3;
#OFFSET:-0.040;
#SAMPLESTART:19.840;
#SAMPLELENGTH:12.000;
#SELECTABLE:YES;
#BPMS:0.000=145.000;
#STOPS:;
#BGCHANGES:;
#KEYSOUNDS:;

//---------------dance-single - C.Sanabria----------------
#NOTES:
     dance-single:
     C.Sanabria:
     Challenge:
     10:
     0.836,0.906,0.177,0.756,0.764:
0000
0000
0000
0000
,
0000
0000
0000
0000
,
0000
0000
0000
0000
,
0000
0000
0000
0000
,
0001
0000
0000
1000
0100
0000
0010
0000
0000
0100
1000
0000
0001
0100
0001
0000
,
1000
0100
0010
0001
1000
0010
1000
0010
1000
0100
0010
0001
1000
0010
1000
0010
,
1000
0100
0010
0001
1000
0010
1000
0010
1000
0100
0010
0001
1000
0010
1000
0001
,
0M20
0030
0000
220M
3300
0000
M022
0033
,
1000
0100
0000
0010
0400
0000
0000
0000
1300
0001
0000
0010
0400
0000
0000
0000
,
1300
0010
0000
0100
0040
0000
0000
0000
1030
0001
0000
0100
0040
0000
0000
0000
,
1030
0001
0000
1000
0001
0000
0010
0000
0001
1000
0000
0001
1000
0000
0010
0000
,
1000
0100
0000
0010
0100
0000
1000
0001
0000
0000
0001
0000
0100
0000
0010
0000
,
1000
0100
0000
0010
0400
0000
0000
0000
1300
0010
0000
0100
0040
0000
0000
0000
,
1030
0001
0000
0010
0400
0000
0000
0000
1300
0001
0000
0100
0040
0000
0000
0000
,
1030
0100
0000
0010
0100
0000
1000
0000
0001
0100
0000
0010
0100
0000
0001
0000
,
1000
0100
0000
0010
0100
0000
1000
0001
0000
0000
1000
0000
0010
0000
0100
0000
,
0001
0000
0010
0000
0400
0000
0000
2000
0300
0000
3001
0000
0100
0000
0M00
0000
,
1000
0000
0100
0000
0040
0000
0000
0002
0030
0000
1003
0000
0100
0000
0M00
0000
,
0001
0000
1000
0000
0010
0000
0100
0001
0000
1000
0001
0000
0010
0000
0100
0000
,
2000
0000
3020
0000
0230
0000
0302
0000
2003
0000
3100
0010
0000
0100
1000
0000
,
0001
0000
0100
0000
0040
0000
0000
2000
0030
0000
3001
0000
0010
0000
00M0
0000
,
1000
0000
0010
0000
0400
0000
0000
0002
0300
0000
1003
0000
0010
0000
00M0
0000
,
0001
0000
1000
0000
0100
0000
0010
0001
0000
1000
0001
0000
0100
0000
0010
0000
,
2000
0000
3200
0000
0320
0000
0032
0000
2003
0000
3010
0100
0000
0010
1000
0000
,
0001
0000
1000
0000
0100
0000
0010
0100
0000
0100
1000
0001
1000
0002
0000
0000
,
0013
0000
0001
0100
0010
0100
0001
1000
0000
1000
0100
0010
0001
2000
0000
0000
,
3010
0000
1000
0100
0010
0100
1000
0001
0000
0001
0100
0010
1000
0002
0000
0000
,
2003
0000
3200
0000
0320
0000
0230
0000
2300
0000
3001
0100
0000
0010
0100
0000
,
0001
0100
0020
000M
1030
0100
0020
M000
,
0031
1000
0020
000M
0130
0001
2000
0M00
,
3100
0010
0002
0M00
0103
0010
2000
0M00
,
3001
0010
0000
0100
0010
0000
0001
1000
0000
0010
0000
1000
0100
0000
0010
0000
,
0001
0000
1000
0010
1000
0000
0010
0000
1000
0000
0100
0010
0100
0000
0010
0000
,
0001
0000
0010
0001
0010
0000
0001
0000
0100
0000
0010
0100
0010
0000
1000
0000
,
0001
0000
0010
0100
1000
0000
0001
0000
1000
0000
0010
0100
0001
0000
0010
0000
,
0002
0000
0203
0000
0320
0000
2030
0000
3200
0000
0310
0100
0000
1000
0001
0000
,
1000
0000
0100
0000
0010
0000
0100
1000
0000
0001
1000
0000
0010
0000
1000
0100
,
1000
0000
0010
0000
0100
0000
0001
0010
0000
0001
1000
0000
0001
0000
0100
0010
,
0100
0000
0001
0000
1000
0000
0100
0010
0000
0100
0010
0000
0001
0000
1000
0001
,
2000
0000
3200
0000
0320
0000
0032
0000
2003
0000
3010
1000
0000
0001
0100
0000
,
0002
0000
0013
000M
0001
0001
0101
000M
,
0020
0000
0000
0000
0130
0000
0000
0100
0001
0000
0001
1000
0001
0000
0010
0000
,
0200
0000
1300
0M00
0100
0100
1100
M000
,
2000
0000
0000
0000
3010
0000
0200
M000
0000
0000
0301
0000
0020
000M
0000
0000
,
0230
0000
1300
0M00
0100
0100
1100
M010
,
0020
0000
0000
0000
0031
0000
0M00
0001
1000
0000
0000
1000
0001
0000
0010
0000
,
0200
0000
2300
0000
3001
0100
0201
0000
,
0310
0000
0010
0000
1001
0000
1001
0000
0100
0001
1000
0010
1000
0001
0100
0010
,
1000
0100
0010
0001
2000
0000
3010
M000
,
1000
0100
0010
0001
0200
0000
0310
0M00
,
0010
0100
0001
1000
0002
0000
0013
000M
,
0001
1000
0020
0000
1030
0001
0200
0000
,
0301
0100
0000
0010
0100
0000
0010
1000
0000
0001
0000
1000
0100
0000
0100
0000
,
1000
0100
0000
0010
0100
0000
0010
0001
0000
1000
0000
0001
0100
0000
0100
0000
,
0010
1000
0000
0001
1000
0000
0100
0010
0000
0100
0000
1000
0001
0000
1000
0001
,
0000
0100
0000
0001
1000
0000
0001
1000
0000
0010
0000
0100
0001
0000
1000
0001
,
1000
0100
0000
0010
0100
0000
0010
0001
0000
1000
0000
0010
0100
0000
0001
1000
,
0001
0100
0000
0010
0100
0000
0010
1000
0000
0001
0000
0010
0100
0000
1000
0001
,
1000
0010
0000
0100
0001
0000
0100
0010
0000
1000
0000
0001
0010
0000
0100
1000
,
0000
0001
0000
1000
0010
0000
0100
0001
0000
1000
0000
0001
0010
0000
0100
1000
,
0001
0000
0010
0001
0010
0000
0001
0100
0001
0000
0100
0010
0100
0000
0010
1000
,
0010
0000
1000
0100
1000
0000
0100
0010
0100
0000
0010
0001
0010
0000
0001
0100
,
0001
0000
0100
0010
0100
0000
0010
1000
0010
0000
1000
0001
1000
0000
0100
0010
,
0001
0000
1000
0000
0001
0000
0100
0010
1000
0000
0100
0000
0010
0001
1000
0001
,
0100
0002
0203
0320
2030
0M00
0001
00M0
,
0000
3002
0023
0230
2300
000M
3020
0230
,
M000
0302
0023
2030
3020
0M00
0032
2003
,
0M00
3002
0203
23M0
3200
0302
M023
0130
,
0000
2000
3200
0320
0032
00M0
1000
00M0
,
0000
2003
3020
0230
0302
M000
0023
0230
,
0000
230M
3020
0032
0023
0M00
1000
000M
,
0000
2030
3200
0302
0203
2300
3020
0130
,
0001
0000
0201
0000
0310
0010
1001
0000
,
0100
0000
0000
0000
1100
0000
0000
0000
0010
0000
0001
1000
0001
0000
0010
0000
,
0100
0000
1100
0000
0010
0100
0101
0000
,
0020
0000
0031
0200
0000
0310
1000
0001
,
1000
0000
1200
0000
0310
0010
1001
0100
,
0100
0000
0000
0000
0101
0000
0000
0000
0010
0000
0000
1000
0001
0000
0010
0000
,
0101
0110
1010
1001
,
1000
0000
0001
0000
1000
0000
0000
0000
0010
0100
0001
1000
0001
0100
0010
0000
,
M000
000M
10M0
0M00
M000
00M0
010M
M000
,
0M00
00M0
M001
00M0
000M
0M00
M010
000M
,
1001
0000
0001
0100
0001
0010
0100
2000
0000
3010
0100
0001
1000
0001
0010
0000
,
0011
0000
1000
0001
0010
0001
1000
0020
0000
0130
0001
1000
0100
0010
0100
0000
,
1100
0000
0001
0100
0010
0100
0001
2000
0000
3010
1000
0001
1000
0100
0010
0000
,
0110
0000
0001
1000
0010
1000
0100
0020
0000
0130
1000
0010
1000
0001
1000
0000
,
1001
0000
1000
0100
1000
0010
0100
0002
0000
0013
0100
1000
0001
1000
0010
0000
,
1010
0000
0001
1000
0010
1000
0001
0020
0000
0130
1000
0001
0100
0010
0100
0000
,
0101
0000
1000
0100
0010
0100
1000
0002
0000
0013
0001
1000
0001
0100
0010
0000
,
0110
0000
1000
0001
0010
0001
0100
0020
0000
0130
0001
0010
0001
1000
0001
0000
,
1000
0010
0000
0100
0040
0000
0000
0000
1030
0001
0000
0100
0040
0000
0000
0000
,
1030
0100
0000
0010
0400
0000
0000
0000
1300
0001
0000
0010
0400
0000
0000
0000
,
1300
0001
0000
1000
0001
0000
0100
0000
0001
1000
0000
0001
1000
0000
0100
0000
,
1000
0010
0000
0100
0010
0000
1000
0000
0001
0010
0000
0100
0010
0000
0001
0000
,
1000
0010
0000
0100
0040
0000
0000
0000
1030
0100
0000
0010
0400
0000
0000
0000
,
1300
0001
0000
0100
0040
0000
0000
0000
1030
0001
0000
0010
0400
0000
0000
0000
,
1300
0010
0000
0100
0010
0000
1000
0000
0001
0010
0000
0100
0010
0000
0001
0000
,
1000
0010
0000
0100
0010
0000
1000
0001
1000
0010
0100
0010
1000
0001
1000
0000
,
0001
0000
0010
0000
0400
0000
0000
2000
0300
0000
3001
0000
0100
0000
0M00
0000
,
1000
0000
0100
0000
0040
0000
0000
0002
0030
0000
1003
0000
0100
0000
0M00
0000
,
0001
0000
1000
0000
0010
0000
0100
0001
0000
1000
0001
0000
0010
0000
0100
0000
,
2000
0000
3020
0000
0230
0000
0302
0000
2003
0000
3100
0010
0000
0100
1000
0000
,
0001
0000
0100
0000
0040
0000
0000
2000
0030
0000
3001
0000
0010
0000
00M0
0000
,
1000
0000
0010
0000
0400
0000
0000
0002
0300
0000
1003
0000
0010
0000
00M0
0000
,
0001
0000
1000
0000
0100
0000
0010
0001
0000
1000
0001
0000
0100
0000
0010
0000
,
2000
0000
3200
0000
0320
0000
0032
0000
2003
0000
3010
0100
0000
0010
1000
0000
,
0001
0000
0100
0000
0040
0000
0000
2000
0030
0000
3001
0000
0010
0000
00M0
0000
,
1000
0000
0010
0000
0400
0000
0000
0002
0300
0000
1003
0000
0010
0000
00M0
0000
,
0001
0000
1000
0000
0100
0000
0010
0001
0000
1000
0001
0000
0100
0000
0010
0000
,
2000
0000
3200
0000
0320
0000
0032
0000
2003
0000
3010
0100
0000
0010
1000
0000
,
0001
0000
0010
0000
0400
0000
0000
2000
0300
0000
3001
0000
0100
0000
0M00
0000
,
1000
0000
0100
0000
0040
0000
0000
0002
0030
0000
1003
0000
0100
0000
0M00
0000
,
0001
0000
1000
0000
0010
0000
0100
0001
0000
1000
0001
0000
0010
0000
0100
0000
,
2000
0000
3020
0000
0230
0000
0302
0000
2003
0000
3100
0010
0000
0100
1000
0000
,
1001
0000
0000
0000
1000
0000
0000
0000
0100
0000
0010
0000
0000
0000
1100
0000
0000
000M
0000
0000
2200
0000
00M0
0000
3300
0000
0000
0000
0000
0000
0000
0000
,
0110
0000
0000
0000
0100
0000
0000
0000
0010
0000
0001
0000
0000
0000
0011
0000
0000
M000
0000
0000
0022
0000
0M00
0000
0033
0000
0000
0000
0000
0000
0000
0000
;
