#VERSION:0.83;
#TITLE:Wreck to the Seaman / Through the Maelstrom;
#SUBTITLE:The Whorleater;
#ARTIST:Masayoshi Soken;
#TITLETRANSLIT:;
#SUBTITLETRANSLIT:;
#ARTISTTRANSLIT:;
#GENRE:Before The Fall;
#ORIGIN:;
#CREDIT:[Ness];
#BANNER:Final Fantasy XIV - Wreck to the Seaman - Through the Maelstrom.png;
#BACKGROUND:Final Fantasy XIV - Wreck to the Seaman - Through the Maelstrom-bg.png;
#PREVIEWVID:;
#JACKET:Final Fantasy XIV - Wreck to the Seaman - Through the Maelstrom-jacket.png;
#CDIMAGE:;
#DISCIMAGE:;
#LYRICSPATH:Final Fantasy XIV - Wreck to the Seaman - Through the Maelstrom.lrc;
#CDTITLE:;
#MUSIC:Final Fantasy XIV - Wreck to the Seaman - Through the Maelstrom.mp3;
#OFFSET:-0.037000;
#SAMPLESTART:82.162788;
#SAMPLELENGTH:12.000000;
#SELECTABLE:YES;
#BPMS:0.000=130.000,
48.000=160.000;
#STOPS:;
#DELAYS:;
#WARPS:;
#TIMESIGNATURES:0.000=4=4;
#TICKCOUNTS:0.000=2;
#COMBOS:0.000=1;
#SPEEDS:0.000=1.000=0.000=0;
#SCROLLS:0.000=1.000;
#FAKES:;
#LABELS:0.000=Wreck to the Seaman,
48.000=Through the Maelstrom;
#LASTSECONDHINT:100.981224;
#BGCHANGES:;
#KEYSOUNDS:;
#ATTACKS:
;

//---------------dance-single - ----------------
#NOTEDATA:;
#CHARTNAME:[Ness];
#STEPSTYPE:dance-single;
#DESCRIPTION:[Ness];
#CHARTSTYLE:;
#DIFFICULTY:Hard;
#METER:8;
#RADARVALUES:0.622984,0.667979,0.498957,0.089812,0.004990,437.000000,387.000000,50.000000,9.000000,0.000000,0.000000,0.000000,0.000000,0.000000,0.622984,0.667979,0.498957,0.089812,0.004990,437.000000,387.000000,50.000000,9.000000,0.000000,0.000000,0.000000,0.000000,0.000000;
#CREDIT:[Ness];
#NOTES:
// measure 0
0000
0000
0000
0000
,  // measure 1
0000
0000
0000
0000
,  // measure 2
0000
0000
0000
0000
,  // measure 3
0000
0000
0000
0000
,  // measure 4
1001
1000
0001
1000
0001
1000
0001
1000
,  // measure 5
1001
0001
1000
0001
1000
0001
1000
0001
,  // measure 6
1001
1000
0001
1000
0001
1000
0001
1000
,  // measure 7
1001
0001
1000
0001
1000
0001
1000
0001
,  // measure 8
1010
0001
1000
0001
1000
0001
1000
0001
,  // measure 9
1010
1000
0001
1000
0001
1000
0001
1000
,  // measure 10
0011
1000
0001
1000
0001
1000
0001
1000
,  // measure 11
1010
0000
0001
0000
1000
0000
0001
0000
1000
0001
1000
0000
0001
0000
1000
0000
,  // measure 12
1001
0100
0000
0101
1000
0000
1001
0010
,  // measure 13
0000
0011
1000
0000
0010
1000
0010
0100
,  // measure 14
0101
1000
0000
1010
0100
0000
1100
0010
,  // measure 15
0000
0011
0100
0000
0010
1000
0100
0010
,  // measure 16
1001
0100
0000
1001
0010
0000
1001
0100
,  // measure 17
0000
1001
0010
0000
1010
0100
0010
0100
,  // measure 18
1001
0010
0000
0011
0100
0000
1001
1000
,  // measure 19
0000
0101
0100
0000
0010
1000
0100
0010
,  // measure 20
0101
1000
0010
0200
0000
0301
1000
0010
,  // measure 21
1000
0002
0000
0013
0001
1000
0100
0000
,  // measure 22
0001
0100
1000
0020
0000
0130
1000
0100
,  // measure 23
0001
0200
0000
0310
1000
0010
0100
0000
,  // measure 24
0001
1000
0010
0200
0000
0301
1000
0010
,  // measure 25
0100
0002
0000
1003
0100
0010
0100
0000
,  // measure 26
1000
0010
0100
0002
0000
1003
0001
0010
,  // measure 27
0100
2000
0000
3010
1000
0010
0100
0000
,  // measure 28
0101
1000
0001
0100
0000
0100
1000
0001
,  // measure 29
0100
0001
0000
1000
0010
0000
0110
0000
,  // measure 30
1010
0001
1000
0010
0000
0001
1000
0010
,  // measure 31
1000
0001
0000
1000
0100
1000
0100
0000
,  // measure 32
0110
0001
0100
1000
0000
0001
0100
1000
,  // measure 33
0100
0001
0000
1000
0100
0001
0100
0000
,  // measure 34
1100
1000
0010
1000
0100
0000
0100
0000
,  // measure 35
0010
0001
0100
0001
0010
0000
0100
0000
,  // measure 36
0101
0101
0011
0011
,  // measure 37
0010
0000
0010
0001
1000
0001
0100
0010
,  // measure 38
0100
0001
1000
0000
1000
0010
0001
0000
,  // measure 39
0001
0010
0100
0010
0001
0100
0010
0100
,  // measure 40
0001
1000
0100
1000
0010
0000
0100
0000
,  // measure 41
0110
0000
0110
0000
0001
1000
0100
1000
,  // measure 42
0010
1000
0100
0001
0100
0000
0100
0000
,  // measure 43
0100
1000
0010
1000
0100
0100
0100
0000
,  // measure 44
1000
0100
0001
0000
1000
0010
0001
0000
,  // measure 45
0001
0100
1000
0000
0001
0010
0100
0001
,  // measure 46
0100
0010
1000
0010
0001
0010
1000
0010
,  // measure 47
0001
0100
1000
0100
0001
0100
1000
0100
,  // measure 48
0100
0001
1000
0010
0001
1000
0100
0010
,  // measure 49
1000
0100
0001
1000
0010
0001
1000
0100
,  // measure 50
0020
0001
0000
0100
,  // measure 51
0000
1000
0000
0130
,  // measure 52
0110
0001
0000
0001
0010
0000
1001
0010
,  // measure 53
0000
0010
1000
0000
1000
0100
0001
0000
,  // measure 54
1100
0001
0100
0010
0000
0100
0001
1000
,  // measure 55
0001
0100
0000
0010
1000
0100
0010
0000
,  // measure 56
1010
0001
1000
0010
0000
0010
1000
0100
,  // measure 57
0001
0100
0000
0100
0010
0100
0010
0000
,  // measure 58
0101
1000
0100
0001
0000
1000
0100
1000
,  // measure 59
0001
0100
0000
0100
0010
0100
0010
0000
,  // measure 60
1001
0010
0000
0010
1001
0000
1001
0010
,  // measure 61
0000
0010
1001
0000
0010
0100
0010
0000
,  // measure 62
1001
0100
0000
0100
1001
0000
1001
0100
,  // measure 63
0000
0100
1001
0000
0100
0010
0100
0000
;

//---------------dance-single - ----------------
#NOTEDATA:;
#CHARTNAME:[Ness];
#STEPSTYPE:dance-single;
#DESCRIPTION:[Ness];
#CHARTSTYLE:;
#DIFFICULTY:Medium;
#METER:6;
#RADARVALUES:0.451913,0.540745,0.249479,0.059875,0.000000,317.000000,292.000000,25.000000,6.000000,0.000000,0.000000,0.000000,0.000000,0.000000,0.451913,0.540745,0.249479,0.059875,0.000000,317.000000,292.000000,25.000000,6.000000,0.000000,0.000000,0.000000,0.000000,0.000000;
#CREDIT:[Ness];
#NOTES:
// measure 0
0000
0000
0000
0000
,  // measure 1
0000
0000
0000
0000
,  // measure 2
0000
0000
0000
0000
,  // measure 3
0000
0000
0000
0000
,  // measure 4
1000
0001
1000
0001
1000
0001
1000
0000
,  // measure 5
0001
1000
0001
1000
0001
1000
0001
0000
,  // measure 6
1000
0001
1000
0001
1000
0001
1000
0000
,  // measure 7
0001
1000
0001
1000
0001
1000
0001
0000
,  // measure 8
0100
0001
1000
0001
1000
0001
1000
0000
,  // measure 9
0001
1000
0001
1000
0001
1000
0001
0000
,  // measure 10
0100
0010
1000
0001
1000
0001
1000
0001
,  // measure 11
0100
0010
1000
0001
0100
0010
1000
0001
,  // measure 12
1000
0100
0000
0100
1000
0000
0001
1000
,  // measure 13
0000
1000
0001
0000
0100
0000
0100
0000
,  // measure 14
0010
1000
0000
1000
0001
0000
0010
0001
,  // measure 15
0000
0001
1000
0000
0010
0000
0100
0000
,  // measure 16
0010
1000
0000
1000
0010
0000
0100
0001
,  // measure 17
0000
0001
0100
0000
0010
0000
1000
0000
,  // measure 18
0001
0010
0000
0010
0001
0000
1000
0100
,  // measure 19
0000
0100
0010
0000
0110
0000
1001
0000
,  // measure 20
0010
0001
0000
1000
0010
0000
0100
0001
,  // measure 21
0000
1000
0100
0000
0110
0000
0110
0000
,  // measure 22
1000
0001
0000
1000
0010
0000
1000
0100
,  // measure 23
0000
1000
0001
0000
0101
0000
1001
0000
,  // measure 24
0001
0100
0000
0001
1000
0000
0001
0010
,  // measure 25
0000
0100
1000
0000
1010
0000
1001
0000
,  // measure 26
0010
1000
0000
1000
0001
0000
0010
0001
,  // measure 27
0000
0001
0010
0000
0110
0000
1001
0000
,  // measure 28
0001
0000
0001
0010
0000
0010
0100
0000
,  // measure 29
0100
1000
0000
0000
1001
0000
0110
0000
,  // measure 30
0010
0000
0010
1000
0000
1000
0010
0000
,  // measure 31
0010
0100
0000
0100
0001
0000
0101
0000
,  // measure 32
1000
0000
1000
0100
0000
0100
0010
0000
,  // measure 33
0010
0001
0000
0001
1000
0000
1001
0000
,  // measure 34
0010
0000
1000
0001
0000
1000
0100
0000
,  // measure 35
0100
0010
0100
0010
,  // measure 36
0022
0033
2020
3030
,  // measure 37
1000
0001
0100
0010
,  // measure 38
0100
0100
0001
0001
,  // measure 39
1000
0000
1000
0000
0100
0010
0100
0000
,  // measure 40
0110
0110
1001
1001
,  // measure 41
0010
0010
0001
1000
,  // measure 42
0010
0100
0010
0100
,  // measure 43
0001
1000
0010
0100
,  // measure 44
0001
0100
0001
0000
1000
0010
1000
0000
,  // measure 45
0100
0100
0010
0001
,  // measure 46
1000
0100
1000
0000
0001
0010
0001
0000
,  // measure 47
0010
0100
1000
0010
,  // measure 48
0100
0001
1000
0000
1000
0010
0100
0000
,  // measure 49
0100
0001
0010
0000
0010
0100
1000
0000
,  // measure 50
2002
0000
0000
0000
,  // measure 51
0000
0000
3003
0000
,  // measure 52
0001
0010
0000
0010
0100
0000
0100
1000
,  // measure 53
0000
1000
0010
0000
0100
0000
0100
0000
,  // measure 54
0010
1000
0000
1000
0001
0000
0001
0010
,  // measure 55
0000
0010
0100
0000
1000
0000
1000
0000
,  // measure 56
0001
0100
0000
1000
0100
0000
0001
0100
,  // measure 57
0000
1000
0100
0000
0010
0000
0010
0000
,  // measure 58
1000
0010
0000
0001
0010
0000
1000
0010
,  // measure 59
0000
0001
0010
0000
0100
0000
0100
0000
,  // measure 60
1000
0000
0000
1001
0000
0000
0100
0000
,  // measure 61
0000
0110
0000
0000
0001
0000
1000
0000
,  // measure 62
0001
0000
0000
1001
0000
0000
0010
0000
,  // measure 63
0000
0110
0000
0000
1000
0000
0001
0000
;

//---------------dance-single - ----------------
#NOTEDATA:;
#CHARTNAME:[Ness];
#STEPSTYPE:dance-single;
#DESCRIPTION:[Ness];
#CHARTSTYLE:;
#DIFFICULTY:Easy;
#METER:3;
#RADARVALUES:0.230946,0.286277,0.049896,0.000000,0.000000,162.000000,157.000000,5.000000,0.000000,0.000000,0.000000,0.000000,0.000000,0.000000,0.230946,0.286277,0.049896,0.000000,0.000000,162.000000,157.000000,5.000000,0.000000,0.000000,0.000000,0.000000,0.000000,0.000000;
#CREDIT:[Ness];
#NOTES:
// measure 0
0000
0000
0000
0000
,  // measure 1
0000
0000
0000
0000
,  // measure 2
0000
0000
0000
0000
,  // measure 3
0000
0000
0000
0000
,  // measure 4
1000
0000
0100
0000
,  // measure 5
0001
0000
0100
0000
,  // measure 6
1000
0000
0100
0000
,  // measure 7
0001
0000
0100
0000
,  // measure 8
1000
1000
1000
0000
,  // measure 9
0001
0001
0001
0000
,  // measure 10
0010
0010
0010
0000
,  // measure 11
0100
0100
0100
0000
,  // measure 12
1000
0000
0000
0000
,  // measure 13
0000
0000
0001
0001
,  // measure 14
0001
0000
0000
0000
,  // measure 15
0000
0000
0100
0010
,  // measure 16
0100
0000
0000
0000
,  // measure 17
0000
0000
0010
0010
,  // measure 18
0010
0000
0000
0000
,  // measure 19
0000
0000
1000
0001
,  // measure 20
1000
1000
0100
0100
,  // measure 21
0001
0001
0100
0000
,  // measure 22
0001
0001
0100
0100
,  // measure 23
1000
1000
0100
0000
,  // measure 24
1000
1000
0001
0001
,  // measure 25
0010
0010
0100
0000
,  // measure 26
0001
0001
1000
1000
,  // measure 27
0010
0010
0100
0000
,  // measure 28
0001
0100
0001
0100
,  // measure 29
1000
0100
0001
0000
,  // measure 30
1000
0001
1000
0001
,  // measure 31
1000
0010
1000
0000
,  // measure 32
0010
1000
0010
1000
,  // measure 33
0010
0100
0010
0000
,  // measure 34
0100
0001
0100
0000
,  // measure 35
0010
0000
0010
0000
,  // measure 36
1100
0000
1001
0000
,  // measure 37
1000
1000
0100
0100
,  // measure 38
0010
0010
0001
0001
,  // measure 39
0100
0000
0010
0000
,  // measure 40
0101
0000
1001
0000
,  // measure 41
0001
0001
0100
0100
,  // measure 42
0010
0010
1000
1000
,  // measure 43
0001
0100
0001
0000
,  // measure 44
1000
0010
1000
0000
,  // measure 45
0010
0100
0010
0000
,  // measure 46
0100
0000
0001
0000
,  // measure 47
1000
0001
1000
0000
,  // measure 48
0100
0000
0010
0000
,  // measure 49
0001
0000
1000
0000
,  // measure 50
1001
0000
0000
0000
,  // measure 51
0000
0000
0000
0000
,  // measure 52
0010
0000
1000
0000
,  // measure 53
0010
0000
1000
0001
,  // measure 54
0100
0000
0010
0000
,  // measure 55
0100
0000
0001
1000
,  // measure 56
0010
0000
1000
0000
,  // measure 57
0010
0000
1000
0001
,  // measure 58
0010
0000
0001
0000
,  // measure 59
0010
0000
0001
1000
,  // measure 60
0100
0000
0100
0000
,  // measure 61
0100
0000
0100
0100
,  // measure 62
0010
0000
0010
0000
,  // measure 63
0010
0000
0001
1000
;

//---------------dance-single - ----------------
#NOTEDATA:;
#CHARTNAME:[Ness];
#STEPSTYPE:dance-single;
#DESCRIPTION:[Ness];
#CHARTSTYLE:;
#DIFFICULTY:Beginner;
#METER:1;
#RADARVALUES:0.119750,0.155924,0.000000,0.000000,0.000000,84.000000,84.000000,0.000000,0.000000,0.000000,0.000000,0.000000,0.000000,0.000000,0.119750,0.155924,0.000000,0.000000,0.000000,84.000000,84.000000,0.000000,0.000000,0.000000,0.000000,0.000000,0.000000,0.000000;
#CREDIT:[Ness];
#NOTES:
// measure 0
0000
0000
0000
0000
,  // measure 1
0000
0000
0000
0000
,  // measure 2
0000
0000
0000
0000
,  // measure 3
0000
0000
0000
0000
,  // measure 4
1000
0000
0000
0000
,  // measure 5
0001
0000
0000
0000
,  // measure 6
1000
0000
0000
0000
,  // measure 7
0001
0000
0000
0000
,  // measure 8
1000
0000
0000
0000
,  // measure 9
0001
0000
0000
0000
,  // measure 10
1000
0000
0000
0000
,  // measure 11
0001
0000
0000
0000
,  // measure 12
1000
0000
1000
0000
,  // measure 13
1000
0000
0000
0000
,  // measure 14
0001
0000
0001
0000
,  // measure 15
0001
0000
0000
0000
,  // measure 16
0100
0000
0100
0000
,  // measure 17
0100
0000
0000
0000
,  // measure 18
0010
0000
0010
0000
,  // measure 19
0010
0000
0000
0000
,  // measure 20
1000
0000
1000
0000
,  // measure 21
1000
0000
0000
0000
,  // measure 22
0100
0000
0100
0000
,  // measure 23
0100
0000
0000
0000
,  // measure 24
1000
0000
1000
0000
,  // measure 25
1000
0000
0000
0000
,  // measure 26
0001
0000
0001
0000
,  // measure 27
0001
0000
0000
0000
,  // measure 28
0100
0000
0100
0000
,  // measure 29
0100
0000
0100
0000
,  // measure 30
0001
0000
0001
0000
,  // measure 31
0001
0000
0001
0000
,  // measure 32
1000
0000
1000
0000
,  // measure 33
1000
0000
1000
0000
,  // measure 34
0010
0000
0010
0000
,  // measure 35
0100
0000
0100
0000
,  // measure 36
0001
0000
0001
0000
,  // measure 37
0000
0000
1000
0000
,  // measure 38
0100
0000
0100
0000
,  // measure 39
0000
0000
0000
0000
,  // measure 40
0010
0000
0010
0000
,  // measure 41
0000
0000
0001
0000
,  // measure 42
1000
0000
1000
0000
,  // measure 43
0000
0000
0000
0000
,  // measure 44
0001
0000
0000
0000
,  // measure 45
0100
0000
0000
0000
,  // measure 46
1000
0000
0000
0000
,  // measure 47
0000
0000
0000
0000
,  // measure 48
1000
0000
0010
0000
,  // measure 49
1000
0000
0001
0000
,  // measure 50
0100
0000
0000
0000
,  // measure 51
0000
0000
0000
0000
,  // measure 52
0010
0000
0010
0000
,  // measure 53
0010
0000
1000
0000
,  // measure 54
0001
0000
0001
0000
,  // measure 55
0001
0000
0100
0000
,  // measure 56
1000
0000
1000
0000
,  // measure 57
1000
0000
0000
0000
,  // measure 58
0100
0000
0100
0000
,  // measure 59
0100
0000
0000
0000
,  // measure 60
0001
0000
0001
0000
,  // measure 61
0000
0000
0000
0000
,  // measure 62
1000
0000
1000
0000
;
