#TITLE:What Angel Wakes Me;
#SUBTITLE:The Dancing Plague;
#ARTIST:Masayoshi Soken;
#TITLETRANSLIT:;
#SUBTITLETRANSLIT:;
#ARTISTTRANSLIT:;
#GENRE:Shadowbringers;
#CREDIT:;
#BANNER:Final Fantasy XIV - What Angel Wakes Me.png;
#BACKGROUND:Final Fantasy XIV - What Angel Wakes Me-bg.png;
#LYRICSPATH:Final Fantasy XIV - What Angel Wakes Me.lrc;
#CDTITLE:;
#MUSIC:Final Fantasy XIV - What Angel Wakes Me.mp3;
#OFFSET:-0.017000;
#SAMPLESTART:15.664049;
#SAMPLELENGTH:16.333334;
#LASTBEATHINT:350.402679;
#SELECTABLE:YES;
#BPMS:0.000000=180.000000
;
#STOPS:28.000000=0.333000,
33.000000=0.333000,
38.000000=0.333000
;
#BGCHANGES:;
#KEYSOUNDS:;
#ATTACKS:;

//---------------dance-single - ----------------
#NOTES:
     dance-single:
     [Ness]:
     Challenge:
     10:
     0.633502,0.719519,0.342149,0.342149,0.057025,661.000000,610.000000,51.000000,51.000000,0.000000,0.000000,0.633502,0.719519,0.342149,0.342149,0.057025,661.000000,610.000000,51.000000,51.000000,0.000000,0.000000:
0000
0000
0000
0000
,
0000
0000
0000
0000
,
0000
0000
0000
0000
,
0000
0000
0000
0000
,
0000
0000
0000
0000
,
0000
0000
0000
0000
,
1000
1010
0110
0001
,
1100
0000
1000
0010
0100
0001
0010
0100
,
1100
0000
1100
0000
0001
0100
0010
0100
,
1000
0100
0101
0000
0101
0000
1000
0010
,
0100
0001
0001
0010
0110
0100
0110
0000
,
1000
0100
0001
0100
1000
0000
0001
0010
,
1000
0010
0001
0000
1000
0100
0001
0100
,
1000
0010
0010
0100
0100
0001
0001
0000
,
1000
0000
0010
0000
0001
0010
1000
0000
0010
0000
0000
0000
0100
0000
1000
0000
,
0100
0001
0100
0000
0010
1000
0001
0100
,
1000
0100
0100
0001
0001
1000
1000
0000
,
0001
0100
0010
0001
0001
0000
1000
0100
,
0010
1000
1000
0000
0001
0010
1000
0010
,
0001
1000
1000
0010
0010
0100
0100
0000
,
0010
0100
0010
0001
0001
0000
0010
0100
,
0010
1000
1000
0000
0100
0010
0100
1000
,
0001
0010
0010
0100
0100
1000
1000
0000
,
0001
0010
0210
0000
0000
1000
0000
1300
,
0010
0000
0100
0001
0100
1000
0010
0000
,
0001
0100
1000
0010
0001
0000
0001
0100
,
1000
0010
0201
0000
0000
0010
0000
0310
,
1000
0000
0100
0001
0100
1000
0010
0000
,
0001
0010
1000
0100
0001
0000
0001
0010
,
1000
0100
0210
0000
0000
1000
0000
1300
,
0010
0000
0100
0001
0010
1000
0010
0000
,
0100
1000
0100
0010
0001
0000
0010
0001
,
0010
0100
1000
0000
0010
0100
0100
0010
,
1000
0101
1100
0202
,
0000
0000
0000
0303
,
1000
0100
0001
0100
1000
0000
0001
0010
,
1000
0010
0001
0000
1000
0010
0001
0010
,
1000
0001
0001
0100
0100
0010
0010
0000
,
1000
0000
0100
0000
0001
0100
1000
0000
0100
0000
0000
0000
0010
0000
1000
0000
,
0010
0001
0010
0000
0100
0001
0100
1000
,
0010
0100
0100
0001
0001
1000
1000
0000
,
0001
0100
0010
0001
0001
0000
1000
0100
,
0010
1000
1000
0000
0001
0010
0100
1000
,
0001
0010
0010
0100
0100
1000
1000
0000
,
0010
0100
0010
0001
0010
0000
0100
0010
,
0100
1000
0100
0000
0010
1000
0100
0001
,
0100
1000
1000
0001
0001
0100
0100
0000
,
0010
1000
0220
0000
0000
0000
0330
0000
,
2002
0000
0000
0000
3003
0001
0010
0000
,
1000
0100
0000
0100
0020
0000
0001
0000
,
0130
2200
0000
0000
,
3300
0010
0100
0022
,
0033
1000
0010
0000
2020
0000
3030
0001
,
0010
0220
0000
0330
,
0202
0000
0000
0000
0303
1000
0010
0000
,
0100
0001
0100
0000
2010
0000
3002
0000
,
1003
2002
0000
3003
,
0110
1100
0101
2200
,
0000
0000
0000
0000
,
3300
0000
0001
0010
1000
0010
0001
1000
,
0100
0001
0001
0100
1000
1000
0010
0001
,
0010
0000
1000
0000
0001
0000
0001
0000
0100
0010
0000
0000
0010
1000
0000
0000
,
1000
0001
0000
0000
0001
0000
0010
0000
1000
0000
0010
0000
0001
0000
0100
0000
,
0010
0001
0010
0100
0001
0100
1000
0100
,
0010
1000
0100
0010
1000
0010
0001
0100
,
1000
0010
0001
0100
0010
0001
0001
0010
,
1000
0100
0010
1000
1000
0010
0001
0100
,
1000
0000
0100
0000
0100
0000
0001
0000
0010
0001
0000
0000
1000
0010
0000
0000
,
0100
1000
0000
0000
0100
0000
0001
0000
0100
0000
0010
0000
0001
0000
0001
0000
,
0010
1000
0010
0100
0100
1000
0100
0010
,
1000
0100
0010
0100
0001
0001
1000
0010
,
0001
0000
1100
1000
0010
0001
0010
1000
,
1100
1000
0010
0001
0010
1000
1100
1000
,
0010
0000
0001
0000
0010
0000
1000
0000
0001
0100
0000
0000
0100
0010
0000
0000
,
0010
1000
0000
0000
0101
0000
1000
0000
0010
0000
0001
0000
0100
0000
1000
0000
,
0101
1000
0010
0001
0100
1000
0101
1000
,
0010
0000
0001
0000
0100
0000
0010
0000
1000
0100
0000
0000
0001
1000
0000
0000
,
0010
0001
0000
0000
1000
0000
0010
0000
0001
0000
0100
0000
0010
0000
1000
0000
,
1000
0100
0001
0010
0100
0001
0010
1000
,
0100
0000
0001
0000
0100
0000
0010
0000
0001
1000
0000
0000
0010
0001
0000
0000
,
0100
1000
0000
0000
0011
0000
0100
0000
1000
0000
0010
0000
0001
0000
0100
0000
,
1010
0100
0001
0010
1000
0100
0011
0100
,
0001
0010
1000
0100
0010
1000
0010
0001
,
0100
0010
2010
0000
3001
0010
0000
0010
,
0002
0103
0020
1030
,
1000
0001
0000
0001
0100
0000
0110
0000
,
1100
0000
0202
0000
0303
1000
0000
1000
,
0020
0000
0130
0000
0002
0000
0013
0100
,
0020
0000
0030
0001
0200
0000
1000
0000
,
0301
0000
0101
1000
0010
0200
0000
0310
,
2000
0000
3001
0000
1001
0000
0010
0001
,
0100
0020
0000
1030
0001
0000
1100
0000
,
0110
0000
0021
0000
0031
1000
0000
1000
,
0010
0000
0100
0000
0010
1000
0100
0010
,
0200
0000
0300
0001
0200
0000
1000
0000
,
0301
0220
0000
0330
,
1001
0010
0100
0010
0100
0010
2002
0000
,
0000
0000
3003
0000
0010
1000
0100
0001
,
0100
1000
0020
0000
0000
0000
0000
0000
,
0130
0001
0010
1000
0010
0001
0200
0000
,
0000
0000
0310
1000
,
0001
0000
1000
0100
1000
0100
0001
0100
,
2000
0000
0001
0000
3100
0000
0001
0010
,
0001
0010
1000
0010
0002
0000
1000
0000
,
0103
0000
0010
0100
0010
0000
0010
0001
,
0010
0000
0010
1000
0010
0001
0200
0000
,
1000
0301
0120
0001
,
1030
0110
0000
0000
;

//---------------dance-single - ----------------
#NOTES:
     dance-single:
     [Ness]:
     Hard:
     9:
     0.594208,0.647567,0.301896,0.409237,0.070442,620.000000,575.000000,45.000000,61.000000,0.000000,0.000000,0.594208,0.647567,0.301896,0.409237,0.070442,620.000000,575.000000,45.000000,61.000000,0.000000,0.000000:
// measure 0
0000
0000
0000
0000
,  // measure 1
0000
0000
0000
0000
,  // measure 2
0000
0000
0000
0000
,  // measure 3
0000
0000
0000
0000
,  // measure 4
0000
0000
0000
0000
,  // measure 5
0000
0000
0000
0000
,  // measure 6
1000
0010
0100
0001
,  // measure 7
1100
0000
0001
0000
0010
0001
0100
0000
,  // measure 8
1100
0000
1100
0000
0001
1000
0010
0100
,  // measure 9
0001
0000
0101
0000
0101
0000
1000
0010
,  // measure 10
0100
0001
0010
0100
1000
0000
1001
0000
,  // measure 11
0001
0100
0010
0100
0001
0000
1000
0010
,  // measure 12
0100
0010
1000
0000
0001
0100
0010
0100
,  // measure 13
0001
1000
0001
1000
0001
1000
0002
0000
,  // measure 14
1003
0010
0100
0001
0010
0000
0001
0010
,  // measure 15
0100
1000
0010
0000
1000
0010
0100
0001
,  // measure 16
0010
0100
0010
0100
0010
0100
0020
0000
,  // measure 17
0031
0100
0010
1000
0100
0000
0100
1000
,  // measure 18
0010
0100
0001
0000
0001
0010
0100
0010
,  // measure 19
0001
1000
0001
1000
0001
1000
0002
0000
,  // measure 20
0013
0100
0010
0001
1000
0000
0010
0100
,  // measure 21
0010
1000
0001
0000
0100
0010
0100
0001
,  // measure 22
1000
0010
1000
0010
1000
0010
2000
0000
,  // measure 23
3001
0010
0210
0000
0000
1000
0000
1300
,  // measure 24
0010
0000
0100
0001
1000
0000
0010
0000
,  // measure 25
1000
0100
0010
0000
0001
0000
1000
0010
,  // measure 26
0100
0000
0201
0000
0000
0010
0000
0310
,  // measure 27
0100
0000
0001
1000
0100
1000
0001
0000
,  // measure 28
1000
0001
0100
0001
1000
0000
0001
1000
,  // measure 29
0010
0100
0210
0000
0000
0001
0000
0301
,  // measure 30
0010
0000
0100
1000
0100
0000
0010
0000
,  // measure 31
0001
1000
0010
0000
0100
0000
0001
1000
,  // measure 32
0100
1000
0001
0000
0010
0100
0010
0001
,  // measure 33
1000
0202
0303
2200
,  // measure 34
0000
0000
0000
3300
,  // measure 35
0010
0100
1000
0100
0001
0000
1000
0010
,  // measure 36
0100
0010
1000
0000
0001
0010
1000
0001
,  // measure 37
0100
1000
0100
1000
0100
1000
0200
0000
,  // measure 38
0310
0001
1000
0001
0010
0000
0100
1000
,  // measure 39
0001
1000
0010
0000
0100
0001
1000
0001
,  // measure 40
0100
0010
0100
0010
0100
0010
0200
0000
,  // measure 41
0310
1000
0001
1000
0010
0000
1000
0001
,  // measure 42
0010
0001
1000
0000
0001
1000
0010
0100
,  // measure 43
0001
1000
0001
1000
0001
1000
0002
0000
,  // measure 44
0013
0001
0010
0100
0010
0000
0100
1000
,  // measure 45
0100
0010
0100
0000
0010
0001
0100
1000
,  // measure 46
0100
0001
1000
0001
1000
0001
2000
0000
,  // measure 47
3000
0020
0200
0000
0000
0000
0330
0000
,  // measure 48
2002
0000
0000
0000
3003
1000
0010
0000
,  // measure 49
0001
0100
0000
0100
0020
0000
1000
0000
,  // measure 50
0130
0202
0000
0000
,  // measure 51
0303
0010
0100
2020
,  // measure 52
3030
0001
0010
0000
0022
0000
0033
1000
,  // measure 53
0010
0220
0000
0330
,  // measure 54
2200
0000
0000
0000
3300
0001
0010
0000
,  // measure 55
0100
1000
0100
0000
0012
0000
2003
0000
,  // measure 56
3001
2002
0000
3003
,  // measure 57
0110
0101
1100
0202
,  // measure 58
0000
0000
0000
0000
,  // measure 59
0303
0000
1000
0100
1000
0001
1000
0000
,  // measure 60
0001
0100
0001
1000
0001
0000
1000
0010
,  // measure 61
1000
0000
0001
0000
1000
0000
0000
0000
0001
0100
0000
0000
0100
0010
0000
0000
,  // measure 62
0010
1000
0000
0000
0001
0000
0010
0000
0100
0000
1000
0000
0001
0000
0000
0000
,  // measure 63
1000
0010
0100
0001
1000
0000
0001
0010
,  // measure 64
0100
0000
1000
0000
0010
0000
0100
0000
0001
0100
0000
0000
0100
0001
0000
0000
,  // measure 65
0001
0100
0000
0000
0010
0000
1000
0000
0100
0000
0001
0000
0100
0000
0000
0000
,  // measure 66
0100
1000
0010
0001
0010
0000
0010
0001
,  // measure 67
0010
0000
0100
0000
0010
0000
0000
0000
1000
0001
0000
0000
0001
1000
0000
0000
,  // measure 68
1000
0100
0000
0000
1000
0000
0100
0000
0001
0000
0100
0000
1000
0000
0000
0000
,  // measure 69
1000
0100
0010
0100
1000
0000
1000
0010
,  // measure 70
0001
0000
0010
0000
1000
0000
0100
0000
0100
0010
0000
0000
0010
0001
0000
0000
,  // measure 71
0001
1000
0000
0000
0010
0000
1000
0000
0010
0000
1000
0000
1001
0000
0000
0000
,  // measure 72
0100
0001
0100
0001
1001
0000
0010
0001
,  // measure 73
0100
0000
0001
0000
0011
0000
0000
0000
0010
0001
0000
0000
0001
0100
0000
0000
,  // measure 74
0100
1000
0000
0000
0100
0000
1000
0000
0100
0000
0010
0000
0110
0000
0000
0000
,  // measure 75
0010
0001
1000
0001
0011
0000
1000
0100
,  // measure 76
0010
0000
0001
0000
0100
0000
0010
0000
1000
0001
0000
0000
1000
0010
0000
0000
,  // measure 77
1000
0100
0000
0000
1001
0000
0001
0000
0010
0000
0100
0000
1000
0000
0000
0000
,  // measure 78
0010
1000
0100
0010
0001
0000
0100
0001
,  // measure 79
1000
0000
0100
0000
0010
0000
0000
0000
0001
0010
0000
0000
0010
1000
0000
0000
,  // measure 80
1000
0001
0000
0000
1000
0000
0100
0000
1000
0000
0100
0000
0101
0000
0000
0000
,  // measure 81
0001
0100
0001
0100
0110
0000
0001
0010
,  // measure 82
0001
0010
1000
0010
0001
0000
1000
0000
,  // measure 83
0100
0000
0012
0000
1003
0010
0000
0010
,  // measure 84
2000
3100
0020
0031
,  // measure 85
0001
1000
0000
1000
0100
0000
0110
0000
,  // measure 86
0101
0000
2200
0000
3300
0001
0000
0001
,  // measure 87
0020
0000
0130
0000
2000
0000
3010
0100
,  // measure 88
0020
0000
0030
1000
0200
0000
0001
0000
,  // measure 89
1300
0000
1100
0001
0010
0200
0000
0310
,  // measure 90
0002
0000
1003
0000
1001
0000
0010
1000
,  // measure 91
0100
0020
0000
0031
1000
0000
0101
0000
,  // measure 92
0110
0000
1020
0000
1030
0001
0000
0001
,  // measure 93
0010
0000
0100
0000
0010
0001
0100
0010
,  // measure 94
0200
0000
0300
1000
0200
0000
0001
0000
,  // measure 95
1300
0220
0000
0330
,  // measure 96
1001
0010
0100
0010
0100
0010
2002
0000
,  // measure 97
0000
0000
3003
0000
0010
0001
0100
1000
,  // measure 98
0100
0001
0020
0000
0000
0000
0000
0000
,  // measure 99
0130
1000
0010
0001
0010
1000
0200
0000
,  // measure 100
0000
0000
0310
0001
,  // measure 101
1000
0000
0001
0100
0001
0100
1000
0100
,  // measure 102
0002
0000
1000
0000
0103
0000
1000
0010
,  // measure 103
1000
0010
0001
0010
2000
0000
0001
0000
,  // measure 104
3100
0000
0010
0100
0010
0000
0010
1000
,  // measure 105
0010
0000
0010
0001
0010
1000
0200
0000
,  // measure 106
0001
1300
0120
1000
,  // measure 107
0031
0110
0000
0000
;

//---------------dance-single - ----------------
#NOTES:
     dance-single:
     [Ness]:
     Medium:
     7:
     0.438947,0.575615,0.389110,0.436072,0.000000,458.000000,400.000000,58.000000,65.000000,0.000000,0.000000,0.438947,0.575615,0.389110,0.436072,0.000000,458.000000,400.000000,58.000000,65.000000,0.000000,0.000000:
// measure 0
0000
0000
0000
0000
,  // measure 1
0000
0000
0000
0000
,  // measure 2
0000
0000
0000
0000
,  // measure 3
0000
0000
0000
0000
,  // measure 4
0000
0000
0000
0000
,  // measure 5
0000
0000
0000
0000
,  // measure 6
1000
0010
1000
0010
,  // measure 7
1001
0001
0100
0001
,  // measure 8
0100
1001
0001
0010
,  // measure 9
1000
0100
1001
1000
,  // measure 10
0100
0001
0010
0100
,  // measure 11
1000
0100
1000
0000
0001
0000
0010
0001
,  // measure 12
0010
0000
0100
0000
1000
0010
1000
0000
,  // measure 13
0001
0000
0100
0010
0100
0010
0100
0000
,  // measure 14
0001
1000
0001
0000
0010
0000
0001
1000
,  // measure 15
0001
0000
0100
0000
0010
1000
0010
0000
,  // measure 16
0100
0001
1000
0001
1000
0001
1000
0000
,  // measure 17
0010
0000
1000
0001
1000
0000
0010
0000
,  // measure 18
0100
0001
0100
0000
0010
0000
1000
0100
,  // measure 19
1000
0000
0001
1000
0001
1000
0001
0000
,  // measure 20
0010
0001
0010
0000
0100
0000
1000
0100
,  // measure 21
1000
0000
0010
0000
0100
0001
0100
0000
,  // measure 22
0010
1000
0001
1000
0001
1000
0001
0000
,  // measure 23
0000
2002
0000
0003
,  // measure 24
0020
0000
0030
0200
,  // measure 25
0000
3300
0000
1100
,  // measure 26
1001
0202
0000
0300
,  // measure 27
2000
0000
3000
0020
,  // measure 28
0000
0033
0011
1001
,  // measure 29
1100
2002
0000
3000
,  // measure 30
0020
0000
0030
0200
,  // measure 31
0000
0303
0000
0101
,  // measure 32
1010
2002
0000
0000
,  // measure 33
0003
0200
0300
0020
,  // measure 34
0000
0000
0000
3030
,  // measure 35
0001
0100
0001
0000
1000
0000
0010
1000
,  // measure 36
0010
0000
0100
0000
0001
0100
0001
0000
,  // measure 37
1000
0000
0100
1000
0100
1000
0100
0000
,  // measure 38
0010
0001
0100
0000
0010
0000
0100
0001
,  // measure 39
1000
0000
0010
0000
1000
0001
0100
0000
,  // measure 40
0010
1000
0001
1000
0001
1000
0001
0000
,  // measure 41
0010
0000
0100
1000
0100
0000
1000
0000
,  // measure 42
0001
0100
0001
0000
1000
0000
0010
1000
,  // measure 43
0010
0000
1000
0001
0100
0010
0100
0000
,  // measure 44
0001
0100
0001
0100
0001
0000
1000
0010
,  // measure 45
1000
0010
1000
0000
0001
1000
0001
1000
,  // measure 46
0001
0010
0100
0010
0100
0010
0100
0000
,  // measure 47
0000
0220
0000
0330
,  // measure 48
2000
0000
3000
0200
,  // measure 49
0000
0300
0000
0010
,  // measure 50
0001
2002
0000
3003
,  // measure 51
0000
0010
1000
2002
,  // measure 52
0000
3003
0220
0000
,  // measure 53
0330
0002
0000
0003
,  // measure 54
0200
0000
0300
2000
,  // measure 55
0000
3000
0000
0100
,  // measure 56
0010
2002
0000
3003
,  // measure 57
0000
2020
3030
2002
,  // measure 58
0000
0000
0000
3003
,  // measure 59
0000
0000
0001
0100
0001
0100
0001
0000
,  // measure 60
0001
0100
0001
0100
0001
0000
0001
0100
,  // measure 61
0001
0100
0001
0000
0101
0000
0101
0000
,  // measure 62
0101
0000
1000
0100
1000
0100
1000
0000
,  // measure 63
1000
0100
1000
0100
1000
0000
1000
0100
,  // measure 64
1000
0100
1000
0000
1100
0000
1100
0000
,  // measure 65
1100
0000
0010
0100
0010
0100
0010
0000
,  // measure 66
0010
0100
0010
0100
0010
0000
0010
0100
,  // measure 67
0010
0100
0010
0000
1010
0000
0011
0000
,  // measure 68
0110
0000
0010
1000
0010
1000
0010
0000
,  // measure 69
0010
0001
0010
0001
0010
0000
0010
1000
,  // measure 70
0010
1000
0010
0000
0011
0000
1010
0000
,  // measure 71
0011
0000
0100
0001
0100
1000
0100
0000
,  // measure 72
0100
0001
0100
1000
0100
0000
0100
0001
,  // measure 73
0100
1000
0100
0000
0110
0000
0110
0000
,  // measure 74
0110
0000
0100
0001
0100
1000
0100
0000
,  // measure 75
0100
0001
0100
1000
0100
0000
0100
0001
,  // measure 76
0100
1000
0100
0000
0110
0000
0110
0000
,  // measure 77
0110
0000
1000
0001
1000
0001
1000
0000
,  // measure 78
0100
0001
0100
0001
0100
0000
0010
0001
,  // measure 79
0010
0001
0010
0000
0011
0000
0101
0000
,  // measure 80
1001
0000
0001
1000
0001
1000
0001
0000
,  // measure 81
0010
1000
0010
1000
0010
0000
0100
1000
,  // measure 82
0100
1000
0100
0000
1100
0000
1010
0000
,  // measure 83
1001
0000
0010
0000
0000
0001
0000
0000
,  // measure 84
0200
0000
0300
0100
,  // measure 85
0000
1000
0000
0000
0100
0000
0001
0000
,  // measure 86
0010
0000
0100
0000
0000
0010
0000
0000
,  // measure 87
0002
0000
0003
1000
,  // measure 88
0200
0300
0001
1000
,  // measure 89
0010
0000
2020
0000
3030
0001
0000
0000
,  // measure 90
1000
0010
0100
0020
,  // measure 91
0000
1030
0000
0000
0100
0000
0010
0000
,  // measure 92
0001
0000
2000
0000
0000
3001
0000
0000
,  // measure 93
0010
0100
1000
0001
,  // measure 94
0020
0030
0001
0100
,  // measure 95
0010
2002
0000
3003
,  // measure 96
0000
0100
0010
2002
,  // measure 97
0000
3003
0000
0100
,  // measure 98
0010
2002
0000
3003
,  // measure 99
0220
0000
0330
2002
,  // measure 100
0000
3003
0000
0000
,  // measure 101
0000
0202
0000
0303
,  // measure 102
0000
1000
0010
2020
,  // measure 103
0000
3030
0000
0001
,  // measure 104
0010
0022
0000
0033
,  // measure 105
2002
0000
3003
2200
,  // measure 106
0000
3300
0220
0000
,  // measure 107
0330
1001
0000
0000
;

//---------------dance-single - ----------------
#NOTES:
     dance-single:
     [Ness]:
     Easy:
     4:
     0.256851,0.323783,0.060379,0.248226,0.000000,268.000000,259.000000,9.000000,37.000000,0.000000,0.000000,0.256851,0.323783,0.060379,0.248226,0.000000,268.000000,259.000000,9.000000,37.000000,0.000000,0.000000:
// measure 0
0000
0000
0000
0000
,  // measure 1
0000
0000
0000
0000
,  // measure 2
0000
0000
0000
0000
,  // measure 3
0000
0000
0000
0000
,  // measure 4
0000
0000
0000
0000
,  // measure 5
0000
0000
0000
0000
,  // measure 6
0010
0000
0000
1000
,  // measure 7
1000
0100
0000
0000
,  // measure 8
0001
0001
0010
0000
,  // measure 9
0000
0100
0100
1000
,  // measure 10
0000
0000
0001
0001
,  // measure 11
0100
0010
0000
1000
,  // measure 12
0100
0000
0001
0010
,  // measure 13
0000
0100
1000
0001
,  // measure 14
1000
0010
0000
0100
,  // measure 15
0001
0000
1000
0100
,  // measure 16
0000
0010
0001
0100
,  // measure 17
0001
0010
0000
0100
,  // measure 18
1000
0000
0010
0100
,  // measure 19
0000
0001
0010
0100
,  // measure 20
0010
0001
0000
1000
,  // measure 21
0100
0000
0010
0100
,  // measure 22
0000
1000
0010
0001
,  // measure 23
0000
0020
0000
0030
,  // measure 24
1000
0000
0000
0002
,  // measure 25
0000
0003
0010
0000
,  // measure 26
0000
0200
0000
0300
,  // measure 27
1000
0001
1000
0020
,  // measure 28
0000
0030
0100
0000
,  // measure 29
0000
0002
0000
0003
,  // measure 30
1000
0000
0000
0020
,  // measure 31
0000
0030
0100
0000
,  // measure 32
0000
0002
0000
0003
,  // measure 33
0010
0100
0010
0200
,  // measure 34
0000
0000
0000
0000
,  // measure 35
1300
0010
0000
0100
,  // measure 36
0001
0000
0010
0100
,  // measure 37
0000
1000
0010
0001
,  // measure 38
0010
1000
0000
0001
,  // measure 39
0010
0000
0100
1000
,  // measure 40
0000
0001
0010
1000
,  // measure 41
0010
0100
0000
0001
,  // measure 42
1000
0000
0010
0100
,  // measure 43
0000
0001
0010
0100
,  // measure 44
1000
0010
0000
0100
,  // measure 45
0001
0000
1000
0100
,  // measure 46
0000
0010
0001
1000
,  // measure 47
0000
0002
0000
0003
,  // measure 48
0020
0000
0030
0200
,  // measure 49
0000
0300
0000
1000
,  // measure 50
0001
2000
0000
3000
,  // measure 51
0020
0000
0030
0200
,  // measure 52
0000
0300
0002
0000
,  // measure 53
0003
2000
0000
3000
,  // measure 54
0200
0000
0300
0020
,  // measure 55
0000
0030
0000
0001
,  // measure 56
1000
0002
0000
0003
,  // measure 57
0000
0020
0030
0200
,  // measure 58
0000
0000
0000
0300
,  // measure 59
0000
1000
0100
0001
,  // measure 60
0100
1000
0100
0001
,  // measure 61
0100
1000
0100
0100
,  // measure 62
0100
1000
0010
0001
,  // measure 63
0010
1000
0010
0001
,  // measure 64
0010
1000
0010
0010
,  // measure 65
0010
0100
0001
0100
,  // measure 66
1000
0100
0001
0100
,  // measure 67
1000
0100
0001
0001
,  // measure 68
0001
0010
1000
0010
,  // measure 69
0001
0010
1000
0010
,  // measure 70
0001
0010
0100
0100
,  // measure 71
0100
1000
0100
1000
,  // measure 72
0100
0001
0100
0001
,  // measure 73
0010
0001
0010
1000
,  // measure 74
0010
1000
0100
1000
,  // measure 75
0100
0001
0100
0001
,  // measure 76
0010
0001
0010
1000
,  // measure 77
0010
1000
0100
1000
,  // measure 78
0100
0001
0100
0001
,  // measure 79
0010
0001
0010
1000
,  // measure 80
0010
1000
0100
1000
,  // measure 81
0100
0001
0100
0001
,  // measure 82
0010
0001
0010
1000
,  // measure 83
0010
1000
0000
0000
,  // measure 84
0001
0000
0000
0100
,  // measure 85
0000
0000
0010
0010
,  // measure 86
0010
1000
0000
0000
,  // measure 87
0001
0000
0000
0010
,  // measure 88
0000
0000
0100
0000
,  // measure 89
0000
1000
0000
0001
,  // measure 90
0100
0000
0000
0001
,  // measure 91
0000
1000
0100
0000
,  // measure 92
0000
0010
0000
0001
,  // measure 93
0100
0000
0000
0100
,  // measure 94
0000
1000
0010
0000
,  // measure 95
0000
2002
0000
3003
,  // measure 96
0000
0010
1000
2020
,  // measure 97
0000
3030
0000
0010
,  // measure 98
0100
2002
0000
3003
,  // measure 99
0000
0010
0001
0022
,  // measure 100
0000
0033
0000
0000
,  // measure 101
0000
2002
0000
3003
,  // measure 102
0000
0100
1000
2200
,  // measure 103
0000
3300
0000
0100
,  // measure 104
0010
2002
0000
3003
,  // measure 105
0100
0000
0010
0202
,  // measure 106
0000
0303
0000
0000
,  // measure 107
0000
1001
0000
0000
;

//---------------dance-single - ----------------
#NOTES:
     dance-single:
     [Ness]:
     Beginner:
     2:
     0.163886,0.323783,0.228099,0.000000,0.000000,171.000000,137.000000,34.000000,0.000000,0.000000,0.000000,0.163886,0.323783,0.228099,0.000000,0.000000,171.000000,137.000000,34.000000,0.000000,0.000000,0.000000:
// measure 0
0000
0000
0000
0000
,  // measure 1
0000
0000
0000
0000
,  // measure 2
0000
0000
0000
0000
,  // measure 3
0000
0000
0000
0000
,  // measure 4
0000
0000
0000
0000
,  // measure 5
0000
0000
0000
0000
,  // measure 6
0010
0000
0000
0000
,  // measure 7
0000
0100
0000
0000
,  // measure 8
0000
0000
0001
0000
,  // measure 9
0000
0000
0000
1000
,  // measure 10
0000
0000
0000
0000
,  // measure 11
0000
0100
0000
0000
,  // measure 12
0100
0000
0000
0100
,  // measure 13
0000
0000
0100
0000
,  // measure 14
0000
1000
0000
0000
,  // measure 15
1000
0000
0000
1000
,  // measure 16
0000
0000
1000
0000
,  // measure 17
0000
0010
0000
0000
,  // measure 18
0010
0000
0000
0010
,  // measure 19
0000
0000
0010
0000
,  // measure 20
0000
0001
0000
0000
,  // measure 21
0001
0000
0000
0001
,  // measure 22
0000
0000
0001
0000
,  // measure 23
0000
0100
0000
0000
,  // measure 24
0010
0000
0000
0100
,  // measure 25
0000
0000
0000
0000
,  // measure 26
0000
1000
0000
0000
,  // measure 27
0001
0000
0000
1000
,  // measure 28
0000
0000
0000
0000
,  // measure 29
0000
0010
0000
0000
,  // measure 30
1000
0000
0000
0010
,  // measure 31
0000
0000
0000
0000
,  // measure 32
0000
0100
0000
0000
,  // measure 33
0000
0001
0000
0010
,  // measure 34
0000
0000
0000
0000
,  // measure 35
0000
0001
0000
0000
,  // measure 36
1000
0000
0000
0001
,  // measure 37
0000
0000
0010
0000
,  // measure 38
0000
0100
0000
0000
,  // measure 39
1000
0000
0000
0100
,  // measure 40
0000
0000
0010
0000
,  // measure 41
0000
0001
0000
0000
,  // measure 42
0100
0000
0000
0010
,  // measure 43
0000
0000
1000
0000
,  // measure 44
0000
0100
0000
0000
,  // measure 45
0010
0000
0000
0001
,  // measure 46
0000
0000
1000
0000
,  // measure 47
0000
0010
0000
0000
,  // measure 48
0100
0000
0000
0001
,  // measure 49
0000
0000
0000
0000
,  // measure 50
0000
1000
0000
0000
,  // measure 51
0000
0000
0000
0001
,  // measure 52
0000
0000
0010
0000
,  // measure 53
0000
0100
0000
0000
,  // measure 54
1000
0000
0000
0100
,  // measure 55
0000
0000
0000
1000
,  // measure 56
0000
0001
0000
0000
,  // measure 57
0000
0100
0000
0010
,  // measure 58
0000
0000
0000
0000
,  // measure 59
0000
1000
0000
0000
,  // measure 60
0001
0000
0000
0100
,  // measure 61
0000
0000
0110
0110
,  // measure 62
0110
0000
0000
0000
,  // measure 63
0001
0000
0000
1000
,  // measure 64
0000
0000
1001
1001
,  // measure 65
1001
0000
0000
0000
,  // measure 66
0010
0000
0000
1000
,  // measure 67
0000
0000
0110
0110
,  // measure 68
0110
0000
0000
0000
,  // measure 69
0100
0000
0000
0001
,  // measure 70
0000
0000
0110
0110
,  // measure 71
0110
0110
0000
0000
,  // measure 72
1000
0000
0000
0001
,  // measure 73
0000
0000
1001
1001
,  // measure 74
1001
1001
0000
0000
,  // measure 75
0100
0000
0000
0010
,  // measure 76
0000
0000
0110
0110
,  // measure 77
0110
0110
0000
0000
,  // measure 78
0001
0000
0000
1000
,  // measure 79
0000
0000
1001
1001
,  // measure 80
1001
1001
0000
0000
,  // measure 81
0010
0000
0000
0100
,  // measure 82
0000
0000
0110
0110
,  // measure 83
0110
0110
0000
0000
,  // measure 84
1000
0000
0000
0100
,  // measure 85
0000
0000
0001
0000
,  // measure 86
0000
0010
0000
0000
,  // measure 87
1000
0000
0000
0100
,  // measure 88
0000
0000
0001
0000
,  // measure 89
0000
0010
0000
0000
,  // measure 90
0100
0000
0000
1000
,  // measure 91
0000
0000
0001
0000
,  // measure 92
0000
0100
0000
0000
,  // measure 93
0010
0000
0000
1000
,  // measure 94
0000
0000
0001
0000
,  // measure 95
0000
1001
0000
0000
,  // measure 96
0000
0010
0000
1001
,  // measure 97
0000
0000
0000
0000
,  // measure 98
0000
1001
0000
0000
,  // measure 99
0010
0000
0000
1001
,  // measure 100
0000
0000
0000
0000
,  // measure 101
0000
0100
0000
0000
,  // measure 102
0000
0010
0000
0100
,  // measure 103
0000
0000
0000
0001
,  // measure 104
0000
1000
0000
0000
,  // measure 105
0010
0000
0000
0100
,  // measure 106
0000
0000
0001
0000
,  // measure 107
0000
1001
0000
0000
;
