#TITLE:Under the Weight;
#SUBTITLE:The Navel;
#ARTIST:Masayoshi Soken;
#TITLETRANSLIT:;
#SUBTITLETRANSLIT:;
#ARTISTTRANSLIT:;
#GENRE:A Realm Reborn;
#CREDIT:[Ness];
#BANNER:Final Fantasy XIV - Under the Weight.png;
#BACKGROUND:Final Fantasy XIV - Under the Weight-bg.png;
#LYRICSPATH:;
#CDTITLE:;
#MUSIC:Final Fantasy XIV - Under the Weight.mp3;
#OFFSET:-0.037000;
#SAMPLESTART:74.262955;
#SAMPLELENGTH:18.461540;
#LASTBEATHINT:630.047607;
#SELECTABLE:YES;
#DISPLAYBPM:130.000000:270.000000;
#BPMS:0.000000=190.000000
,112.000000=210.000000
,240.000000=52.500000
,242.000000=260.000000
,306.000000=130.000000
,338.000000=270.000000
,615.500000=74.617996
,617.000000=397.959991
,618.000000=270.000000
;
#STOPS:432.000000=0.222000,
617.000000=0.094000,
617.125000=0.094000,
617.250000=0.094000,
617.375000=0.094000,
617.500000=0.094000,
617.625000=0.094000,
617.750000=0.094000,
617.875000=0.094000
;
#BGCHANGES:112.000=Final Fantasy XIV - Under the Weight-bg2.png=1.000=0=0=1===CrossFade_Fastest==,
242.000=Final Fantasy XIV - Under the Weight-bg3.png=1.000=0=0=1===CrossFade_Fastest==,
306.000=Final Fantasy XIV - Under the Weight-bg4.png=1.000=0=0=1===CrossFade_Fastest==,
338.000=Final Fantasy XIV - Under the Weight-bg5.png=1.000=0=0=1===CrossFade_Fastest==,
99999=-nosongbg-=1.000=0=0=0 // don't automatically add -songbackground-
;
#KEYSOUNDS:;
#ATTACKS:;

//---------------dance-single - [Ness]----------------
#NOTES:
     dance-single:
     [Ness]:
     Challenge:
     11:
     0.821605,0.794939,0.720333,0.137206,0.034302,1006.000000,880.000000,126.000000,24.000000,0.000000,0.000000,0.821605,0.794939,0.720333,0.137206,0.034302,1006.000000,880.000000,126.000000,24.000000,0.000000,0.000000:
0000
0000
0000
0000
,
0000
0000
0000
0000
,
0000
0000
0000
0000
,
0000
0000
0000
0000
,
1001
0000
0101
0000
0001
0100
0002
0000
,
1003
0010
1000
0100
0020
0000
0031
1000
,
0100
0001
0200
0000
1300
0001
0001
0100
,
0001
0000
1000
0010
0100
0010
1000
0000
,
1001
0000
1100
0000
0001
1000
0010
1000
,
0001
0000
0010
0001
1000
0001
0010
0100
,
0100
1000
0001
0100
0001
1000
0100
1000
,
0001
1000
0100
0100
0010
0100
1000
0001
,
0101
0000
1010
0000
0100
0001
1000
0100
,
0010
0100
1000
0001
0001
0010
0100
1000
,
0001
0000
0010
0100
0100
1000
0001
0010
,
0100
0000
1000
0100
0010
0100
1000
0000
,
0110
0000
1001
0000
0010
0000
1000
0001
,
0100
0010
0100
1000
1000
0100
0001
0010
,
0100
1000
0100
0010
0010
0001
1000
0001
,
0100
0000
0010
1000
0010
0100
0100
0000
,
0101
0000
1100
0000
0010
1000
0100
1000
,
0100
0001
0100
0000
0010
0001
1000
0001
,
0100
0000
0100
0000
0010
1000
0001
0100
,
0010
1000
0010
0000
0101
0000
1010
0000
,
0101
0000
1000
0000
0100
1000
0100
0001
,
0100
0010
0100
1000
0001
0010
0100
0010
,
1000
0010
0100
0010
0001
1000
0100
0010
,
0100
0001
0100
0010
0100
1000
0001
1000
,
0110
0000
0001
0000
0100
1000
0000
1000
,
0001
0001
0101
0101
,
1010
0000
1010
0000
0001
1000
0000
1000
,
0010
0001
0010
1000
0100
0001
0100
1000
,
0101
0000
1010
0000
0100
1000
0000
1000
,
0010
0100
0011
0011
,
1100
0000
0101
0000
0100
1000
0000
0001
,
0010
1000
0010
0001
1000
0100
0001
0100
,
0010
0000
0101
0000
0100
1001
0000
1000
,
1100
0000
0010
1001
0000
0100
1010
0000
,
0100
0000
0011
0000
0100
1001
0000
0100
,
0001
0010
1000
0010
0001
0100
1000
0100
,
0001
0000
1100
0000
1000
0101
0000
0100
,
1010
0000
0100
0011
0000
0100
1010
0000
,
0001
0000
1001
0000
0010
0101
0000
0100
,
1000
0100
0001
0010
1000
0010
0001
0100
,
0001
1000
0001
0000
0102
0100
0000
0103
,
0101
0011
1010
1100
,
0100
1000
0100
0000
0100
0010
0000
0010
,
0001
0100
1000
0001
0010
1000
0001
0100
,
0010
0000
0101
0000
2010
0100
0000
3100
,
1010
0101
0110
1001
,
1000
0100
1000
0000
0001
0010
0000
0100
,
1000
0100
0001
0100
1000
0010
0001
0010
,
1000
0000
0001
0000
0110
2000
3000
0110
,
0002
0003
0110
2000
3000
0110
0002
0003
,
1000
0000
0110
0000
0001
1000
0000
0001
,
1000
0100
0001
0100
1000
0010
0001
0010
,
1000
0000
0101
0000
0100
1100
0000
0100
,
1001
0110
1010
0101
,
0100
0010
0100
0000
0100
0001
0000
0001
,
1000
0010
0001
0010
1000
0100
0001
0100
,
1000
0000
0000
0000
0001
0100
0001
0000
,
1000
0000
1000
0000
0010
1000
0010
0000
,
0100
0000
0100
0000
0001
1000
0001
0100
,
0001
1000
0200
0000
0000
0000
0310
0000
,
0010
0001
0010
0000
0100
1000
0001
0000
,
0101
0000
0101
0000
0100
0001
1000
0000
,
1100
0000
1100
0000
1000
0010
1000
0001
,
1000
0010
2000
0000
0000
0000
3001
0000
,
0100
0001
0100
0000
0010
1000
0001
0000
,
0110
0000
0110
0000
0100
1000
0001
0000
,
0110
0000
0110
0000
0001
0100
0010
1000
,
0100
0010
0200
0000
0000
0000
1300
0000
,
0010
1000
0100
0000
0010
0001
1000
0100
,
1100
0000
0101
0000
0100
0001
1000
0100
,
0110
0000
1001
0000
0001
0100
0010
1000
,
0100
0010
0001
0000
1000
0100
1000
0000
,
0101
0000
1010
0000
2100
0100
0000
3000
,
0021
0000
0000
0030
0201
0000
0000
0300
,
0010
1000
0001
0100
0101
0201
0000
0300
,
1020
0000
0000
0030
2100
0000
0000
3000
,
0001
0010
0100
1000
0210
0010
0000
0300
,
2001
0000
0000
3000
0021
0000
0000
0030
,
0100
1000
0001
1000
0102
1000
0000
0003
,
2010
0000
0000
3000
0120
0000
0000
0030
,
1000
0100
0001
0100
1001
0000
1100
0000
,
0011
0000
0010
1001
0000
1000
0101
0000
,
0100
0010
0100
0001
1000
0000
0010
0000
,
1001
0000
0100
1001
0000
0100
1001
0000
,
0100
0010
1000
0100
0010
0000
0100
0000
,
0011
0000
0100
1010
0000
0100
0011
0000
,
0001
1000
0100
0010
0001
0100
0001
0000
,
0000
0000
0001
0100
0001
0000
0000
0000
,
1000
0100
1000
0000
0001
0010
0001
0010
,
0001
0010
0001
0000
1000
0010
1000
0010
,
1000
0010
1000
0000
0001
0100
0001
0100
,
0001
0100
0001
0000
0100
1000
0100
1000
,
0100
0000
0110
0000
1000
0010
1000
0010
,
1000
0010
1000
0000
0010
0001
0010
0001
,
0010
0001
0010
0000
0100
0001
0100
0001
,
0100
0001
0100
0000
0010
1000
0001
1000
,
0010
0000
0110
0000
0001
0100
0001
1000
,
0010
0100
0001
0000
1000
0010
1000
0100
,
0010
0001
0100
0000
0010
1000
0001
1000
,
0100
0010
0100
0000
1000
0001
0100
0010
,
0100
0000
1001
0000
0001
0100
0010
1000
,
0001
0010
0001
0000
1000
0100
0010
0001
,
0100
1000
0100
0000
0010
1000
0100
0001
,
0100
1000
0010
0000
0100
0001
1000
0100
,
0010
0000
0001
0100
0000
1100
0000
0000
,
1000
0010
0000
1000
0001
0000
1000
0100
,
1000
0000
0001
0100
0000
0010
0000
0000
,
0100
0001
0000
1000
0100
0000
0010
0001
,
1000
0001
0100
0010
0000
1000
0001
0000
,
0010
0001
0000
0001
0100
0000
0010
1000
,
0001
0000
0000
1100
0000
0000
0000
0101
0000
0000
0000
1010
,
0000
0000
0000
1001
0000
0000
0000
0011
0000
0000
0000
1100
,
0000
0000
1001
0000
1000
0100
0000
0000
,
0010
0001
0000
0001
1000
0000
0010
1000
,
0001
0000
0100
0010
0000
1001
0000
0000
,
1000
0100
0000
0010
0001
0000
1000
0100
,
0010
0100
1000
0001
0000
0010
0100
0000
,
0001
0100
0000
0100
1000
0000
0001
0010
,
0100
0000
0000
1000
0000
0010
0000
0100
0000
0010
0000
0001
,
0000
0010
0000
0100
0000
0001
0000
1000
0000
0100
0000
0010
,
0000
0000
0001
0000
0000
0000
1000
0000
0000
0100
0000
0000
1000
0000
0000
0001
0000
0000
0100
0000
0000
0010
0000
0000
,
0100
0001
1000
0010
1000
0001
0010
0001
,
1000
0000
0001
0100
0010
0100
0001
1000
,
0010
0100
0010
1000
0010
1000
0001
0100
,
0010
0000
1000
0100
0010
0001
1000
0100
,
0010
0100
1000
0001
1000
0001
0010
0100
,
0010
0000
0001
1000
0001
0100
0001
1000
,
0001
0100
0001
1000
0010
1000
0001
1000
,
0010
0000
1000
0010
1000
0001
0010
1000
,
0010
0001
1000
0100
1000
0001
0100
0001
,
1000
0010
0100
0001
0100
0010
1000
0001
,
0100
1000
0100
0001
1000
0010
1000
0001
,
1000
0100
0010
0001
0010
0100
1000
0001
,
0010
1000
0010
0001
1000
0100
0010
0001
,
1000
0100
0010
0001
0010
0100
1000
0001
,
0100
0010
0100
0001
1000
0010
0001
0010
,
1000
0010
0100
0001
0000
0101
0000
0000
,
1000
0100
0000
1100
0000
0000
0001
0010
,
0000
0011
0000
0000
0010
0100
0000
0110
,
0000
0000
1000
0000
0001
0000
0100
0001
,
1000
0000
0010
1000
0000
1001
0000
0000
,
0010
0001
0000
1001
0000
0000
0100
1000
,
0000
1001
0000
0000
0100
0001
0000
1001
,
0000
0000
1010
0000
0100
0000
0010
0001
,
0100
0000
0010
1000
0000
0110
0000
0000
,
0100
0001
0000
0110
0000
0000
1000
0001
,
0000
0110
0000
0000
0001
1000
0000
0110
,
0000
0000
0010
0000
1000
0000
0100
1000
,
0001
0000
0010
0001
0000
1001
0000
0000
,
0010
1000
0000
0101
0000
0000
1000
0001
,
0000
0000
1001
0000
;

//---------------dance-single - [Ness]----------------
#NOTES:
     dance-single:
     [Ness]:
     Hard:
     10:
     0.675415,0.750776,0.468788,0.268696,0.022868,827.000000,745.000000,82.000000,47.000000,0.000000,0.000000,0.675415,0.750776,0.468788,0.268696,0.022868,827.000000,745.000000,82.000000,47.000000,0.000000,0.000000:
// measure 0
0000
0000
0000
0000
,  // measure 1
0000
0000
0000
0000
,  // measure 2
0000
0000
0000
0000
,  // measure 3
0000
0000
0000
0000
,  // measure 4
1001
0000
1100
0000
0010
1000
0010
0000
,  // measure 5
1000
0100
1000
0001
0010
0000
0001
0100
,  // measure 6
0001
0100
0010
0000
1000
0001
0100
0010
,  // measure 7
0100
0000
0001
1000
0000
0001
0100
0000
,  // measure 8
0101
0000
1001
0000
0010
0001
0010
0001
,  // measure 9
0100
0000
0010
0001
0000
0010
1000
0000
,  // measure 10
0001
1000
0000
0100
0010
0000
0001
1000
,  // measure 11
0001
0100
0001
0000
1100
0000
0101
0000
,  // measure 12
1001
0000
0100
0000
0010
1000
0000
1000
,  // measure 13
0100
0000
0100
0010
0001
0100
0000
0100
,  // measure 14
0010
0000
0000
1000
0001
0100
0000
0100
,  // measure 15
0010
0000
1000
0001
0100
0010
0100
0000
,  // measure 16
0101
0000
0000
0001
0010
0100
1000
0100
,  // measure 17
0010
0000
0001
1000
0010
0100
0000
0100
,  // measure 18
0010
0000
1000
0001
0100
0010
0000
0100
,  // measure 19
0001
0000
1000
0010
1000
0100
1000
0001
,  // measure 20
0100
0000
0010
0000
1000
0100
0010
0000
,  // measure 21
0001
0100
0001
1000
0010
0000
1000
0100
,  // measure 22
1000
0100
0010
0000
0001
1000
0100
0010
,  // measure 23
0100
0000
1000
0001
0000
1000
0100
0000
,  // measure 24
1100
0000
1001
0000
0010
1000
0010
1000
,  // measure 25
0100
0000
0010
1000
0000
0010
0001
0000
,  // measure 26
1000
0001
0000
0100
0010
0000
1000
0001
,  // measure 27
1000
0100
1000
0000
0101
0000
1100
0000
,  // measure 28
1001
0000
0100
0000
0100
0001
0000
0001
,  // measure 29
0010
0010
0100
1001
,  // measure 30
0010
0000
0010
0000
1000
0001
0000
1000
,  // measure 31
0010
0100
0010
0100
0001
1000
0001
1000
,  // measure 32
0100
0000
0010
0000
0001
1000
0000
1000
,  // measure 33
0010
0100
0110
1001
,  // measure 34
0001
0000
1000
0000
0001
0010
0000
0100
,  // measure 35
1000
0001
1000
0001
0100
0001
0100
0001
,  // measure 36
0000
0000
1020
0000
1030
0020
0000
1030
,  // measure 37
0002
0000
1003
0020
0000
1030
0002
0000
,  // measure 38
0003
0000
0021
0000
0031
2000
0000
3001
,  // measure 39
0010
0001
0010
0001
1000
0100
1000
0100
,  // measure 40
1000
0000
0210
0000
0310
2000
0000
3010
,  // measure 41
0200
0000
0310
2000
0000
3010
0200
0000
,  // measure 42
0301
0000
0020
0000
0031
2000
0000
3001
,  // measure 43
0010
0001
0010
0001
0100
0010
0100
0010
,  // measure 44
1000
0000
0001
0000
0100
0010
0000
1000
,  // measure 45
0010
0100
0101
1000
,  // measure 46
0001
0000
0010
0000
0100
1000
0000
1000
,  // measure 47
0010
0100
0010
0100
0001
1000
0001
1000
,  // measure 48
0001
0000
0010
0000
1000
0010
0000
0001
,  // measure 49
0010
0100
1100
0101
,  // measure 50
1000
0000
0010
0000
0001
0100
0000
1000
,  // measure 51
0100
0010
0100
0010
1000
0001
1000
0001
,  // measure 52
0100
0000
0010
0000
1000
0100
0000
0001
,  // measure 53
1000
0010
0011
1001
,  // measure 54
0001
0000
0100
0000
1000
0001
0000
1000
,  // measure 55
0010
1000
0010
0100
0010
1000
0100
0010
,  // measure 56
0100
0000
1001
0000
0100
0001
0000
1000
,  // measure 57
0100
0010
0110
0110
,  // measure 58
0001
0000
1000
0000
0010
0100
0000
0100
,  // measure 59
0001
1000
0001
1000
0010
0100
0010
0100
,  // measure 60
0001
0000
0000
0000
1000
0010
1000
0000
,  // measure 61
0001
0000
0100
0000
0001
0010
0001
0000
,  // measure 62
1000
0000
0100
0000
0010
0100
0010
0000
,  // measure 63
0001
2000
0000
3010
,  // measure 64
1000
0001
1000
0000
0100
1000
0100
0000
,  // measure 65
0010
0000
0001
0000
0100
0001
0100
0000
,  // measure 66
0010
0000
1000
0000
0001
0010
0001
0000
,  // measure 67
0100
0020
0000
1030
,  // measure 68
0100
1000
0100
0000
0010
0001
1000
0000
,  // measure 69
0001
0000
0100
0000
0010
1000
0001
0000
,  // measure 70
1000
0000
0100
0000
0010
0100
1000
0000
,  // measure 71
0001
0200
0000
0301
,  // measure 72
1000
0010
1000
0000
0001
0010
0001
0000
,  // measure 73
0100
0000
0010
0000
1000
0100
1000
0000
,  // measure 74
0001
0000
0010
0000
0001
1000
0100
0000
,  // measure 75
0010
0200
0000
1300
,  // measure 76
0001
0100
0001
0000
0102
0100
0003
0000
,  // measure 77
1020
0030
1200
0300
,  // measure 78
0010
0100
1000
0001
0201
0001
0300
0000
,  // measure 79
1020
0030
1200
0300
,  // measure 80
0001
1000
0010
0100
0210
0010
0300
0000
,  // measure 81
0102
0003
2100
3000
,  // measure 82
0210
0000
0300
0000
0012
0010
0003
0000
,  // measure 83
2001
3000
1020
0030
,  // measure 84
0100
0001
1000
0010
0100
0000
0100
0000
,  // measure 85
1001
0000
0001
1000
0000
0001
1000
0000
,  // measure 86
0001
0010
0100
0100
,  // measure 87
1001
0000
1000
0001
0000
1000
0001
0000
,  // measure 88
1000
0100
1000
0100
0010
0000
0010
0000
,  // measure 89
1001
0000
0001
1000
0000
0001
1000
0000
,  // measure 90
0010
0100
0010
0000
1000
0001
1000
0000
,  // measure 91
0000
0000
1000
0001
1000
0000
0000
0000
,  // measure 92
0000
0000
0000
0000
0001
0100
0001
0100
,  // measure 93
0001
0100
0001
0000
1000
0100
1000
0100
,  // measure 94
1000
0100
1000
0000
0001
0100
0001
0100
,  // measure 95
0001
0100
0001
0000
1000
0000
0001
0000
,  // measure 96
1000
0000
0000
0000
0010
1000
0010
1000
,  // measure 97
0010
1000
0010
0000
0100
0001
0100
0001
,  // measure 98
0100
0001
0100
0000
0001
0010
0001
0010
,  // measure 99
0001
0010
0001
0000
1000
0000
0000
1001
,  // measure 100
0000
0000
1100
0000
0100
0010
0100
0010
,  // measure 101
0100
0010
0100
0000
1000
0100
1000
0100
,  // measure 102
1000
0100
1000
0000
0001
1000
0001
1000
,  // measure 103
0001
1000
0001
0000
0100
0000
0010
0000
,  // measure 104
0100
0000
0001
0000
1000
0001
1000
0001
,  // measure 105
1000
0100
1000
0000
0001
1000
0001
1000
,  // measure 106
0001
0100
0001
0000
1000
0001
1000
0001
,  // measure 107
1000
0001
1000
0001
1000
0000
0000
0000
,  // measure 108
0000
0000
0010
1000
0000
0001
0000
0000
,  // measure 109
0010
0000
0000
0001
0000
0000
1000
0000
,  // measure 110
0100
0000
1000
0001
0000
0100
0000
0000
,  // measure 111
0001
0000
0000
1000
0000
0000
0001
0000
,  // measure 112
0010
0000
0100
1000
0000
0010
0000
0000
,  // measure 113
0100
0000
0000
0001
0000
0000
1000
0000
,  // measure 114
0100
0000
0000
0010
0000
0000
0000
0011
0000
0000
0000
1100
,  // measure 115
0000
0000
0000
1001
0000
0000
0000
1010
0000
0000
0000
0101
,  // measure 116
0000
0000
1001
0000
0000
1000
0000
0000
,  // measure 117
0010
0000
0000
1000
0000
0000
0001
0000
,  // measure 118
0100
0000
0001
1000
0000
0100
0000
0000
,  // measure 119
1000
0000
0000
0001
0000
0000
1000
0000
,  // measure 120
0010
0000
0100
0001
0000
0010
0000
0000
,  // measure 121
0100
0000
0000
1000
0000
0000
0001
0000
,  // measure 122
0100
0000
0000
0010
0000
0000
0000
1010
0000
0000
0000
0101
,  // measure 123
0000
0000
0000
1001
0000
0000
0000
0011
0000
0000
0000
1100
,  // measure 124
0000
0000
0010
1000
0010
1000
0001
1000
,  // measure 125
0100
2200
3300
0202
,  // measure 126
0303
0000
0100
0001
0100
0001
0010
0001
,  // measure 127
0010
0022
0033
2020
,  // measure 128
3030
0000
0001
0010
0001
0010
0001
1000
,  // measure 129
0001
2020
3030
2002
,  // measure 130
3003
0000
1000
0100
1000
0001
1000
0100
,  // measure 131
1000
0220
0330
2002
,  // measure 132
3003
0000
0100
0001
0100
0001
0100
0010
,  // measure 133
0100
0110
0110
1010
,  // measure 134
1010
0000
1000
0100
1000
0010
1000
0100
,  // measure 135
0010
0011
0011
1100
,  // measure 136
1100
0000
0010
0100
0010
1000
0010
0100
,  // measure 137
0010
1010
1010
1001
,  // measure 138
1001
0000
0100
0001
0100
0010
0100
0001
,  // measure 139
0100
0101
0101
1010
,  // measure 140
0101
0000
1001
0000
0000
0001
0000
0000
,  // measure 141
1000
0100
0000
1000
0000
0000
0001
0010
,  // measure 142
0000
0001
0000
0000
1000
0010
0000
0100
,  // measure 143
0000
0000
0001
0000
1000
0000
0100
1000
,  // measure 144
0100
0000
1000
0001
0000
0010
0000
0000
,  // measure 145
0001
1000
0000
0010
0000
0000
1000
0001
,  // measure 146
0000
0010
0000
0000
0100
1000
0000
0001
,  // measure 147
0000
0000
0010
0000
0001
0000
1000
0001
,  // measure 148
1000
0000
0010
1000
0000
0001
0000
0000
,  // measure 149
0100
0001
0000
1000
0000
0000
0010
1000
,  // measure 150
0000
0100
0000
0000
0010
0001
0000
0100
,  // measure 151
0000
0000
0010
0000
1000
0000
0100
0010
,  // measure 152
0100
0000
1000
0001
0000
0100
0000
0000
,  // measure 153
0001
1000
0000
0100
0000
0000
0010
0001
,  // measure 154
0000
0000
1001
0000
;

//---------------dance-single - [Ness]----------------
#NOTES:
     dance-single:
     [Ness]:
     Medium:
     7:
     0.445104,0.662449,0.211526,0.125772,0.000000,545.000000,508.000000,37.000000,22.000000,0.000000,0.000000,0.445104,0.662449,0.211526,0.125772,0.000000,545.000000,508.000000,37.000000,22.000000,0.000000,0.000000:
0000
0000
0000
0000
,
0000
0000
0000
0000
,
0000
0000
0000
0000
,
0000
0000
0000
0000
,
0001
0000
1000
0000
0100
1000
0100
0000
,
1000
0001
1000
0000
0010
0000
0100
0001
,
0100
0000
0010
0000
1000
0001
1000
0000
,
0100
0000
0010
0001
0010
0000
0001
0000
,
1000
0000
0001
0000
1000
0100
1000
0000
,
0001
0000
1000
0001
0000
1000
0001
0000
,
0100
0001
0100
0000
0010
0000
1000
0010
,
1000
0001
1000
0100
,
1000
0000
0001
0000
0100
0001
0100
0000
,
0010
0000
1000
0010
1000
0000
0001
0000
,
0010
0000
0100
0000
1000
0001
1000
0000
,
0010
0000
0100
0000
0010
1000
0001
0000
,
0100
0000
0001
0000
1000
0100
0010
0000
,
0100
0000
1000
0000
0010
1000
0001
0000
,
0010
0000
0001
0000
0010
0100
1000
0000
,
0100
0010
0001
0000
0010
0100
1000
0000
,
0001
0000
0010
0000
1000
0010
0001
0000
,
0001
0001
0001
0000
0001
0001
0100
0000
,
0101
0000
0101
0000
0001
0010
1000
0000
,
1000
1000
1000
0000
1000
1000
0001
0000
,
1001
0000
1100
0000
0100
1000
0100
0000
,
0010
1000
0001
0000
0001
0010
0001
0000
,
0010
0000
0010
0000
0100
1000
0010
0000
,
0100
0001
0010
0000
0100
1000
0001
0000
,
1001
0010
0001
0001
,
1000
1000
0100
0100
,
0001
0010
0100
1000
,
0001
0001
1000
0000
,
0010
1000
0001
1000
,
0010
0010
0100
0100
,
0001
0010
0100
1000
,
0001
0001
1000
1000
,
0000
0000
0011
0000
0000
0010
0000
0000
,
1100
0000
0000
0100
0000
0000
0101
0000
,
0000
0000
0101
0000
0000
0010
0000
0000
,
2002
3003
0220
0330
,
0000
0000
1010
0000
0000
0010
0000
0000
,
0101
0000
0000
0100
0000
0000
1001
0000
,
0000
0000
0011
0000
0000
0010
0000
0000
,
2002
3003
0220
0330
,
1000
0001
1000
1000
,
0100
0100
0001
0000
,
0001
1000
0001
0100
,
1000
0001
1000
0000
,
0001
1000
0010
0001
,
0010
0010
0001
0001
,
0010
1000
0010
0010
,
0100
0001
0100
0000
,
0001
0010
0001
0010
,
0100
1000
0100
1000
,
0001
1000
0001
1000
,
0010
1000
0010
0000
,
1000
0001
1000
0001
,
0100
0001
0100
0000
,
0010
1000
0010
1000
,
0001
0010
0001
0010
,
0000
0000
0001
1000
,
0001
0000
0001
0010
,
0001
0000
1000
0010
,
1000
0001
0000
1000
,
0001
0000
1000
0100
,
1000
0000
0001
0100
,
0001
0000
1000
0010
,
0100
0001
0000
0001
,
0010
0000
0001
1000
,
0001
0000
0100
0001
,
1000
0000
0010
1000
,
0001
0010
0000
0010
,
0100
0000
1000
0100
,
1000
0000
0001
0100
,
0001
0000
1000
0001
,
1000
0010
0000
0100
,
0001
0000
2002
3003
,
0020
0030
2000
0000
,
0010
3001
0200
0300
,
0020
0030
0022
0000
,
0033
1000
0001
0010
0200
0000
0000
0000
,
2300
0000
3002
0000
,
0000
0103
0020
0030
,
2000
3000
0002
0000
,
0003
0010
0001
1000
0001
0000
0000
0000
,
1001
0000
0010
0000
,
1000
0001
1000
0001
,
1000
0000
0010
0000
,
1001
0000
0110
0000
,
1001
0000
0010
1000
,
0001
0000
0010
0110
,
0000
0110
1001
0000
,
0000
0000
1000
0100
,
1000
0100
0001
0100
,
0001
0100
1000
0100
,
1000
0100
0001
0100
,
1000
0000
0001
0100
,
0001
0100
1000
0100
,
1000
0100
0001
0100
,
0001
0100
1000
0100
,
0001
0000
1000
0010
,
1000
0010
0001
0010
,
0001
0010
1000
0010
,
1000
0010
0001
0010
,
1000
0000
0001
0010
,
0001
0010
1000
0010
,
1000
0010
0001
0010
,
0001
0010
0001
0000
,
0000
1000
0000
1001
,
0000
0010
0000
0110
,
0000
0001
0000
1001
,
0000
0100
0001
1000
,
0000
0010
0000
1001
,
0000
0100
0000
1001
,
0000
0010
0000
0000
,
0000
0100
0000
0000
,
0000
0001
0000
0010
,
0000
1000
0010
0100
,
0000
0001
0000
1000
,
0000
0100
1000
0001
,
0000
0010
0000
0001
,
0000
1000
0001
0100
,
0000
0010
0000
0000
,
0000
0100
0000
0000
,
0000
0001
0100
0001
,
0100
0010
1000
0010
,
1000
0001
0100
0001
,
0100
1000
0010
1000
,
0010
0100
0001
0100
,
0001
0010
1000
0010
,
1000
0100
0001
0100
,
0001
1000
0010
1000
,
0010
0100
0001
0010
,
0100
1000
0010
0001
,
0010
1000
0001
1000
,
0100
0001
0010
1000
,
0010
0100
1000
0100
,
0001
1000
0010
0001
,
1000
0100
0010
1000
,
0100
0001
0010
1000
,
0100
0001
0000
0000
,
1001
0000
0000
0110
,
0000
0000
1001
0000
,
0000
0010
0000
1000
,
0000
0000
0100
0000
0000
0010
0000
0000
,
0001
0000
0000
1000
0000
0000
0010
0000
,
0000
0100
0000
0000
0001
0000
0000
1000
,
0000
0100
0000
0110
,
0000
0000
0010
0000
0000
0001
0000
0000
,
1000
0000
0000
0001
0000
0000
0100
0000
,
0000
0010
0000
0000
1000
0000
0000
0100
,
0000
0010
0000
0110
,
0000
0000
0001
0000
0000
1000
0000
0000
,
0100
0000
0000
0010
0000
0000
0001
0000
,
0000
0000
1001
0000
;

//---------------dance-single - [Ness]----------------
#NOTES:
     dance-single:
     [Ness]:
     Easy:
     5:
     0.311981,0.441633,0.251545,0.297280,0.000000,382.000000,338.000000,44.000000,52.000000,0.000000,0.000000,0.311981,0.441633,0.251545,0.297280,0.000000,382.000000,338.000000,44.000000,52.000000,0.000000,0.000000:
0000
0000
0000
0000
,
0000
0000
0000
0000
,
0000
0000
0000
0000
,
0000
0000
0000
0000
,
0110
0110
0001
0000
,
1000
0001
1000
0000
,
0010
1000
0010
0000
,
1000
0100
0001
0000
,
1001
1001
0010
0001
,
1000
0010
0000
1000
,
0001
0000
0001
0010
,
0000
0010
0100
0000
,
1001
1001
0010
0010
,
0100
0100
0010
0000
,
0001
0001
0100
0100
,
1000
0100
0001
0000
,
1001
1001
0010
0000
,
1000
0100
0001
0100
,
1000
1000
0010
0000
,
1000
0100
0010
0000
,
0110
0110
0001
0000
,
0010
0001
0010
0001
,
1000
0010
0000
0010
,
1000
0100
0010
0100
,
1000
1000
0000
0001
,
0010
0100
1000
1000
,
0001
1000
0000
0001
,
0010
0001
0100
0000
,
0001
0001
0100
0000
,
1000
0001
1000
0000
,
0010
1000
0010
0000
,
2002
3003
0220
0330
,
0010
1000
0010
0000
,
1000
0100
0010
0000
,
0001
1000
0001
0000
,
0202
0303
2002
3003
,
0010
0001
0010
0000
,
0001
1000
0100
0000
,
1000
0100
1000
0000
,
2020
3030
2002
3003
,
1000
0010
0100
0000
,
0010
1000
0001
0000
,
0010
0100
1000
0000
,
2200
3300
2002
3003
,
0010
0001
0010
0000
,
0001
0100
0010
0000
,
1000
0001
0100
0000
,
2020
3030
0202
0303
,
1000
0010
0100
0000
,
0010
1000
0001
0000
,
0010
0001
1000
0000
,
0202
0303
2200
3300
,
0010
1000
0001
0000
,
0010
0001
0100
0000
,
0001
0100
0010
0000
,
0220
0330
2002
3003
,
0010
1000
0100
0000
,
0010
0001
0100
0000
,
0010
1000
0001
0000
,
2002
3003
0220
0330
,
0000
0000
0001
0000
,
0100
0000
1000
0000
,
0100
0000
0002
0000
,
0003
0020
0000
0030
,
0100
0000
1000
0000
,
0100
0000
0001
0000
,
0100
0000
2000
0000
,
3000
0020
0000
0030
,
0100
0000
0001
0000
,
0010
0000
1000
0000
,
0010
0000
0002
0000
,
0003
0200
0000
0300
,
0010
0000
1000
0000
,
0100
0000
0010
0000
,
0100
0000
2000
0000
,
3000
0020
0000
0030
,
0100
0000
0002
0003
,
0020
0030
0200
0000
,
0300
1000
0002
0003
,
0200
0300
0020
0000
,
0030
1000
0200
0300
,
0020
0030
0002
0000
,
0003
0100
0020
0030
,
2000
3000
0002
0000
,
0003
0010
0100
0000
,
1001
0000
1001
0000
,
0100
0000
0100
0000
,
1001
0000
1001
0000
,
0010
0000
0100
0000
,
1001
0000
1001
0000
,
0010
0000
1001
0000
,
0000
1001
0000
0000
,
0000
0000
1000
0000
,
0100
0000
1000
0000
,
0100
0000
0010
0000
,
0001
0000
0100
0000
,
1001
0000
0001
0000
,
0100
0000
0001
0000
,
0010
0000
0001
0000
,
0100
0000
0010
0000
,
1001
0000
0100
0000
,
0010
0000
1000
0000
,
0001
0000
0100
0000
,
0010
0000
0100
0000
,
1001
0000
0010
0000
,
0100
0000
0010
0000
,
1000
0000
0100
0000
,
0010
0000
0001
0000
,
0000
0000
0000
0000
,
0000
1000
0000
0100
,
0000
0001
0000
0000
,
0000
0010
0000
0001
,
0000
0100
0000
0000
,
0000
0001
0000
0100
,
0000
1000
0000
0000
,
0000
0001
0000
0000
,
0000
0010
0000
1000
,
0000
0100
0000
0001
,
0000
1000
0000
0010
,
0000
0001
0000
0100
,
0000
0010
0000
0001
,
0000
0100
0000
1000
,
0000
0001
0000
0000
,
0000
1000
0000
0000
,
0000
0001
0000
0010
,
0000
0100
1000
0100
,
0000
1000
0000
0001
,
0000
0010
0000
0000
,
0000
0001
0000
0100
,
0000
0010
1000
0010
,
0000
0100
0000
0001
,
0000
1000
0000
0000
,
0000
0001
0000
0010
,
0000
0100
0100
0100
,
0000
1000
0000
0001
,
0000
0010
0010
0010
,
0000
0001
0000
0100
,
0000
0010
0010
0010
,
0000
1000
1000
1000
,
0000
0001
0001
0001
,
0000
1000
0000
0000
,
1001
0000
0000
0001
,
0000
0000
1001
0000
,
0000
0010
0000
0100
,
0000
0010
0000
0000
,
0110
0000
0000
0100
,
0000
0000
0110
0000
,
0000
0010
0000
1000
,
0000
0100
0000
0000
,
1001
0000
0000
0010
,
0000
0000
1001
0000
,
0000
0100
0000
0001
,
0000
0010
0000
0000
,
0100
0000
0000
1000
,
0000
0000
1001
0000
;

//---------------dance-single - [Ness]----------------
#NOTES:
     dance-single:
     [Ness]:
     Beginner:
     3:
     0.192742,0.309143,0.085754,0.000000,0.000000,236.000000,221.000000,15.000000,0.000000,0.000000,0.000000,0.192742,0.309143,0.085754,0.000000,0.000000,236.000000,221.000000,15.000000,0.000000,0.000000,0.000000:
0000
0000
0000
0000
,
0000
0000
0000
0000
,
0000
0000
0000
0000
,
0000
0000
0000
0000
,
1000
0000
0100
0000
,
1000
0000
1000
0000
,
0010
0000
0010
0000
,
1000
0000
1000
0000
,
0001
0000
0010
0000
,
0001
0000
0001
0000
,
0100
0000
0100
0000
,
0010
0000
1000
0000
,
0010
0000
0010
0000
,
0100
0000
0100
0000
,
0010
0000
0010
0000
,
1000
0000
0100
0000
,
0001
0000
0100
0000
,
1000
0000
0100
0000
,
0001
0000
0010
0000
,
0100
0000
1000
0000
,
0001
0000
1000
0000
,
0010
0000
0100
0000
,
0001
0000
0010
0000
,
0100
0000
1000
0000
,
0001
0000
1000
0000
,
0001
0000
1000
0000
,
0001
0000
1000
0000
,
0001
0000
1000
0000
,
1001
0000
0000
0000
,
0010
0000
0000
0000
,
1000
0000
0000
0000
,
0100
0000
0100
0000
,
0100
0000
0000
0000
,
0010
0000
0000
0000
,
0001
0000
0000
0000
,
0100
0000
0100
0000
,
0010
0000
0000
0000
,
1000
0000
0000
0000
,
0001
0000
0000
0000
,
0010
0000
0010
0000
,
0100
0000
0000
0000
,
1000
0000
0000
0000
,
0001
0000
0000
0000
,
0100
0000
0100
0000
,
0100
0000
0100
0000
,
0100
0000
0100
0000
,
0100
0000
0100
0000
,
0110
0000
0110
0000
,
0100
0000
0100
0000
,
0100
0000
0100
0000
,
0100
0000
0100
0000
,
0110
0000
0110
0000
,
0010
0000
1000
0000
,
0010
0000
0010
0000
,
0010
0000
1000
0000
,
1001
0000
1001
0000
,
0010
0000
0001
0000
,
0010
0000
0010
0000
,
0010
0000
0001
0000
,
1001
0000
1001
0000
,
0000
0000
0001
0000
,
0000
0000
0001
0000
,
0000
0000
1000
0000
,
0000
1000
0000
0000
,
1000
0000
0100
0000
,
0000
0000
0100
0000
,
0000
0000
0010
0000
,
0000
0010
0000
0000
,
0010
0000
0001
0000
,
0000
0000
0001
0000
,
0000
0000
1000
0000
,
0000
1000
0000
0000
,
1000
0000
0001
0000
,
0000
0000
0001
0000
,
0000
0000
0100
0000
,
0000
0100
0000
0000
,
0100
0000
0100
0000
,
0010
0000
1000
0000
,
0000
0010
0010
0000
,
0100
0000
0001
0000
,
0000
0010
0010
0000
,
0100
0000
1000
0000
,
0000
0001
0001
0000
,
0100
0000
0010
0000
,
0000
1000
1000
0000
,
0000
0000
0000
0000
,
0000
0000
1001
0000
,
0000
0000
0000
0000
,
0000
0000
0110
0000
,
0000
0000
0000
0000
,
0000
0000
1001
0000
,
0000
1001
0000
0000
,
0000
0000
0001
0000
,
0001
0000
0001
0000
,
0001
0000
0001
0000
,
0001
0000
0001
0000
,
0000
0000
1000
0000
,
1000
0000
1000
0000
,
1000
0000
1000
0000
,
1000
0000
1000
0000
,
0000
0000
0010
0000
,
0010
0000
0010
0000
,
0010
0000
0010
0000
,
0010
0000
0010
0000
,
0000
0000
0100
0000
,
0100
0000
0100
0000
,
0100
0000
0100
0000
,
0100
0000
0100
0000
,
0000
0000
0000
0000
,
0000
0000
0000
0000
,
0000
0100
0000
0000
,
0000
0000
0000
0000
,
0000
0001
0000
0000
,
0000
0000
0000
0000
,
0000
1000
0000
0000
,
0000
0001
0000
0000
,
0000
1000
0000
0000
,
0000
0000
0000
0000
,
0000
0010
0000
0000
,
0000
0000
0000
0000
,
0000
0100
0000
0000
,
0000
0000
0000
0000
,
0000
0010
0000
0000
,
0000
0100
0000
0000
,
0000
0010
0000
0010
,
0000
0010
0000
0010
,
0000
1000
0000
1000
,
0000
1000
0000
1000
,
0000
0100
0000
0100
,
0000
0100
0000
0100
,
0000
0010
0000
0010
,
0000
0010
0000
0010
,
0000
0001
0000
0001
,
0000
0100
0000
0100
,
0000
1000
0000
1000
,
0000
0010
0000
0010
,
0000
0100
0000
0100
,
0000
0001
0000
0001
,
0000
1000
0000
1000
,
0000
0010
0000
0010
,
0000
1001
0000
0000
,
0000
0000
0000
0000
,
0000
0000
0000
0000
,
0000
0010
0000
0001
,
0000
0100
0000
0000
,
0000
0000
0000
0000
,
0000
0000
0000
0000
,
0000
0010
0000
1000
,
0000
0100
0000
0000
,
0000
0000
0000
0000
,
0000
0000
0000
0000
,
0000
0010
0000
0001
,
0000
0100
0000
0000
,
0000
0000
0000
0000
,
0000
0000
1001
0000
;
