#TITLE:Twice Stricken;
#SUBTITLE:Eden's Verse Fulmination;
#ARTIST:Masayoshi Soken;
#TITLETRANSLIT:;
#SUBTITLETRANSLIT:;
#ARTISTTRANSLIT:;
#GENRE:Shadowbringers;
#CREDIT:[Ness];
#BANNER:Final Fantasy XIV - Twice Stricken.png;
#BACKGROUND:Final Fantasy XIV - Twice Stricken-bg.png;
#LYRICSPATH:Final Fantasy XIV - Twice Stricken.lrc;
#CDTITLE:;
#MUSIC:Final Fantasy XIV - Twice Stricken.mp3;
#OFFSET:-0.426000;
#SAMPLESTART:65.777245;
#SAMPLELENGTH:13.150681;
#LASTBEATHINT:406.000000;
#SELECTABLE:YES;
#DISPLAYBPM:73.000000:292.000000;
#BPMS:0.000000=146.000000
,30.000000=292.000000
,32.000000=146.000000
,79.000000=584.000000
,79.500000=146.000000
,95.000000=584.000000
,95.500000=146.000000
,96.000000=73.000000
,111.000000=146.000000
,141.000000=292.000000
,142.000000=73.000000
,142.250000=292.000000
,144.250000=73.000000
,144.500000=146.000000
,224.000000=584.000000
,224.500000=146.000000
,272.000000=292.000000
,402.000000=146.000000
;
#STOPS:79.000000=0.077000,
79.250000=0.077000,
95.000000=0.077000,
95.250000=0.077000,
141.000000=0.051000,
141.250000=0.051000,
141.500000=0.051000,
141.750000=0.051000,
143.250000=0.051000,
143.500000=0.051000,
143.750000=0.051000,
144.000000=0.051000,
224.000000=0.077000,
224.250000=0.077000
;
#BGCHANGES:;
#KEYSOUNDS:;
#ATTACKS:;

//---------------dance-single - ----------------
#NOTES:
     dance-single:
     :
     Challenge:
     10:
     0.649207,0.839554,0.461128,0.147026,0.507909,680.000000,611.000000,69.000000,22.000000,110.000000,0.000000,0.649207,0.839554,0.461128,0.147026,0.507909,680.000000,611.000000,69.000000,22.000000,110.000000,0.000000:
0000
0000
0000
0000
,
0000
0000
0000
0000
,
0000
0000
0000
0000
,
0000
0000
0000
0000
,
0000
0000
0000
0000
,
0000
0000
0000
0000
,
0000
0000
0000
0000
,
0000
0000
0000
0000
0001
1000
0001
1000
,
0001
0000
0010
0000
1001
0000
0010
1000
0001
1000
0100
0000
0110
0000
0001
0000
,
0100
0000
0010
0000
1010
0000
0000
0000
1000
0100
0000
0000
0001
0010
0000
0000
,
0001
0100
0010
0000
1000
0000
0000
0010
0100
0001
0100
0000
0001
0000
1000
0000
,
0000
0000
0100
1000
0001
0010
0100
1000
0100
0000
0010
0001
0100
0000
0001
0000
,
1000
0000
0001
0000
1001
0000
0100
1000
0010
1000
0100
0000
1100
0000
0000
0000
,
0000
0000
1000
0010
0100
0001
0010
0100
1000
0001
0000
0000
0001
0100
0000
0000
,
0100
0010
1000
0000
0100
0000
0000
1000
0001
0100
0001
0000
0011
0000
0000
0000
,
0000
0000
0010
0001
1000
0010
0100
0001
0010
0000
0100
1000
0010
0000
0100
0000
,
M001
0000
0000
0000
MM11
0000
0000
0M10
0000
M001
0M10
0000
MM11
0000
0000
0000
,
01M0
0000
0000
0000
11MM
0000
0000
01M0
0000
100M
01M0
0000
100M
01M0
0000
0000
,
0101
0000
0000
0000
0011
0000
0000
1000
0000
0010
0100
0000
1001
0000
0000
0000
,
0010
0000
0000
0000
1100
0000
0001
0000
1100
0000
0010
0000
0100
0001
0100
0000
,
10M1
0000
0000
0000
M11M
0000
0000
100M
0000
100M
0M10
0000
1M1M
0000
0000
0000
,
100M
0000
0000
0000
11MM
0000
0000
100M
0000
M001
01M0
0000
1M00
00M1
0000
0000
,
01M0
0000
0000
0000
M1M1
0000
0000
0M10
0000
M010
010M
0000
11MM
0000
0000
0000
,
0M10
0000
0000
0000
1MM1
0000
0M01
0000
101M
0000
010M
0000
100M
0010
0100
0000
,
0002
0000
0000
0000
0003
0010
0001
0200
0000
0000
0000
0000
1000
0000
0001
0000
,
0320
0000
0000
1000
0000
0000
0000
0000
0000
0000
0000
0000
0001
0000
0100
0000
,
2030
0000
0000
0100
0000
0000
0010
0000
0001
0000
0000
0100
0000
0000
0001
0000
,
3020
0000
0000
0001
0000
0000
1000
0000
0000
0000
0030
0000
0110
0000
0000
0000
,
1001
0000
0000
0000
0010
0100
1000
0000
0000
0001
M100
0010
0000
0001
0000
1000
,
0000
0100
0010
0000
000M
1000
0100
1000
00M0
0100
0000
0001
0000
0100
M000
0000
,
0010
0000
0000
0000
1M00
0000
0001
1000
0000
0000
001M
0100
0000
0000
0000
1000
,
00M0
0000
0000
0001
0000
0000
0100
0000
0000
0000
0000
0000
0000
0000
0000
0001
0000
0000
0010
0000
0M00
0001
0000
0000
0000
0000
0000
0000
0000
0000
0010
0000
0000
0000
0000
0000
M100
0000
0000
0001
0000
0000
0000
0000
0000
0000
0000
0000
,
1000
0001
00M0
0000
0100
0010
0100
0000
0000
0001
10M0
0100
0000
0000
0000
0010
,
M000
0001
0100
0000
0000
0010
1000
0001
0000
0100
0000
1000
000M
0100
0000
0000
,
M001
0000
0000
0000
0010
0000
0100
1000
00M0
0000
0100
0001
0000
0000
M000
0010
,
0000
1000
0001
0000
0000
0000
0000
0000
0000
0000
0000
0000
0000
0000
0000
0000
,
0000
0000
0000
0000
1001
0000
0010
0000
0101
0000
1000
0010
1000
0100
0010
0000
,
1001
0000
0001
0000
1000
0000
0100
0000
1001
0000
0000
0000
1000
0010
0000
0000
,
0010
0001
0000
0000
0001
1000
0100
0000
1001
0000
0000
0100
0010
0100
1000
0000
,
0001
0000
0100
0000
0000
0000
1000
0010
1000
0100
1000
0001
0100
0000
0010
1000
,
0100
0000
0010
0000
0001
0000
1000
0000
1010
0000
0010
0100
0001
0100
0010
0000
,
1001
0000
0000
0000
0000
0000
1000
0001
0100
0010
0100
0001
0010
0100
0000
0000
,
0100
1000
0000
0000
1000
0001
1000
0000
0010
0000
0000
0100
0001
0100
0010
0000
,
1001
0000
0000
0000
0000
0000
1000
0001
0100
0010
1000
0100
0010
0000
0001
1000
,
0010
0000
1000
0000
0001
0000
0100
0000
1001
0000
0010
0100
0001
1000
0100
0000
,
1100
0000
0010
0000
0001
0000
0010
0000
0011
0000
0000
0000
0100
1000
0000
0000
,
0010
0001
0000
0000
0100
0010
0100
0000
1000
0000
0000
0010
1000
0001
0100
0000
,
0001
0000
0010
0000
0000
0000
0100
1000
0010
0100
0001
1000
0100
0000
1000
0001
,
0100
0000
0010
0000
1000
0000
0010
0000
1001
0000
1000
0010
1000
0100
0010
0000
,
0110
0000
0000
0000
0000
0000
0001
0100
0010
1000
0100
0010
0001
0100
0000
0000
,
0100
0010
0000
0000
1000
0010
1000
0000
0100
0000
0000
0010
0001
1000
0001
0000
,
0101
0000
0000
0000
0000
0000
0010
1000
0001
0010
0100
1000
0010
0000
0100
0001
,
0010
0000
0100
0000
100M
0000
0000
0000
11MM
0000
0000
01M0
0000
100M
01M0
0000
,
11MM
0000
0000
0000
0M10
0000
0000
0000
MM11
0000
0000
0M10
0000
M001
0M10
0000
,
M001
0M10
0000
0000
1010
0000
0000
0000
1001
0000
0000
0100
0000
0001
0010
0000
,
1001
0000
0100
0000
0101
0010
1100
0010
,
0001
1000
0001
0000
1M01
0000
0000
0000
M11M
0000
0000
M001
0000
M001
01M0
0000
,
M1M1
0000
0000
0000
M001
0000
0000
0000
MM11
0000
0000
M001
0000
100M
0M10
0000
,
00M1
1M00
0000
0000
0M10
0000
0000
0000
1M1M
0000
0000
01M0
0000
010M
M010
0000
,
MM11
0000
01M0
0000
1MM1
10M0
M101
M010
,
M001
0100
0010
0000
2000
0000
0000
0000
0010
0000
0001
0000
0000
0000
3010
0000
,
0000
0000
0202
0000
0000
0000
0303
0000
0000
0000
0010
0000
1000
0000
0000
0001
,
0000
0010
0200
0000
0020
0000
0000
0000
,
0000
0330
0000
0000
,
0000
0000
0002
0000
0000
2000
0003
0000
,
0010
0020
0000
0000
,
3030
0000
0000
0000
0110
0000
0000
0000
0101
0000
0000
0001
0010
0001
0100
0000
,
1001
0000
0000
0000
0100
0000
0000
0000
0000
0000
0000
0000
0010
1000
0001
0100
,
0010
1000
0001
0100
0010
0000
1000
0000
,
0100
0000
0020
0000
0000
0000
0031
1000
,
0010
0100
0001
0001
,
1000
0000
0001
0000
0010
0000
0100
1000
,
0000
0010
0100
0000
0001
0000
1000
0100
,
0010
0000
0100
0000
1000
0000
0010
0100
,
0001
1000
0100
0100
,
0010
0000
0100
1000
0000
0001
0100
0000
,
0010
0000
1000
0010
,
1001
0000
0010
0100
0000
0001
0010
0000
,
0100
0010
0001
0100
0010
1000
0100
0000
,
1000
0000
0001
1000
0000
0010
0100
0000
,
0101
0000
1000
0100
,
1100
0000
0100
0010
0000
0100
1000
0000
,
0010
0100
0001
1000
0100
0010
0100
0010
,
0001
1000
0001
1000
0010
0100
0010
0100
,
0001
1000
0010
0100
0001
0000
0010
0000
,
1100
0200
0000
1300
,
0102
0000
0013
0000
0000
0000
1000
0010
,
0100
0001
0010
0100
1000
0001
0100
0010
,
1000
0001
0000
0000
1000
0000
0100
0000
,
0011
0200
0000
1300
,
2010
0000
3001
0000
0000
0000
1000
0001
,
0100
0010
1000
0100
0010
0001
0100
0010
,
1000
0100
0000
0000
0010
0000
0100
0000
,
0011
2000
0000
3100
,
0210
0000
1300
0000
0000
0000
0100
1000
,
0010
0100
0001
0010
0100
1000
0010
0100
,
0001
1000
0000
0000
0100
0000
0010
0000
,
1100
0002
0000
1003
,
0201
0000
0310
0000
0000
0000
1000
0010
,
1000
0100
0010
0001
0100
0010
1000
0100
,
0010
0001
0000
0000
0100
0000
0000
0000
;

//---------------dance-single - ----------------
#NOTES:
     dance-single:
     :
     Hard:
     8:
     0.465902,0.570897,0.233906,0.300736,0.247272,488.000000,453.000000,35.000000,45.000000,0.000000,0.000000,0.465902,0.570897,0.233906,0.300736,0.247272,488.000000,453.000000,35.000000,45.000000,0.000000,0.000000:
0000
0000
0000
0000
,
0000
0000
0000
0000
,
0000
0000
0000
0000
,
0000
0000
0000
0000
,
0000
0000
0000
0000
,
0000
0000
0000
0000
,
0000
0000
0000
0000
,
0000
0000
0000
0000
,
0001
0000
0000
1000
0010
0000
0100
0000
0000
0100
0010
0000
1000
0000
0000
0000
,
0100
1000
0001
0000
0110
0000
1100
0000
,
0101
0000
0000
1000
0100
0000
0010
0000
0000
0001
0100
0000
0001
0000
0000
0000
,
0000
0000
1000
0001
1000
0000
0010
0000
0100
0000
0000
0000
0110
0000
0000
0000
,
0010
0000
0000
1000
0100
0000
0010
0000
0000
0001
1000
0000
0001
0000
0000
0000
,
0100
0001
0010
0000
1010
0000
0101
0000
,
1001
0000
0000
0001
0100
0000
0010
0000
0000
0100
0001
0000
1000
0000
0000
0000
,
0000
0000
0100
1000
0100
0000
0010
0000
0001
0000
0000
0000
1001
0000
0000
0000
,
0020
0000
0000
0000
1030
0000
0000
0100
0000
1000
0001
0000
0100
0000
0000
0000
,
0002
0000
0000
0000
0013
0000
0000
0100
0000
0010
0100
0000
1000
0000
0000
0000
,
0020
0000
0000
0000
0130
0000
0000
0001
0000
1000
0001
0000
0010
0000
0000
0000
,
0100
0000
1000
0010
0001
0010
0100
0000
,
0002
0000
0000
0000
1003
0000
0000
0100
0000
0010
0100
0000
0110
0000
0000
0000
,
2000
0000
0000
0000
3010
0000
0000
0100
0000
0001
1000
0000
1001
0000
0000
0000
,
0200
0000
0000
0000
0310
0000
0000
0001
0000
0010
0100
0000
1100
0000
0000
0000
,
0010
0000
0100
0001
0100
0010
1000
0000
,
0200
0000
1000
0010
1300
0000
0001
1000
,
0010
0100
0201
0000
0310
1000
0002
0010
,
0013
0000
0000
0200
0000
0000
1300
0000
0010
0000
0000
2000
0000
0000
3001
0000
,
0100
0000
0000
0020
0000
0000
0130
0000
0000
0000
0000
0000
1001
0000
0000
0000
,
0110
0000
0000
0000
1001
0000
0000
0010
1000
0000
0010
0000
0000
0100
0001
0000
,
0200
0000
0300
0001
0010
1000
0010
0000
,
0100
0000
0000
0000
0010
0000
0000
0001
1000
0000
0010
0000
0000
0100
0001
0000
,
2000
0000
3000
0100
0010
0001
0100
0000
,
0110
0000
0000
0000
0002
0000
0000
1003
0100
0000
1000
0000
0000
0010
0100
0000
,
0001
0000
1000
0000
0200
0000
0000
0310
0001
0000
1000
0000
0000
0010
0100
0000
,
0001
0000
1000
0000
0100
0000
0000
0010
0100
0000
1000
0000
0000
0001
0010
0000
,
0100
1000
0000
0000
0000
0000
0000
0000
,
0000
0000
0000
0000
1001
0000
0000
0001
0100
0000
0010
0000
0000
1000
0100
0000
,
1000
0000
0001
1000
0010
0000
1100
0000
,
0011
0000
0000
0000
0101
0000
0000
0100
0010
0000
1000
0000
0000
0100
1000
0000
,
0001
0000
0000
0000
0000
0000
1000
0010
1000
0000
0001
0000
0100
0000
0000
0000
,
0110
0000
0000
0000
0100
0000
0000
0001
0010
0000
0100
0000
0000
1000
0001
0000
,
1000
0000
0010
1000
0100
0000
0101
0000
,
1100
0000
0000
0000
1001
0000
0000
1000
0001
0000
0010
0000
0000
0001
1000
0000
,
0010
0000
0000
0000
0000
0000
0100
0001
0100
0000
0010
0000
1000
0000
0000
0000
,
0011
0000
0000
0000
1100
0000
0000
0100
0010
0000
0001
0000
0000
0010
0100
0000
,
1000
0000
0000
0000
0010
0000
1000
0000
0001
0000
0000
0000
0100
0010
0000
0000
,
1000
0001
0000
0000
0010
0000
0000
0100
1000
0000
0001
0000
0000
1000
0010
0000
,
0100
0000
0000
0000
0000
0000
0001
1000
0100
0000
0010
0000
0100
0000
1000
0000
,
0001
0000
0010
0000
0100
0000
0000
1000
0010
0000
0100
0000
0000
0001
1000
0000
,
0001
0000
0000
0000
0010
0000
0001
0000
1000
0000
0000
0000
0010
1000
0000
0000
,
0100
0001
0000
0000
1000
0000
0000
0001
0010
0000
0001
0000
0000
1000
0010
0000
,
0100
0000
0000
0000
0000
0000
0001
1000
0100
0000
0010
0000
0001
0000
0100
0000
,
0001
0000
1000
0000
0200
0000
0000
0000
0310
0000
0000
0100
0000
1000
0100
0000
,
1000
0000
0000
0000
0002
0000
0000
0000
0103
0000
0000
0010
0000
0100
0001
0000
,
1000
0000
0000
0000
0020
0000
0000
0000
0130
0000
0000
0001
0000
0010
0100
0000
,
0110
0000
1000
0000
0010
0100
0001
0010
,
0100
1000
0100
0000
2000
0000
0000
0000
3001
0000
0000
0100
0000
0010
0100
0000
,
0001
0000
0000
0000
0020
0000
0000
0000
0130
0000
0000
1000
0000
0001
1000
0000
,
0010
0000
0000
0000
0200
0000
0000
0000
0301
0000
0000
0010
0000
0100
1000
0000
,
0010
0000
0100
0000
0001
1000
0010
0100
,
0001
0100
0010
0000
2000
0000
0000
0000
0010
0000
0001
0000
0000
0000
3010
0000
,
0000
0000
0202
0000
0000
0000
0303
0000
0000
0000
0010
0000
1000
0000
0000
0001
,
0000
0010
0200
0000
0020
0000
0000
0000
,
0000
0330
0000
0000
,
0000
0000
0002
0000
0000
2000
0003
0000
,
0010
0020
0000
0000
,
3030
0000
0200
0000
0000
0001
0000
0000
,
0310
0220
0000
0330
,
2000
0000
0000
0000
3010
0000
0000
1000
,
0100
0000
1000
0000
0000
0001
0100
0000
,
0010
1000
0100
0000
,
0010
0000
0001
0000
1000
0000
0000
0010
,
0000
0100
0001
0000
,
0101
0000
0010
1000
,
0100
0000
1000
0000
,
1100
0000
0010
0001
,
0100
0000
0000
0000
0010
0000
0000
1000
,
0001
0000
1000
0000
0000
0010
0100
0000
,
0010
0000
1000
0000
0100
0010
0200
0000
,
0000
0300
0000
0000
,
0022
0000
0033
0000
0100
0000
0000
0010
,
0100
0000
0001
0000
0000
1000
0010
0000
,
0100
0000
0001
0000
0100
0001
0100
0000
,
0010
1000
0100
1000
,
0001
0010
0100
0000
,
1000
0020
0030
0001
,
0020
1000
0030
0001
,
0100
0010
1000
0000
,
1100
0000
1000
0010
,
0001
0200
0300
1000
,
0200
0001
0300
1000
,
0001
0100
0010
0000
,
1001
0000
0100
0001
,
1000
0020
0030
1000
,
0020
0001
0030
0010
,
1000
0010
0100
0000
,
1001
0000
0001
1000
,
0010
0200
0300
0001
,
0200
1000
0300
0100
,
0010
1000
0100
1000
,
0001
0010
0100
0000
;

//---------------dance-single - ----------------
#NOTES:
     dance-single:
     :
     Medium:
     6:
     0.307419,0.436568,0.100245,0.133660,0.013366,322.000000,307.000000,15.000000,20.000000,0.000000,0.000000,0.307419,0.436568,0.100245,0.133660,0.013366,322.000000,307.000000,15.000000,20.000000,0.000000,0.000000:
0000
0000
0000
0000
,
0000
0000
0000
0000
,
0000
0000
0000
0000
,
0000
0000
0000
0000
,
0000
0000
0000
0000
,
0000
0000
0000
0000
,
0000
0000
0000
0000
,
0000
0000
0000
0000
,
0010
0000
1000
0100
0000
0001
0200
0000
,
0300
0000
1001
0010
,
1001
0000
0001
0010
0000
0010
0200
0000
,
0300
1000
0001
0100
,
0010
0000
1000
0001
0000
0010
0200
0000
,
0300
0000
1001
0100
,
1001
0000
0100
1000
0000
0100
2000
0000
,
3000
0000
0001
1000
0010
0000
0100
0000
,
0001
0000
0010
0000
0001
0100
0001
0000
,
1000
0000
0100
0000
1000
0010
1000
0000
,
0010
0000
0100
0000
0001
0100
1000
0000
,
0100
0000
0010
0000
1000
0001
1000
0000
,
0001
0000
0010
0000
1000
0010
1000
0000
,
0100
0000
0010
0000
0001
0100
1000
0000
,
0100
0000
0010
0000
0001
0100
0001
0000
,
1000
0000
0001
0000
1000
0010
1000
0000
,
0200
0000
0310
0100
2000
0000
0001
0001
,
0001
0000
0000
0020
0000
0000
0000
0000
3030
0000
0000
0000
0100
0000
0001
0000
,
0010
0000
0000
0001
0000
0000
1000
0000
0010
0000
0000
1000
0000
0000
0100
0000
,
0010
0000
0000
0100
0000
0000
2000
0000
0000
0000
0000
0000
3000
0000
0000
0000
,
0000
0000
1001
0000
0000
0010
0000
0000
,
1000
0000
0100
0010
0001
0000
0100
0000
,
0010
0000
1001
0000
0000
0100
0000
0000
,
1000
0000
0000
0001
1000
0010
0100
0000
,
0010
0000
1000
0000
0000
0100
0000
0000
,
0010
0000
0001
0000
0000
0010
0000
0000
,
0100
1000
0001
0100
,
0010
0000
0000
0000
,
0000
0000
1000
0000
0100
0001
0000
0100
,
1000
0000
0000
1001
,
0010
0000
1001
0000
0010
1000
0000
0010
,
1000
0000
0000
0000
0001
0100
0010
0000
,
0100
0000
0001
0000
0010
0001
0000
0010
,
1000
0000
0010
0100
,
1001
0000
0100
0000
1000
0010
0000
0100
,
0001
0000
0000
1000
0001
0100
0010
0000
,
1000
0000
0001
0000
0010
1000
0000
0010
,
0001
0000
1001
0100
,
0010
0000
1001
0000
1000
0010
0000
0100
,
0001
0000
0000
0000
1000
0001
0100
0000
,
0010
0000
1001
0000
0010
0001
0000
0010
,
1000
0000
0100
0010
,
0100
0000
1000
0100
0000
0001
0100
0000
,
1000
0000
0001
0100
0001
1000
0010
0000
,
0100
0000
0001
0000
0010
0000
1000
0010
,
1000
0000
0100
0000
0010
0000
1000
0100
,
0001
0000
0001
0000
1000
0000
0001
0010
,
0100
0000
0001
0000
0100
0000
1000
0100
,
0001
0000
1000
0000
0001
0000
0100
0010
,
1000
0000
0001
0000
0010
0000
0100
0010
,
0001
0000
1000
0000
0001
0000
1000
0100
,
0001
0000
0001
0100
1000
0000
1001
0000
,
0010
0000
0200
0000
0000
0001
0000
0010
,
0000
0001
0300
0000
0000
0000
0010
0000
,
0000
0020
0200
0000
,
0000
0330
0000
0000
,
0000
0000
2000
0000
3000
0002
0000
0003
,
1000
0002
0000
0000
,
0003
0000
0200
0000
0300
0020
0000
0030
,
0100
0220
0000
0330
,
0000
0000
0100
0000
,
0001
0010
0100
0000
,
1000
0000
0001
0000
,
1000
0000
0010
0000
,
0100
0000
0002
0000
,
2000
0000
0000
0000
,
0000
0000
3003
0000
,
0000
0000
0000
0000
,
0000
0000
0010
0000
,
1000
0100
0000
0010
,
0001
0000
0100
0010
,
0100
0000
0001
0000
,
1000
0000
0010
0000
,
0100
0001
0000
0010
,
0100
0000
1000
0000
,
0001
0000
0100
0000
,
0010
0000
1000
0000
,
0100
0010
0000
0001
,
1000
0001
0000
0000
,
0000
0000
0000
0000
,
0000
0000
0010
0000
,
0001
0100
0000
0010
,
1000
0100
0000
0000
,
1000
0000
0001
0000
,
0100
0000
0010
0000
,
1000
0001
0000
0100
,
0010
1000
0000
0000
,
0100
0000
0010
0000
,
0100
0000
1000
0000
,
0001
0100
0000
0010
,
1000
0100
0000
0010
,
0001
1000
0010
0000
,
0100
0000
1001
0000
;

//---------------dance-single - ----------------
#NOTES:
     dance-single:
     :
     Easy:
     4:
     0.210038,0.302239,0.040098,0.354200,0.000000,220.000000,214.000000,6.000000,53.000000,0.000000,0.000000,0.210038,0.302239,0.040098,0.354200,0.000000,220.000000,214.000000,6.000000,53.000000,0.000000,0.000000:
// measure 0
0000
0000
0000
0000
,  // measure 1
0000
0000
0000
0000
,  // measure 2
0000
0000
0000
0000
,  // measure 3
0000
0000
0000
0000
,  // measure 4
0000
0000
0000
0000
,  // measure 5
0000
0000
0000
0000
,  // measure 6
0000
0000
0000
0000
,  // measure 7
0000
0000
0000
0000
,  // measure 8
1002
0000
0020
0033
,  // measure 9
1000
0100
0010
0001
,  // measure 10
1000
0001
0100
0000
,  // measure 11
0010
1000
0100
0000
,  // measure 12
2001
0000
0200
3300
,  // measure 13
0010
0001
0100
0010
,  // measure 14
1000
0001
1000
0000
,  // measure 15
0001
0010
0100
0000
,  // measure 16
2000
3000
0002
0003
,  // measure 17
1000
0100
0001
0100
,  // measure 18
0020
0030
0200
0300
,  // measure 19
0001
0010
0100
1000
,  // measure 20
0020
0030
0200
0300
,  // measure 21
0001
1000
0100
0010
,  // measure 22
0200
0300
0020
0030
,  // measure 23
0001
1000
0100
0010
,  // measure 24
0002
1003
0010
0100
,  // measure 25
0002
0103
0010
1000
,  // measure 26
0200
1300
0001
1000
,  // measure 27
0020
0130
0001
0010
,  // measure 28
0000
0100
1000
0001
,  // measure 29
0200
0000
0300
0000
,  // measure 30
0000
0001
0010
0100
,  // measure 31
2000
0000
3000
0000
,  // measure 32
0000
0010
1000
0200
,  // measure 33
0300
1000
0001
0200
,  // measure 34
0300
0020
0030
0200
,  // measure 35
0300
0000
0000
0000
,  // measure 36
0000
1002
0000
0200
,  // measure 37
0303
0010
1000
0100
,  // measure 38
0010
0200
0300
2000
,  // measure 39
3000
0001
0010
0100
,  // measure 40
0000
2001
0000
0020
,  // measure 41
3030
1000
0100
0010
,  // measure 42
0001
0200
0300
0020
,  // measure 43
0030
1000
0001
1000
,  // measure 44
0100
1002
0000
0020
,  // measure 45
0033
0001
1000
0010
,  // measure 46
0100
0002
0003
2000
,  // measure 47
3000
0100
1000
0001
,  // measure 48
0100
2001
0000
0200
,  // measure 49
3300
1000
0100
0010
,  // measure 50
0001
1000
0001
0200
,  // measure 51
0300
0010
0100
0002
,  // measure 52
0003
2000
3000
0002
,  // measure 53
0003
0010
0001
0100
,  // measure 54
1000
2000
3000
0200
,  // measure 55
0300
1000
0010
0100
,  // measure 56
0001
0002
0003
1000
,  // measure 57
0001
0010
0100
0010
,  // measure 58
0000
0200
0300
1000
,  // measure 59
0001
0100
0010
0100
,  // measure 60
0000
0020
0000
0000
,  // measure 61
0000
0030
0000
2000
,  // measure 62
3000
0200
0000
0000
,  // measure 63
0000
0300
0000
0000
,  // measure 64
0000
0002
0003
0002
,  // measure 65
0003
0002
0000
0003
,  // measure 66
0000
0020
0030
0020
,  // measure 67
0030
0020
0000
0030
,  // measure 68
0000
0000
0100
0000
,  // measure 69
0100
0000
1000
0000
,  // measure 70
1000
0000
0001
0000
,  // measure 71
0000
0000
1000
0000
,  // measure 72
0001
0000
0100
0000
,  // measure 73
0010
0000
0000
0000
,  // measure 74
0000
0000
0000
0000
,  // measure 75
0000
0000
0000
0000
,  // measure 76
0000
0000
1000
0000
,  // measure 77
0010
0000
1000
0000
,  // measure 78
0010
0000
1000
0000
,  // measure 79
0000
0000
0100
0000
,  // measure 80
0000
0000
0010
0000
,  // measure 81
0001
0000
0010
0000
,  // measure 82
0001
0000
0010
0000
,  // measure 83
0000
0000
0100
0000
,  // measure 84
0000
0000
1000
0000
,  // measure 85
0001
0000
1000
0000
,  // measure 86
0001
0000
0100
0000
,  // measure 87
0010
0000
0100
0000
,  // measure 88
0010
0000
1000
0000
,  // measure 89
0100
0000
1000
0000
,  // measure 90
0100
0000
0001
0000
,  // measure 91
0100
0000
0001
0000
,  // measure 92
0100
0000
0010
0000
,  // measure 93
0001
0000
1000
0000
,  // measure 94
0001
0000
0100
0000
,  // measure 95
0010
0000
0100
0000
,  // measure 96
0010
0000
1000
0000
,  // measure 97
0010
0000
0100
0000
,  // measure 98
0001
0000
0010
0000
,  // measure 99
0100
0000
0010
0000
,  // measure 100
0100
0000
1000
0000
;

//---------------dance-single - ----------------
#NOTES:
     dance-single:
     :
     Beginner:
     2:
     0.142253,0.235075,0.006683,0.053464,0.000000,149.000000,148.000000,1.000000,8.000000,0.000000,0.000000,0.142253,0.235075,0.006683,0.053464,0.000000,149.000000,148.000000,1.000000,8.000000,0.000000,0.000000:
// measure 0
0000
0000
0000
0000
,  // measure 1
0000
0000
0000
0000
,  // measure 2
0000
0000
0000
0000
,  // measure 3
0000
0000
0000
0000
,  // measure 4
0000
0000
0000
0000
,  // measure 5
0000
0000
0000
0000
,  // measure 6
0000
0000
0000
0000
,  // measure 7
0000
0000
0000
0000
,  // measure 8
0001
0000
0001
0000
,  // measure 9
1000
0000
0100
0100
,  // measure 10
0100
0000
0010
0000
,  // measure 11
0001
0000
1000
0000
,  // measure 12
0010
0000
0100
0000
,  // measure 13
0001
0000
0010
0010
,  // measure 14
0010
0000
0100
0000
,  // measure 15
1000
0000
0001
0000
,  // measure 16
1001
0000
0010
0000
,  // measure 17
1000
0000
0010
0000
,  // measure 18
0001
0000
0010
0000
,  // measure 19
0100
0000
0100
0000
,  // measure 20
1000
0000
0001
0000
,  // measure 21
1000
0000
0100
0000
,  // measure 22
0010
0000
0001
0000
,  // measure 23
0100
0000
0010
0000
,  // measure 24
2000
3000
1000
1000
,  // measure 25
1000
0000
0100
0000
,  // measure 26
0002
0003
0001
0001
,  // measure 27
0001
0000
0010
0000
,  // measure 28
0000
0100
0000
0100
,  // measure 29
0200
0300
0000
0000
,  // measure 30
0000
1000
0000
1000
,  // measure 31
2000
3000
0000
0000
,  // measure 32
0000
0010
0000
0010
,  // measure 33
0000
0100
0000
0100
,  // measure 34
0000
0001
0000
1000
,  // measure 35
0000
0000
0000
0000
,  // measure 36
0000
0000
0001
0001
,  // measure 37
0001
0000
0010
0010
,  // measure 38
0010
0010
0000
0100
,  // measure 39
0000
1000
0000
0000
,  // measure 40
0000
0000
1000
1000
,  // measure 41
1000
0000
0010
0010
,  // measure 42
0010
0010
0000
0100
,  // measure 43
0000
0001
0000
1000
,  // measure 44
0000
0000
0100
0100
,  // measure 45
0100
0000
0010
0010
,  // measure 46
0010
0010
0000
0100
,  // measure 47
0000
1000
0000
0001
,  // measure 48
0000
0000
0100
0100
,  // measure 49
0100
0000
1000
1000
,  // measure 50
1000
1000
0000
0010
,  // measure 51
0000
0100
0000
0001
,  // measure 52
0000
0010
0000
0010
,  // measure 53
0000
0100
0000
0010
,  // measure 54
0000
0100
0000
1000
,  // measure 55
0000
0001
0000
1000
,  // measure 56
0000
0001
0000
0001
,  // measure 57
0000
0100
0000
0100
,  // measure 58
0000
0010
0000
0010
,  // measure 59
0000
1000
0000
0100
,  // measure 60
0000
0020
0000
0030
,  // measure 61
0000
0000
0000
0100
,  // measure 62
0000
0200
0000
0300
,  // measure 63
0000
0000
0000
0000
,  // measure 64
0000
2000
0000
3000
,  // measure 65
0000
0000
0000
0000
,  // measure 66
0000
0002
0000
0003
,  // measure 67
0000
0000
0000
0000
,  // measure 68
0000
0000
0100
0000
,  // measure 69
0000
0000
0100
0000
,  // measure 70
0000
0000
0010
0000
,  // measure 71
0000
0000
1000
0000
,  // measure 72
0000
0000
0100
0000
,  // measure 73
0000
0000
0010
0000
,  // measure 74
0000
0000
0001
0000
,  // measure 75
0000
0000
1000
0000
,  // measure 76
0000
0000
0001
0000
,  // measure 77
0000
0000
0001
0000
,  // measure 78
0000
0000
0001
0000
,  // measure 79
0000
0000
0100
0000
,  // measure 80
0000
0000
1000
0000
,  // measure 81
0000
0000
1000
0000
,  // measure 82
0000
0000
1000
0000
,  // measure 83
0000
0000
0000
0000
,  // measure 84
0000
0000
0010
0000
,  // measure 85
0000
0000
0100
0000
,  // measure 86
0000
0000
0001
0000
,  // measure 87
0000
0000
0010
0000
,  // measure 88
0000
0000
0100
0000
,  // measure 89
0000
0000
1000
0000
,  // measure 90
0000
0000
0001
0000
,  // measure 91
0000
0000
1000
0000
,  // measure 92
0000
0000
0010
0000
,  // measure 93
0000
0000
0100
0000
,  // measure 94
0000
0000
0001
0000
,  // measure 95
0000
0000
0010
0000
,  // measure 96
0000
0000
0100
0000
,  // measure 97
0000
0000
1000
0000
,  // measure 98
0000
0000
0010
0000
,  // measure 99
0000
0000
0100
0000
,  // measure 100
0000
0000
0001
0000
;
