#TITLE:The Hand that Gives the Rose;
#SUBTITLE:Thok ast Thok;
#ARTIST:Masayoshi Soken;
#TITLETRANSLIT:;
#SUBTITLETRANSLIT:;
#ARTISTTRANSLIT:;
#GENRE:Heavensward;
#CREDIT:;
#BANNER:Final Fantasy XIV - The Hand That Gives the Rose.png;
#BACKGROUND:Final Fantasy XIV - The Hand That Gives the Rose-bg.png;
#LYRICSPATH:;
#CDTITLE:;
#MUSIC:Final Fantasy XIV - The Hand That Gives the Rose.mp3;
#OFFSET:-0.006000;
#SAMPLESTART:6.776383;
#SAMPLELENGTH:18.000000;
#LASTBEATHINT:262.084717;
#SELECTABLE:YES;
#BPMS:0.000000=160.000000
;
#STOPS:
;
#BGCHANGES:;
#KEYSOUNDS:;
#ATTACKS:;

//---------------dance-single - ----------------
#NOTES:
     dance-single:
     [Ness]:
     Challenge:
     10:
     0.492501,0.685156,0.463531,0.733924,0.057941,357.000000,296.000000,48.000000,76.000000,0.000000,26.000000,0.492501,0.685156,0.463531,0.733924,0.057941,357.000000,296.000000,48.000000,76.000000,0.000000,26.000000:
// measure 0
0000
0000
0000
0000
,  // measure 1
0000
0000
2220
0001
,  // measure 2
3331
0222
1000
1333
,  // measure 3
2202
0010
3313
0220
,  // measure 4
0001
0000
1330
0000
2002
0000
3003
0010
,  // measure 5
1000
0010
0200
0000
1000
0000
0301
0000
,  // measure 6
0010
2000
0000
3010
0001
0010
0100
1000
,  // measure 7
0200
0000
0301
0000
0022
0000
0033
0001
,  // measure 8
1000
0001
0200
0000
0310
0000
1001
0000
,  // measure 9
1000
0020
0000
0031
0010
1000
0200
0000
,  // measure 10
0001
0000
1300
0000
0020
0001
0000
0130
,  // measure 11
1000
0100
0001
0000
0110
0000
1100
0000
,  // measure 12
0020
0100
0000
1030
0100
0001
0100
0010
,  // measure 13
1000
0000
0110
0000
0002
1000
0003
1000
,  // measure 14
0010
0001
0010
1000
0200
0000
0001
0000
,  // measure 15
2300
0000
3000
0010
1000
0010
0200
0000
,  // measure 16
0001
0310
4040
0000
,  // measure 17
0000
0000
0000
0000
0000
0000
3030
0000
0000
0001
0010
0100
,  // measure 18
1000
0101
0010
1100
,  // measure 19
0001
0010
0044
0000
,  // measure 20
0000
0000
0000
0000
0000
0000
0033
0000
0000
1000
0010
0100
,  // measure 21
0002
0000
0100
0000
0013
0100
1000
0100
,  // measure 22
2002
3003
0101
0010
,  // measure 23
0010
0100
1111
1111
,  // measure 24
1000
0010
0010
0100
,  // measure 25
1111
0000
1111
0000
2002
0000
3003
0010
,  // measure 26
0001
0010
0200
0000
0001
0000
1300
0000
,  // measure 27
0010
0002
0000
0013
1000
0010
0100
0001
,  // measure 28
0200
0000
1300
0000
2020
0000
3030
1000
,  // measure 29
0001
1000
0200
0000
0310
0000
1001
0000
,  // measure 30
0001
0020
0000
1030
0010
0001
0200
0000
,  // measure 31
1000
0000
0301
0000
0020
1000
0000
0130
,  // measure 32
0001
0100
1000
0000
0110
0000
0101
0000
,  // measure 33
0020
0100
0000
0031
0100
1000
0100
0010
,  // measure 34
0001
0000
0110
0000
2000
0001
3000
0001
,  // measure 35
0010
1000
0010
0001
0200
0000
1000
0000
,  // measure 36
0302
0000
0003
0010
0001
0010
0200
0000
,  // measure 37
1000
0310
0404
0000
,  // measure 38
0000
0000
0000
0000
0000
0000
0303
0000
0000
1000
0010
0100
,  // measure 39
0001
1100
0010
0101
,  // measure 40
0010
1100
4040
0000
,  // measure 41
0000
0000
0000
0000
0000
0000
3030
0000
0000
0001
0010
0100
,  // measure 42
2000
0000
0100
0000
3010
0100
0001
0100
,  // measure 43
0220
0000
0330
0000
2200
0000
0001
0010
,  // measure 44
3301
0220
1000
1330
,  // measure 45
0202
0000
0010
1000
0313
0000
0220
0000
,  // measure 46
0001
0000
1330
0000
2002
0000
3003
0010
,  // measure 47
1000
0010
0200
0000
1000
0000
0301
0000
,  // measure 48
0010
2000
0000
3010
0001
0010
0100
1000
,  // measure 49
0200
0000
0301
0000
0022
0000
0033
0001
,  // measure 50
1000
0001
0200
0000
0310
0000
1001
0000
,  // measure 51
1000
0020
0000
0031
0010
1000
0200
0000
,  // measure 52
0001
0000
1300
0000
0020
0001
0000
0130
,  // measure 53
1000
0100
0001
0000
0110
0000
1100
0000
,  // measure 54
0020
0100
0000
1030
0100
0001
0100
0010
,  // measure 55
1000
0000
0110
0000
0002
1000
0003
1000
,  // measure 56
0010
0001
0010
1000
0200
0000
0001
0000
,  // measure 57
2300
0000
3000
0010
1000
0010
0200
0000
,  // measure 58
0001
0000
0000
0000
0310
0000
0000
0000
4040
0000
0000
0000
0000
0000
0000
0030
,  // measure 59
0004
0000
0000
0000
0000
0000
3003
0000
0000
0001
0010
0100
,  // measure 60
1000
0101
0010
1100
,  // measure 61
0001
0000
0000
0000
0010
0000
0000
0000
0044
0000
0000
0000
0000
0000
0000
0030
,  // measure 62
0400
0000
0000
0000
0000
0000
0303
0000
0000
1000
0010
0100
,  // measure 63
0002
0000
0100
0000
0013
0100
1000
0100
,  // measure 64
2200
3300
1111
0000
;

//---------------dance-single - ----------------
#NOTES:
     dance-single:
     [Ness]:
     Hard:
     1:
     0.506297,0.467152,0.502158,0.762894,0.057941,367.000000,315.000000,52.000000,79.000000,0.000000,0.000000,0.506297,0.467152,0.502158,0.762894,0.057941,367.000000,315.000000,52.000000,79.000000,0.000000,0.000000:
// measure 0
0000
0000
0000
0000
,  // measure 1
0000
0000
2100
0001
,  // measure 2
3001
0012
1000
1003
,  // measure 3
2100
0000
3001
0012
,  // measure 4
1000
0000
1003
0000
2002
0000
3003
0010
,  // measure 5
1000
0010
0200
0000
1000
0000
0301
0000
,  // measure 6
0010
2000
0000
3010
0100
1000
0100
0000
,  // measure 7
0002
0000
0013
0000
0022
0000
0033
0001
,  // measure 8
1000
0001
0200
0000
0310
0000
1001
0000
,  // measure 9
1000
0020
0000
0130
0001
0100
0020
0000
,  // measure 10
0001
0000
1030
0000
0020
0001
0000
0130
,  // measure 11
1000
0100
0001
0000
0110
0000
1100
0000
,  // measure 12
0020
0100
0000
1030
0100
0001
0100
0010
,  // measure 13
1000
0000
0110
0000
0002
1000
0003
1000
,  // measure 14
0010
0001
0010
1000
0200
0000
0001
0000
,  // measure 15
2300
0000
3000
0010
1000
0010
0200
0000
,  // measure 16
0001
0310
2010
0001
,  // measure 17
3100
0000
0000
2010
0000
0000
0100
0000
0000
3001
0010
0100
,  // measure 18
1000
0101
0010
1100
,  // measure 19
0001
0010
0012
1000
,  // measure 20
0013
0000
0000
0012
0000
0000
0100
0000
0000
1003
0010
0100
,  // measure 21
0002
0000
0100
0000
0013
0100
1000
0100
,  // measure 22
2002
0000
3003
0000
0101
0000
0010
0010
,  // measure 23
0010
0102
1000
1003
,  // measure 24
0101
0000
0010
0010
0010
1000
2100
0000
,  // measure 25
0001
0000
3001
0000
2002
0000
3003
0010
,  // measure 26
0001
0010
0200
0000
0001
0000
1300
0000
,  // measure 27
0010
0002
0000
0013
1000
0010
0100
0001
,  // measure 28
0200
0000
0310
0000
2020
0000
3030
1000
,  // measure 29
0001
1000
0200
0000
0310
0000
1001
0000
,  // measure 30
0001
0020
0000
0130
0010
0001
0200
0000
,  // measure 31
1000
0000
0301
0000
0020
1000
0000
0130
,  // measure 32
0001
0100
0010
0000
1010
0000
0101
0000
,  // measure 33
0020
0100
0000
1030
0100
1000
0100
0000
,  // measure 34
0010
0000
1001
0000
2000
0001
3000
0010
,  // measure 35
1000
0010
0001
0000
0200
0000
1000
0000
,  // measure 36
0302
0000
0003
0010
0001
0010
0200
0000
,  // measure 37
1000
0310
0201
1000
,  // measure 38
0310
0000
0000
0102
0000
0000
0010
0000
0000
1003
0010
0100
,  // measure 39
0001
1100
0010
0101
,  // measure 40
1000
0010
1020
0100
,  // measure 41
1030
0000
0000
2010
0000
0000
0100
0000
0000
3001
0010
0100
,  // measure 42
2000
0000
0100
0000
3010
0100
0001
0100
,  // measure 43
0220
0330
0102
1000
,  // measure 44
1003
2010
0001
3001
,  // measure 45
0102
0000
1000
1000
1003
0000
2010
0000
,  // measure 46
0001
0000
3001
0000
2002
0000
3003
0010
,  // measure 47
0001
0010
0200
0000
0001
0000
1300
0000
,  // measure 48
0010
0002
0000
0013
0100
0001
0100
0000
,  // measure 49
2000
0000
3010
0000
2020
0000
3030
1000
,  // measure 50
0001
1000
0200
0000
0310
0000
1001
0000
,  // measure 51
0001
0020
0000
0130
1000
0100
0020
0000
,  // measure 52
1000
0000
0031
0000
0020
1000
0000
0130
,  // measure 53
0001
0100
1000
0000
0110
0000
0101
0000
,  // measure 54
0020
0100
0000
0031
0100
1000
0100
0010
,  // measure 55
0001
0000
0110
0000
2000
0001
3000
0001
,  // measure 56
0010
1000
0010
0001
0200
0000
1000
0000
,  // measure 57
0302
0000
0003
0010
0001
0010
0200
0000
,  // measure 58
1000
0310
0012
1000
,  // measure 59
0103
0000
0000
0012
0000
0000
0100
0000
0000
1003
0010
0100
,  // measure 60
0001
1100
0010
0101
,  // measure 61
1000
0010
2010
0001
,  // measure 62
3010
0000
0000
2010
0000
0000
0100
0000
0000
3001
0010
0100
,  // measure 63
2000
0000
0100
0000
3010
0100
0001
0100
,  // measure 64
2002
3003
1001
0000
;
