#VERSION:0.83;
#TITLE:The Gauntlet;
#SUBTITLE:The Lost Canals of Uznair;
#ARTIST:Masayoshi Soken;
#TITLETRANSLIT:;
#SUBTITLETRANSLIT:;
#ARTISTTRANSLIT:;
#GENRE:The Far Edge of Fate;
#ORIGIN:;
#CREDIT:[Ness];
#BANNER:Final Fantasy XIV - The Gauntlet.png;
#BACKGROUND:Final Fantasy XIV - The Gauntlet-bg.png;
#PREVIEWVID:;
#JACKET:Final Fantasy XIV - The Gauntlet-jacket.png;
#CDIMAGE:;
#DISCIMAGE:;
#LYRICSPATH:;
#CDTITLE:;
#MUSIC:Final Fantasy XIV - The Gauntlet.mp3;
#OFFSET:-0.038000;
#SAMPLESTART:59.102856;
#SAMPLELENGTH:14.328365;
#SELECTABLE:YES;
#BPMS:0.000=134.000;
#STOPS:;
#DELAYS:;
#WARPS:;
#TIMESIGNATURES:0.000=4=4;
#TICKCOUNTS:0.000=2;
#COMBOS:0.000=1;
#SPEEDS:0.000=1.000=0.000=0;
#SCROLLS:0.000=1.000;
#FAKES:;
#LABELS:0.000=Song Start;
#LASTSECONDHINT:126.347038;
#BGCHANGES:;
#KEYSOUNDS:;
#ATTACKS:
;

//---------------dance-single - ----------------
#NOTEDATA:;
#CHARTNAME:[Ness];
#STEPSTYPE:dance-single;
#DESCRIPTION:[Ness];
#CHARTSTYLE:;
#DIFFICULTY:Hard;
#METER:7;
#RADARVALUES:0.435077,0.468139,0.211077,0.256308,0.064077,404.000000,376.000000,28.000000,34.000000,0.000000,0.000000,0.000000,0.000000,0.000000,0.435077,0.468139,0.211077,0.256308,0.064077,404.000000,376.000000,28.000000,34.000000,0.000000,0.000000,0.000000,0.000000,0.000000;
#CREDIT:[Ness];
#NOTES:
0000
0000
0000
0000
,
2002
0000
0000
0000
3003
0000
0000
0000
0010
0000
0000
1000
0000
0000
0001
0000
,
0020
0000
0200
0000
0330
1000
0000
0010
,
0100
0000
0100
0001
0000
0001
0020
0000
,
0000
0000
0000
0130
,
2000
0000
0000
3002
0000
0000
0103
0000
,
0000
0000
0000
0000
,
0010
0000
0000
1000
0000
0000
0001
2002
,
0000
0000
0000
3003
,
0010
0001
0001
1000
0000
0010
1000
0010
,
0100
0001
0100
0010
1000
0001
0100
0010
,
1000
0100
0010
0100
0000
0100
1000
0001
,
1000
0010
0100
0010
1000
0100
0010
0100
,
1000
0010
0100
0001
0000
0001
0010
0100
,
0010
0001
1000
0001
0100
0010
0100
0001
,
0010
0100
0010
0100
0000
1000
0010
1000
,
0100
0000
0010
0000
0001
0000
1000
0000
0010
0000
0100
0000
0100
0001
0000
0100
,
0002
0000
0000
2000
0000
3003
1001
0000
,
0010
1000
0100
0010
0100
1000
0001
0100
,
0000
0010
0010
0001
0010
1000
0100
0010
,
0100
1000
0001
1000
0100
0010
0001
1000
,
2001
0000
0000
0002
0000
3003
1001
0000
,
0010
0001
1000
0001
0100
0010
0100
0001
,
0000
1000
1000
0010
0100
0010
1000
0100
,
0010
0000
0100
0000
1000
0000
0001
0000
0010
0000
0100
0000
0100
1000
0000
0100
,
1000
0010
0100
0010
0001
0010
0100
0010
,
1000
0100
0010
0100
0001
0100
0010
0100
,
1000
2002
0000
3003
,
0100
0000
0000
0000
0001
2000
0002
0000
0000
0000
0000
0000
3003
0000
0000
0000
,
0001
0100
1000
0100
0001
0100
1000
0100
,
0001
0010
1000
0010
0001
0100
1000
0100
,
0001
0000
0000
0000
0202
0000
0000
0000
0000
0000
0000
0000
0303
0000
1000
0010
,
1000
2200
0000
3300
,
1001
0000
0000
0000
0101
0000
0000
0000
0010
0000
0000
1000
0000
0000
0001
0000
,
0010
0000
0200
0000
0000
1300
0000
0010
,
1000
0001
0000
0010
0000
0100
0010
0001
,
0000
0101
0000
1001
0000
0010
1000
0100
,
0010
0100
0000
1100
0000
1000
0010
0100
,
0000
0010
0000
1000
0000
0001
0100
0010
,
1000
0001
0000
0101
0000
1000
0010
0100
,
0000
0010
1000
0001
0000
0001
0010
0100
,
1000
0000
0000
1000
0010
0000
0000
0010
0100
0000
0000
0001
0000
0000
1000
0000
,
0010
0000
0000
0010
0100
0000
0000
0100
0001
0000
0000
0001
1000
0000
0000
1000
,
0100
0010
0000
0001
0000
1000
0010
0001
,
0000
1010
0000
0101
0000
1000
0100
0010
,
0100
1000
0000
0101
0000
0001
0010
0100
,
0000
0011
0000
1100
0000
0010
0100
0010
,
1000
0001
0000
0100
0000
0010
0100
0001
,
0000
1000
1000
0001
0001
0100
0100
0010
,
2001
0000
0000
0002
0000
3003
1001
0000
,
0010
1000
0001
1000
0100
0010
0100
1000
,
0010
0100
0001
0100
0010
1000
0001
1000
,
0100
0100
0010
0010
0001
0001
1000
1000
,
1001
0000
0000
0000
0101
0000
0000
0000
0010
0000
0000
1000
0000
0000
0001
0000
,
0020
0000
0200
0000
0330
1000
0000
0010
,
0100
0001
1000
0001
0000
0001
0020
0000
,
0030
0001
0000
0100
0000
0010
0001
1000
,
0001
0100
0000
1010
0000
0100
0010
1000
,
0000
0001
0100
0010
0000
1000
0100
1000
,
0010
0100
0010
1000
0000
1000
0001
0100
,
0000
0010
0000
0100
0000
0001
0000
0010
,
0220
0000
0000
0000
0330
0000
0000
0000
1000
0000
0000
0001
0000
0000
1000
0000
,
0100
0000
0010
0000
0000
0001
0000
1000
,
0002
1000
0003
0200
0010
0300
1020
0000
,
0000
0100
0000
0100
0030
0001
1000
0001
,
0100
0000
0010
1000
0000
1000
0001
0010
,
0000
0100
0000
0100
0000
1000
0001
1000
,
0100
0000
0000
0010
0000
0000
0001
2002
,
0000
0000
0000
0000
0000
0000
0000
3003
,
1001
0000
0000
0000
;

//---------------dance-single - ----------------
#NOTEDATA:;
#CHARTNAME:[Ness];
#STEPSTYPE:dance-single;
#DESCRIPTION:[Ness];
#CHARTSTYLE:;
#DIFFICULTY:Challenge;
#METER:9;
#RADARVALUES:0.593385,0.624185,0.263846,0.135692,0.252539,551.000000,516.000000,35.000000,18.000000,0.000000,0.000000,0.000000,0.000000,0.000000,0.593385,0.624185,0.263846,0.135692,0.252539,551.000000,516.000000,35.000000,18.000000,0.000000,0.000000,0.000000,0.000000,0.000000;
#CREDIT:[Ness];
#NOTES:
0000
0000
0000
0000
,
1001
0000
0000
0000
0000
0000
0000
0000
0010
0000
0000
1000
0000
0000
0001
0000
,
0010
0000
0100
0000
0000
1000
0000
0010
,
0100
0000
0000
0001
0000
0000
0010
0000
,
0000
0100
0000
0100
0000
0100
1000
0001
,
0010
0000
0100
0000
0000
0000
0010
0000
0000
0000
0001
0000
0100
0000
0010
1000
,
0000
0000
0010
0000
0100
0000
0001
0100
0000
0000
0010
0000
1000
0000
0100
0000
,
0010
0000
0001
0000
1000
0000
0100
1000
0000
0000
0010
0000
0100
0000
1001
0000
,
0000
0000
0000
0000
,
0010
1000
0100
0010
0100
1000
0100
0001
,
0100
0010
0100
0010
0001
0010
0100
1000
,
0010
1000
0100
0010
0100
1000
1000
0010
,
0001
0010
1000
0100
0010
0100
1000
0001
,
1001
0100
0010
1000
1000
0100
0010
0100
,
1000
0010
1000
0001
0010
0100
0010
0001
,
1000
0010
0100
0010
0010
1000
0100
0010
,
0001
0000
1000
0000
0001
0000
0100
0000
0010
0000
1000
0000
0001
0010
0000
0100
,
1000
0010
0100
0001
0001
0010
0001
1000
,
0010
1000
0001
0010
0100
1000
0010
0100
,
0000
0010
0010
1000
0100
0010
0100
1000
,
0010
0001
0010
0100
0010
0001
0010
1000
,
1100
0010
0100
1000
1000
0010
1000
0100
,
0010
0001
1000
0001
0100
0010
1000
0001
,
0000
0010
0010
0100
1000
0010
0100
0001
,
0010
0000
0100
0000
1000
0000
0010
0000
0100
0000
0001
0000
0001
1000
0000
0001
,
2000
0010
3000
0102
0010
0013
0000
2001
,
0100
3100
0000
0210
0001
0310
0000
1020
,
0100
1030
0000
1200
0010
1300
0000
2001
,
0010
3001
0000
1002
0100
1003
0000
0101
,
1000
0010
0100
0110
0001
1000
0100
1100
,
0010
0000
0000
0100
0000
0000
0010
0000
0000
0101
0000
0000
0001
0000
0000
0010
0000
0000
0100
0000
0000
1000
0100
1000
,
0100
0000
0000
0010
0000
0000
0001
0000
0000
1000
0000
0000
0010
0000
0000
0100
0000
0000
0010
0000
0000
1000
0010
0100
,
0001
0100
1000
0100
0001
0010
0100
1000
,
0110
0000
1000
0100
0010
0000
0001
0000
1000
0000
0010
0100
0001
0000
1000
0000
,
0100
0000
0010
0100
1000
0000
0001
0000
0010
0000
0100
0010
0001
0000
1000
0000
,
0100
0000
1000
0001
0100
0000
0001
1000
0100
0000
1000
0001
0020
0000
0001
0000
,
0000
0000
0100
0000
0000
0000
0100
0000
0000
0000
0130
1000
0010
0000
0100
0000
,
0010
0000
1000
0001
0010
0000
0100
0000
0010
0000
0001
1000
0010
0000
0100
0000
,
0000
0000
0010
0000
1000
0000
0001
0100
0000
0000
0010
0000
0001
0000
1000
0100
,
0000
0000
1000
0000
0010
0000
0100
0001
0000
0000
0001
0000
0010
0000
0100
1000
,
0000
0000
0010
0000
0100
0000
0001
0100
0000
0000
0010
0000
1000
0000
0100
0000
,
1100
0000
0100
0010
0001
0000
1000
0000
0010
0000
0100
0010
1000
0000
0001
0000
,
0100
0000
0001
0100
0010
0000
0100
0010
1000
0000
0010
1000
0001
0000
1000
0001
,
0100
0000
0010
1000
0100
0000
0010
0001
0100
0000
0010
1000
0200
0000
0001
0000
,
0000
0000
0010
0000
0000
0000
0010
0000
0000
0000
0310
0001
1000
0000
0100
0000
,
0010
0000
0001
1000
0010
0000
0100
0000
0010
0000
1000
0001
0010
0000
0100
0000
,
0000
0000
0010
0000
0001
0000
1000
0100
0000
0000
1000
0000
0010
0000
0100
0001
,
0000
0000
0001
0000
0010
0000
0100
1000
0000
0000
1000
0000
0010
0000
0110
0000
,
0000
0101
0101
0110
0110
1010
1010
1001
,
2001
0000
0000
0002
0000
3003
1001
0010
,
0101
0100
0010
1000
0001
0001
0010
0010
,
0100
1000
1000
0010
1000
0001
0010
0100
,
0010
0001
1000
0001
0100
0010
0100
0001
,
1001
0000
1000
0010
0100
0000
0010
0000
1000
0000
0001
0100
0010
0000
1000
0000
,
0100
0000
0010
0001
1000
0000
0100
0000
0010
0000
0100
1000
0001
0000
0100
0000
,
0010
0000
1000
0001
0100
0000
0001
1000
0100
0000
1000
0001
0010
0000
0100
0000
,
0000
0000
1100
0000
0000
0000
0101
0000
0000
0000
0100
1000
0010
0000
1000
0000
,
0001
0000
0010
0100
1000
0000
0010
0000
0100
0000
0001
1000
0010
0000
0100
0000
,
0000
0000
0010
0000
1000
0000
0001
0100
0000
0000
0010
0000
1000
0000
0010
0100
,
0000
0000
0001
0000
0010
0000
0100
1000
0000
0000
0100
0000
0010
0000
0001
1000
,
0000
0000
0010
0000
0100
0000
0001
0100
0000
0000
0010
0000
1000
0000
0100
0000
,
2200
0000
0000
0000
0300
0000
0000
0000
3010
0000
0000
1000
0000
0000
0001
0000
,
0200
0000
0020
0000
0330
1000
0000
0010
,
0001
0000
0010
0000
1000
0000
0100
1000
0000
0000
0100
0000
0010
0000
0001
0010
,
0000
0000
0001
0000
0100
0000
0010
1000
0000
0000
1000
0000
0010
0000
0100
0001
,
0010
0000
0100
0000
1000
0000
0001
1000
0000
0000
0100
0000
0010
0000
0001
0010
,
0000
0000
0001
0000
1000
0000
0001
0100
0000
0000
0010
0000
1000
0000
0100
1000
,
0100
0000
0010
0000
0001
0000
1000
0001
0000
0000
0100
0000
0110
0000
2002
0000
,
0000
0000
0000
0000
0000
0000
0000
3003
,
1001
0000
0000
0000
;

//---------------dance-single - ----------------
#NOTEDATA:;
#CHARTNAME:[Ness];
#STEPSTYPE:dance-single;
#DESCRIPTION:[Ness];
#CHARTSTYLE:;
#DIFFICULTY:Medium;
#METER:6;
#RADARVALUES:0.306923,0.338100,0.143231,0.143231,0.000000,285.000000,266.000000,19.000000,19.000000,0.000000,0.000000,0.000000,0.000000,0.000000,0.306923,0.338100,0.143231,0.143231,0.000000,285.000000,266.000000,19.000000,19.000000,0.000000,0.000000,0.000000,0.000000,0.000000;
#CREDIT:[Ness];
#NOTES:
0000
0000
0000
0000
,
2002
3003
1000
0001
,
2000
0200
3300
1001
,
0010
0000
0000
0001
0000
0000
0100
0000
,
0000
0000
0000
1001
,
0010
0000
0000
1000
0000
0000
0100
0000
,
0000
0000
0000
0000
,
1000
0000
0000
0001
0000
0000
2002
0000
,
0000
0000
0000
3003
,
1001
0000
0000
0010
0000
0000
1000
0000
,
0010
0000
0100
0000
0010
1000
0010
0000
,
0100
0000
0000
0001
0000
0000
0010
0000
,
0001
0000
1000
0000
0100
1000
0100
0000
,
0010
0000
0000
0100
0000
0000
0010
0000
,
0001
0000
1000
0000
0010
1000
0010
0000
,
0100
0000
0000
0001
0000
0000
1000
0000
,
0100
0000
0010
0000
0001
1000
0001
0000
,
0010
0000
0000
0100
0000
0000
1000
0000
,
0001
0000
1000
0000
0010
0100
0010
0000
,
1000
0000
0000
0001
0000
0000
0100
0000
,
0010
0000
0100
0000
0001
0100
0001
0000
,
1000
0000
0000
0010
0000
0000
1000
0000
,
0100
0010
0100
1000
,
0001
0000
0000
0010
0000
0000
0001
0000
,
0100
0010
1000
0001
,
1000
0100
1000
0100
1000
0000
0100
0000
,
0001
0100
0001
0100
0001
0000
0100
0000
,
1000
0000
2002
0000
0000
3003
0000
0000
,
0100
2002
0000
3003
,
0010
1000
0010
1000
0010
0000
0100
0000
,
0001
0100
0001
0100
0001
0000
0010
0000
,
0100
2002
0000
3003
,
0010
2002
0000
3003
,
0000
1000
0000
0100
0000
1000
0000
0001
,
0000
0100
0000
0010
0000
1000
0000
0010
,
0100
0001
0000
0010
0000
0001
0000
1000
,
0000
0001
0000
0100
0000
0010
1000
0100
,
1000
0010
0000
1000
0000
0100
0000
0010
,
0000
0100
0000
0010
0000
0001
1000
0001
,
0100
0001
0000
1000
0000
0001
0000
0010
,
0000
0100
0000
1000
0000
0010
0000
0100
,
0001
0010
0000
0001
0000
1000
0000
0010
,
1000
0010
0000
0100
0000
0001
0000
1000
,
0100
1000
0000
0001
0000
0010
0000
0100
,
0000
1000
0000
0001
0000
1000
0010
1000
,
0010
1000
0000
0001
0000
1000
0000
0100
,
0000
0001
0000
0100
0000
1000
0000
0001
,
0010
0001
0000
0100
0000
0010
1000
0000
,
0000
0001
0001
1000
1000
0000
1001
0000
,
0010
0000
0000
1000
0000
0000
1001
0000
,
0010
0000
0100
0000
0010
1000
0010
0000
,
0100
0000
0000
0001
0000
0000
1001
0000
,
0010
0000
0001
0000
1000
0100
1000
0000
,
0000
0001
0000
0010
0000
0001
0000
1001
,
0000
0010
0000
0100
0000
0010
0000
0001
,
1000
0010
0000
1000
0000
0100
0000
0010
,
0000
0001
0000
0101
0000
1000
0010
0100
,
0000
0010
0000
1000
0000
0100
0000
0010
,
0000
0100
0000
0010
0000
1001
0000
0010
,
0001
1000
0000
0010
0000
0100
0000
0010
,
0000
1010
0000
0010
0000
0101
0000
0100
,
0020
0000
1030
0001
,
0010
0000
0200
0000
0000
1300
0000
0010
,
0200
0000
0000
0010
0000
0000
0301
0000
,
0000
1000
0000
0001
0000
1000
0001
1000
,
0010
1000
0000
0001
0000
1000
0001
1000
,
0000
0001
0000
0010
0000
0001
0000
1000
,
0001
0000
0000
0100
0000
0000
2002
0000
,
0000
0000
0000
3003
,
1001
0000
0000
0000
;

//---------------dance-single - ----------------
#NOTEDATA:;
#CHARTNAME:[Ness];
#STEPSTYPE:dance-single;
#DESCRIPTION:[Ness];
#CHARTSTYLE:;
#DIFFICULTY:Easy;
#METER:4;
#RADARVALUES:0.242308,0.260077,0.075385,0.180923,0.000000,225.000000,215.000000,10.000000,24.000000,0.000000,0.000000,0.000000,0.000000,0.000000,0.242308,0.260077,0.075385,0.180923,0.000000,225.000000,215.000000,10.000000,24.000000,0.000000,0.000000,0.000000,0.000000,0.000000;
#CREDIT:[Ness];
#NOTES:
// measure 0
0000
0000
0000
0000
,  // measure 1
2002
3003
0010
0001
,  // measure 2
0100
0020
0000
1030
,  // measure 3
0002
0000
0000
1000
0000
0000
1003
0000
,  // measure 4
0000
0000
0000
0010
,  // measure 5
0200
0000
0000
0010
0000
0000
0310
0000
,  // measure 6
0000
0000
0000
0000
,  // measure 7
2000
0000
0000
0001
0000
0000
0002
0000
,  // measure 8
0000
0000
0000
3003
,  // measure 9
1001
0000
0001
0100
,  // measure 10
0010
1000
0010
0100
,  // measure 11
0001
0000
0010
0001
,  // measure 12
0010
0100
1000
0100
,  // measure 13
0010
0000
0001
1000
,  // measure 14
0010
1000
0001
0100
,  // measure 15
0010
0000
1000
0100
,  // measure 16
0010
0001
0100
0010
,  // measure 17
1000
0000
0100
0010
,  // measure 18
0001
1000
0010
0100
,  // measure 19
0001
0000
0010
0001
,  // measure 20
1000
0010
1000
0001
,  // measure 21
0100
0000
0010
1000
,  // measure 22
0100
0010
0100
1000
,  // measure 23
0001
0000
0010
0001
,  // measure 24
0100
0010
1000
0001
,  // measure 25
1000
1000
0100
0100
,  // measure 26
0001
0001
0100
0100
,  // measure 27
0020
0200
0000
0330
,  // measure 28
0002
2000
0000
3003
,  // measure 29
0001
0001
0010
0010
,  // measure 30
1000
1000
0100
0100
,  // measure 31
0020
0200
0000
0330
,  // measure 32
2000
0002
0000
3003
,  // measure 33
1000
0100
1000
0001
,  // measure 34
0100
0010
1000
0010
,  // measure 35
0100
0001
0010
0001
,  // measure 36
1000
0001
0100
0010
,  // measure 37
1000
0100
1000
0100
,  // measure 38
0010
0100
0010
0001
,  // measure 39
1000
0001
0100
0001
,  // measure 40
0010
0100
1000
0010
,  // measure 41
0100
0001
0010
0100
,  // measure 42
1000
0010
0100
0001
,  // measure 43
1000
0100
0001
0010
,  // measure 44
0100
1000
0001
1000
,  // measure 45
0010
1000
0001
1000
,  // measure 46
0100
0001
0100
1000
,  // measure 47
0010
0001
0100
0010
,  // measure 48
0000
0100
0100
0100
,  // measure 49
1001
0000
0000
0110
0000
0000
2002
0000
,  // measure 50
0000
0000
3003
0000
,  // measure 51
0010
1000
0001
0010
,  // measure 52
0100
1000
0001
0100
,  // measure 53
0001
0010
0001
1001
,  // measure 54
0010
0100
0010
0001
,  // measure 55
1000
0010
1000
0100
,  // measure 56
0010
0001
1000
0010
,  // measure 57
0100
0010
1000
0100
,  // measure 58
0010
0100
0010
1001
,  // measure 59
0010
0001
1000
0010
,  // measure 60
0100
0010
0100
0010
,  // measure 61
2002
0000
0000
3003
,  // measure 62
0020
0000
0000
0030
,  // measure 63
2000
0000
0000
0001
0000
0000
3001
0000
,  // measure 64
0000
0000
0000
0010
,  // measure 65
0002
0000
0000
1000
0000
0000
1003
0000
,  // measure 66
0000
0000
0000
0000
,  // measure 67
0100
0000
0000
0010
0000
0000
2002
0000
,  // measure 68
0000
0000
0000
3003
,  // measure 69
1001
0000
0000
0000
;

//---------------dance-single - ----------------
#NOTEDATA:;
#CHARTNAME:[Ness];
#STEPSTYPE:dance-single;
#DESCRIPTION:[Ness];
#CHARTSTYLE:;
#DIFFICULTY:Beginner;
#METER:1;
#RADARVALUES:0.140000,0.178756,0.037692,0.098000,0.000000,130.000000,125.000000,5.000000,13.000000,0.000000,0.000000,0.000000,0.000000,0.000000,0.140000,0.178756,0.037692,0.098000,0.000000,130.000000,125.000000,5.000000,13.000000,0.000000,0.000000,0.000000,0.000000,0.000000;
#CREDIT:[Ness];
#NOTES:
// measure 0
0000
0000
0000
0000
,  // measure 1
0020
0000
0000
0030
,  // measure 2
2000
0000
0000
3000
,  // measure 3
0002
0000
0000
0003
,  // measure 4
0020
0000
0000
0030
,  // measure 5
0200
0000
0000
0300
,  // measure 6
2000
0000
0000
3000
,  // measure 7
0002
0000
0003
2002
,  // measure 8
0000
0000
3003
0000
,  // measure 9
0010
0000
0000
0000
,  // measure 10
1000
1000
1000
0000
,  // measure 11
0100
0000
0000
0000
,  // measure 12
0001
0001
0001
0000
,  // measure 13
1000
0000
0000
0000
,  // measure 14
0001
0001
0001
0000
,  // measure 15
0010
0000
0000
0000
,  // measure 16
0100
0100
0100
0000
,  // measure 17
1001
0000
0000
0000
,  // measure 18
0100
0100
0100
0000
,  // measure 19
1000
0000
0000
0000
,  // measure 20
0001
0001
0001
0000
,  // measure 21
0100
0000
0000
0000
,  // measure 22
0010
0010
0010
0000
,  // measure 23
1000
0000
0000
0000
,  // measure 24
0001
0001
0001
0000
,  // measure 25
0010
0000
0010
0000
,  // measure 26
0100
0000
0100
0000
,  // measure 27
1000
2000
3000
0000
,  // measure 28
0001
0002
0003
0000
,  // measure 29
0100
0000
0100
0000
,  // measure 30
0010
0000
0010
0000
,  // measure 31
1000
2000
3000
0000
,  // measure 32
0001
0002
0003
0000
,  // measure 33
1001
0000
0000
0010
,  // measure 34
0000
0001
0000
0010
,  // measure 35
0000
1000
0000
0010
,  // measure 36
0000
0100
0000
0010
,  // measure 37
0000
1000
0000
0001
,  // measure 38
0000
0010
0000
0100
,  // measure 39
0000
1000
0000
0001
,  // measure 40
0000
0100
0000
0010
,  // measure 41
0010
0010
0000
1000
,  // measure 42
1000
1000
0000
0001
,  // measure 43
0001
0001
0000
0010
,  // measure 44
0000
1000
0000
0010
,  // measure 45
0000
0100
0000
0100
,  // measure 46
0000
0010
0000
0010
,  // measure 47
0000
0001
0000
1000
,  // measure 48
0000
0100
0000
0010
,  // measure 49
0010
0000
0000
0000
,  // measure 50
0001
0000
0000
0000
,  // measure 51
1000
0000
0000
0000
,  // measure 52
0010
0000
0000
0000
,  // measure 53
0100
0000
0100
0000
,  // measure 54
0010
0000
1000
0000
,  // measure 55
0001
0000
0010
0000
,  // measure 56
0001
0000
1000
0000
,  // measure 57
0100
0000
1000
0000
,  // measure 58
0001
0000
0100
0000
,  // measure 59
0001
0000
1000
0000
,  // measure 60
0001
0000
0010
0000
,  // measure 61
0110
0000
0100
0000
,  // measure 62
1000
0000
0100
0000
,  // measure 63
1000
0000
0001
0000
,  // measure 64
1000
0000
0010
0000
,  // measure 65
1000
0000
0001
0000
,  // measure 66
0010
0000
0001
0000
,  // measure 67
1000
0000
0000
1001
;
